Tags
Language
Tags

John Barry, Michel Colombier & VA - The Golden Child: Music From The Motion Picture (1986) 3 CDs Limited Edition 2011 [Re-Up]

Posted By: Efgrapha
John Barry, Michel Colombier & VA - The Golden Child: Music From The Motion Picture (1986) 3 CDs Limited Edition 2011 [Re-Up]

John Barry, Michel Colombier & VA - The Golden Child (1986)
Music From The Motion Picture, 3 CDs Limited Edition 2011

EAC | FLAC (Tracks) + cue.+log ~ 831 Mb | Mp3, CBR320 ~ 382 Mb | Scans ~ 237 Mb | 02:45:40
Soundtrack, Score, Symphonic, Pop/Rock, Synthpop, R&B | Label: La-La Land | # LLLCD 1180

La-La Land Records presents, in association with Paramount Pictures and Capitol Records, the premiere release of both John Barry’s unused score and Michel Colombier’s score to the 1986 Paramount Pictures action/adventure motion picture THE GOLDEN CHILD, starring Eddie Murphy, Charlotte Lewis, Charles Dance and directed by Michael Ritchie. Mr. Barry’s (FROM RUSSIA WITH LOVE, BODY HEAT, A VIEW TO A KILL, DANCES WITH WOLVES) unused orchestral score is simply put, wondrous – a powerful, majestic work brimming with action, suspense and romance that strongly recalls the recently departed composer’s 80s Bond period while still retaining its own robust identity. Composer Michel Colombier’s (RUTHLESS PEOPLE, THE MONEY PIT, AGAINST ALL ODDS) score, only a portion of which has been previously released, is finally given its proper due here as well, showcasing the composer’s knack for traditional action scoring blended with the era’s contemporary, synth-based pop sound. Produced by Lukas Kendall and mastered by Mike Matessino, this comprehensive 3-Disc collection of music contains additional unreleased Barry cues, including the unused song “Dance A Little Closer” performed by none other than Randy Edelman! Along with Barry’s “Best Man In The World,” performed by Ann Wilson of Heart fame, all songs featured on the original 1986 soundtrack album are presented here, including tracks from such artists as Ratt, Ashford & Simpson, Meli’sa Morgan and others. Film music writer Jon Burlingame takes you behind the film’s duo of scores in his exclusive liner notes. A must for film music fans, this limited edition release of 5000 units showcases the work of two brilliant composers who remain with us through the timelessness of their talent.

John Barry, Michel Colombier & VA - The Golden Child: Music From The Motion Picture (1986) 3 CDs Limited Edition 2011 [Re-Up]


~ John Barry at Allmusic
~ John Barry at Wiki

~ Michel Colombier at Allmusic
~ Michel Colombier at Wiki

~ Film at IMDB
~ Film at Wiki

Tracklist:

CD1 Music Composed and Conducted by John Barry:

01. 1M1/2/3/4/5/6/7/8/9 (The Child Is Taken) (6:00)
02. The Best Man in the World (3:25) Performed by Ann Wilson
03. 2M1 (1:47)
04. 2M2 (2:12)
05. 3M1/2/3/4 (3:38)
06. 3M5/6A (Tin Can Man) (0:53)
07. 3M7/4M0 (Follow That Bird) (2:56)
08. 4M1 (Best Man) (2:05)
09. 4M2 (0:59)
10. 5M2 (1:13)
11. 5M3 (1:53)
12. 5M4/6M0 (2:36)
13. 6M1 (Chandler's Dream) (6:20)
14. 7M1 (0:50)
15. 7M2 (Love Theme) (2:22)
16. 7M3Ar/C (0:35)
17. 7M4/8M0/1 (6:13)
18. 8M2 (2:34)
19. 9M1 (Bottomless Pit) (4:52)
20. 9M2R (Wisdom of the Ages) (3:53)
21. 10M2/3 (2:21)
22. 10M4 (Kee Nang Gets the Arrow) (3:01)
23. 11M1 (3:05)
24. 11M2/A/B/C/D/E/F (The Final Act) (10:27)
25. 12M1 (1:05)

CD2 Music Score by Michel Colombier:

01. Sardo and the Child (5:29)
02. Blood in Oatmeal (1:51)
03. Child in Warehouse (1:23)
04. Astral Projection (1:58)
05. The Bikers (0:45)
06. We Sold Her (4:18)
07. Demons (2:01)
08. Kee's Tied Up (0:35)
09. Dream Sequence–Last Part (1:20)
10. Kee Nang Offers Herself (0:47)
11. Child in Truck / Chandler Follows Bird (2:09)
12. Take It (0:24)
13. The Mountain (1:18)
14. The Corridor (2:15)
15. The Knife Retrieval (3:37)
16. Golden Love (3:49)
17. Malibu / Battle at Malibu House (4:48)
18. Looking for Sardo (3:07)
19. Confrontation (5:31)
20. Sardo Is Back (1:04)
21. Kee Nang Lives (0:49)
22. The Chosen One (3:58) Performed by Robbie Buchanan
23. Love Goes On (Love Theme From The Golden Child) (4:52) Performed by Ashford & Simpson

CD3:

Additional Music Composed and Conducted by John Barry:

01. Best Man in the World (instrumental) (3:39)
02. 2M1R (1:24)
03. 12M1R (1:08)
04. 2M4 (Source) (1:58)
05. Dance a Little Closer (4:25) Performed by Randy Edelman

Additional Songs From the 1986 Soundtrack Album:

06. Deeper Love (4:30) Performed by Meli’sa Morgan
07. Shame on You (4:19) Performed by Martha Davis
08. Body Talk (3:52) Performed by Ratt
09. (Let Your Love Find) The Chosen One (5:03) Performed by Marlon Jackson


Exact Audio Copy V0.99 prebeta 4 from 23. January 2008

EAC extraction logfile from 2. August 2011, 12:29

John Barry / The Golden Child (Disc 1)

Used drive : Optiarc DVD RW AD-7241S Adapter: 1 ID: 1

Read mode : Secure
Utilize accurate stream : Yes
Defeat audio cache : Yes
Make use of C2 pointers : No

Read offset correction : 48
Overread into Lead-In and Lead-Out : No
Fill up missing offset samples with silence : Yes
Delete leading and trailing silent blocks : No
Null samples used in CRC calculations : Yes
Used interface : Installed external ASPI interface
Gap handling : Appended to previous track

Used output format : User Defined Encoder
Selected bitrate : 1024 kBit/s
Quality : High
Add ID3 tag : No
Command line compressor : C:\Program Files\Exact Audio Copy\Flac\flac.exe
Additional command line options : -V -8 -T "Genre=%m" -T "Artist=%a" -T "Title=%t" -T "Album=%g" -T "Date=%y" -T "Tracknumber=%n" -T "Comment=EAC FLAC -8" %s


TOC of the extracted CD

Track | Start | Length | Start sector | End sector
––––––––––––––––––––––––––––-
1 | 0:00.00 | 5:59.39 | 0 | 26963
2 | 5:59.39 | 3:25.29 | 26964 | 42367
3 | 9:24.68 | 1:46.44 | 42368 | 50361
4 | 11:11.37 | 2:11.40 | 50362 | 60226
5 | 13:23.02 | 3:37.57 | 60227 | 76558
6 | 17:00.59 | 0:53.11 | 76559 | 80544
7 | 17:53.70 | 2:56.11 | 80545 | 93755
8 | 20:50.06 | 2:05.11 | 93756 | 103141
9 | 22:55.17 | 0:59.17 | 103142 | 107583
10 | 23:54.34 | 1:12.72 | 107584 | 113055
11 | 25:07.31 | 1:53.31 | 113056 | 121561
12 | 27:00.62 | 2:35.71 | 121562 | 133257
13 | 29:36.58 | 6:19.66 | 133258 | 161748
14 | 35:56.49 | 0:50.13 | 161749 | 165511
15 | 36:46.62 | 2:21.41 | 165512 | 176127
16 | 39:08.28 | 0:35.10 | 176128 | 178762
17 | 39:43.38 | 6:13.25 | 178763 | 206762
18 | 45:56.63 | 2:33.46 | 206763 | 218283
19 | 48:30.34 | 4:51.66 | 218284 | 240174
20 | 53:22.25 | 3:53.22 | 240175 | 257671
21 | 57:15.47 | 2:21.21 | 257672 | 268267
22 | 59:36.68 | 3:01.22 | 268268 | 281864
23 | 62:38.15 | 3:04.73 | 281865 | 295737
24 | 65:43.13 | 10:26.40 | 295738 | 342727
25 | 76:09.53 | 1:04.64 | 342728 | 347591


Track 1

Filename F:\torrent\The Golden Child_3CD\CD1\01. John Barry – 1M1-2-3-4-5-6-7-8-9 (The Child Is Taken).wav

Pre-gap length 0:00:02.00

Peak level 93.2 %
Track quality 100.0 %
Test CRC 8F5CD9D3
Copy CRC 8F5CD9D3
Track not present in AccurateRip database
Copy OK

Track 2

Filename F:\torrent\The Golden Child_3CD\CD1\02. John Barry – Ann Wilson , The Best Man in the World.wav

Pre-gap length 0:00:03.43

Peak level 100.0 %
Track quality 100.0 %
Test CRC C091BC64
Copy CRC C091BC64
Track not present in AccurateRip database
Copy OK

Track 3

Filename F:\torrent\The Golden Child_3CD\CD1\03. John Barry – 2M1.wav

Pre-gap length 0:00:03.37

Peak level 45.5 %
Track quality 99.9 %
Test CRC FDCABE3E
Copy CRC FDCABE3E
Track not present in AccurateRip database
Copy OK

Track 4

Filename F:\torrent\The Golden Child_3CD\CD1\04. John Barry – 2M2.wav

Pre-gap length 0:00:01.44

Peak level 55.0 %
Track quality 100.0 %
Test CRC AF037A97
Copy CRC AF037A97
Track not present in AccurateRip database
Copy OK

Track 5

Filename F:\torrent\The Golden Child_3CD\CD1\05. John Barry – 3M1-2-3-4.wav

Peak level 50.1 %
Track quality 100.0 %
Test CRC 2F53EF73
Copy CRC 2F53EF73
Track not present in AccurateRip database
Copy OK

Track 6

Filename F:\torrent\The Golden Child_3CD\CD1\06. John Barry – 3M5-6A (Tin Can Man).wav

Pre-gap length 0:00:01.44

Peak level 94.6 %
Track quality 99.7 %
Test CRC 644089C0
Copy CRC 644089C0
Track not present in AccurateRip database
Copy OK

Track 7

Filename F:\torrent\The Golden Child_3CD\CD1\07. John Barry – 3M7-4M0 (Follow That Bird).wav

Peak level 68.3 %
Track quality 100.0 %
Test CRC 1290BB82
Copy CRC 1290BB82
Track not present in AccurateRip database
Copy OK

Track 8

Filename F:\torrent\The Golden Child_3CD\CD1\08. John Barry – 4M1 (Best Man).wav

Pre-gap length 0:00:01.43

Peak level 48.3 %
Track quality 100.0 %
Test CRC 3BCA1413
Copy CRC 3BCA1413
Track not present in AccurateRip database
Copy OK

Track 9

Filename F:\torrent\The Golden Child_3CD\CD1\09. John Barry – 4M2.wav

Pre-gap length 0:00:01.43

Peak level 61.3 %
Track quality 100.0 %
Test CRC 1748FCA6
Copy CRC 1748FCA6
Track not present in AccurateRip database
Copy OK

Track 10

Filename F:\torrent\The Golden Child_3CD\CD1\10. John Barry – 5M2.wav

Pre-gap length 0:00:01.03

Peak level 87.7 %
Track quality 100.0 %
Test CRC DABD99A2
Copy CRC DABD99A2
Track not present in AccurateRip database
Copy OK

Track 11

Filename F:\torrent\The Golden Child_3CD\CD1\11. John Barry – 5M3.wav

Peak level 97.9 %
Track quality 100.0 %
Test CRC D80F0B12
Copy CRC D80F0B12
Track not present in AccurateRip database
Copy OK

Track 12

Filename F:\torrent\The Golden Child_3CD\CD1\12. John Barry – 5M4-6M0.wav

Pre-gap length 0:00:01.44

Peak level 75.4 %
Track quality 100.0 %
Test CRC 1A264B1B
Copy CRC 1A264B1B
Track not present in AccurateRip database
Copy OK

Track 13

Filename F:\torrent\The Golden Child_3CD\CD1\13. John Barry – 6M1 (Chandler's Dream).wav

Pre-gap length 0:00:01.44

Peak level 99.5 %
Track quality 99.9 %
Test CRC 8B296896
Copy CRC 8B296896
Track not present in AccurateRip database
Copy OK

Track 14

Filename F:\torrent\The Golden Child_3CD\CD1\14. John Barry – 7M1.wav

Pre-gap length 0:00:01.43

Peak level 28.8 %
Track quality 100.0 %
Test CRC D71B8B1B
Copy CRC D71B8B1B
Track not present in AccurateRip database
Copy OK

Track 15

Filename F:\torrent\The Golden Child_3CD\CD1\15. John Barry – 7M2 (Love Theme).wav

Peak level 41.3 %
Track quality 100.0 %
Test CRC 08CB8B1D
Copy CRC 08CB8B1D
Track not present in AccurateRip database
Copy OK

Track 16

Filename F:\torrent\The Golden Child_3CD\CD1\16. John Barry – 7M3Ar-C.wav

Peak level 46.5 %
Track quality 100.0 %
Test CRC 2544049E
Copy CRC 2544049E
Track not present in AccurateRip database
Copy OK

Track 17

Filename F:\torrent\The Golden Child_3CD\CD1\17. John Barry – 7M4-8M0-1.wav

Peak level 61.9 %
Track quality 100.0 %
Test CRC 5EFB39B9
Copy CRC 5EFB39B9
Track not present in AccurateRip database
Copy OK

Track 18

Filename F:\torrent\The Golden Child_3CD\CD1\18. John Barry – 8M2.wav

Peak level 76.0 %
Track quality 100.0 %
Test CRC 5E6E8F65
Copy CRC 5E6E8F65
Track not present in AccurateRip database
Copy OK

Track 19

Filename F:\torrent\The Golden Child_3CD\CD1\19. John Barry – 9M1 (Bottomless Pit).wav

Pre-gap length 0:00:01.44

Peak level 82.1 %
Track quality 99.9 %
Test CRC 764F9AF7
Copy CRC 764F9AF7
Track not present in AccurateRip database
Copy OK

Track 20

Filename F:\torrent\The Golden Child_3CD\CD1\20. John Barry – 9M2R (Wisdom of the Ages).wav

Peak level 54.9 %
Track quality 100.0 %
Test CRC E87AEC93
Copy CRC E87AEC93
Track not present in AccurateRip database
Copy OK

Track 21

Filename F:\torrent\The Golden Child_3CD\CD1\21. John Barry – 10M2-3.wav

Pre-gap length 0:00:02.42

Peak level 48.1 %
Track quality 100.0 %
Test CRC E5CC7A9E
Copy CRC E5CC7A9E
Track not present in AccurateRip database
Copy OK

Track 22

Filename F:\torrent\The Golden Child_3CD\CD1\22. John Barry – 10M4 (Kee Nang Gets the Arrow).wav

Pre-gap length 0:00:01.43

Peak level 96.3 %
Track quality 99.9 %
Test CRC 83B42FD3
Copy CRC 83B42FD3
Track not present in AccurateRip database
Copy OK

Track 23

Filename F:\torrent\The Golden Child_3CD\CD1\23. John Barry – 11M1.wav

Pre-gap length 0:00:02.43

Peak level 99.1 %
Track quality 99.9 %
Test CRC 0D9B0780
Copy CRC 0D9B0780
Track not present in AccurateRip database
Copy OK

Track 24

Filename F:\torrent\The Golden Child_3CD\CD1\24. John Barry – 11M2-A-B-C-D-E-F (The Final Act).wav

Peak level 97.6 %
Track quality 100.0 %
Test CRC B4986744
Copy CRC B4986744
Track not present in AccurateRip database
Copy OK

Track 25

Filename F:\torrent\The Golden Child_3CD\CD1\25. John Barry – 12M1.wav

Pre-gap length 0:00:02.43

Peak level 70.3 %
Track quality 100.0 %
Test CRC 29CFA86B
Copy CRC 29CFA86B
Track not present in AccurateRip database
Copy OK


None of the tracks are present in the AccurateRip database

No errors occurred

End of status report

[CUETools log; Date: 13.04.2017 23:44:16; Version: 2.1.4]
[CTDB TOCID: iNXBnxUOCyoiz1FKWiKcp2v24ps-] found.
Track | CTDB Status
1 | (11/11) Accurately ripped
2 | (11/11) Accurately ripped
3 | (11/11) Accurately ripped
4 | (11/11) Accurately ripped
5 | (11/11) Accurately ripped
6 | (11/11) Accurately ripped
7 | (11/11) Accurately ripped
8 | (11/11) Accurately ripped
9 | (11/11) Accurately ripped
10 | (11/11) Accurately ripped
11 | (11/11) Accurately ripped
12 | (11/11) Accurately ripped
13 | (11/11) Accurately ripped
14 | (11/11) Accurately ripped
15 | (11/11) Accurately ripped
16 | (11/11) Accurately ripped
17 | (11/11) Accurately ripped
18 | (11/11) Accurately ripped
19 | (11/11) Accurately ripped
20 | (11/11) Accurately ripped
21 | (11/11) Accurately ripped
22 | (11/11) Accurately ripped
23 | (11/11) Accurately ripped
24 | (11/11) Accurately ripped
25 | (11/11) Accurately ripped
[AccurateRip ID: 003f555c-04736647-6b121a19] found.
Track [ CRC | V2 ] Status
01 [18d05b89|8c9ee497] (05+12/20) Accurately ripped
02 [b67be679|9eaa0295] (05+12/20) Accurately ripped
03 [ee20b03a|8e789ca1] (05+12/20) Accurately ripped
04 [3accf1a7|c955843a] (05+12/20) Accurately ripped
05 [b699c028|a87d0c0f] (05+12/20) Accurately ripped
06 [c278145d|8e36aa7e] (05+12/20) Accurately ripped
07 [8f0fe67c|b99cc3bf] (05+12/20) Accurately ripped
08 [fb477bfe|c04d0ffa] (05+12/20) Accurately ripped
09 [8d1b3ce8|9d5c94d0] (05+12/20) Accurately ripped
10 [e8b03d41|c0b95d2a] (05+12/20) Accurately ripped
11 [088aef70|8d8b3bf9] (05+12/20) Accurately ripped
12 [1a47b530|f1abf5c3] (05+12/20) Accurately ripped
13 [ce6b6307|ebd26a5b] (05+12/20) Accurately ripped
14 [f2a81002|637f477f] (05+12/20) Accurately ripped
15 [f860ae6b|4d1f7c26] (05+12/20) Accurately ripped
16 [f71b160d|9b42dc1e] (05+12/20) Accurately ripped
17 [fbb4e1d4|e657e435] (05+12/20) Accurately ripped
18 [24ffd453|f014eae8] (05+12/20) Accurately ripped
19 [3d43290d|7813b42b] (05+12/20) Accurately ripped
20 [9efc9d78|584dcebc] (05+12/20) Accurately ripped
21 [cf0c9070|b82fa49c] (05+12/20) Accurately ripped
22 [7918e1e5|f6b96901] (05+12/20) Accurately ripped
23 [fb1adc91|af8c273a] (05+12/20) Accurately ripped
24 [5e74cd48|371a1e26] (05+12/20) Accurately ripped
25 [eda2d7e0|f812e733] (05+12/20) Accurately ripped
Offsetted by -634:
01 [a7720353] (00/20) No match (V2 was not tested)
02 [97b6ea73] (00/20) No match (V2 was not tested)
03 [73121ab4] (00/20) No match (V2 was not tested)
04 [3de39f6d] (00/20) No match (V2 was not tested)
05 [25369428] (00/20) No match (V2 was not tested)
06 [e78ec9d5] (00/20) No match (V2 was not tested)
07 [b8d5a6c2] (00/20) No match (V2 was not tested)
08 [911b78e0] (00/20) No match (V2 was not tested)
09 [dce272a0] (00/20) No match (V2 was not tested)
10 [3ed4f1bf] (00/20) No match (V2 was not tested)
11 [1d469ede] (00/20) No match (V2 was not tested)
12 [b927ca56] (00/20) No match (V2 was not tested)
13 [243286b3] (00/20) No match (V2 was not tested)
14 [ed5b50de] (00/20) No match (V2 was not tested)
15 [bf805481] (00/20) No match (V2 was not tested)
16 [95973bbb] (00/20) No match (V2 was not tested)
17 [f1ad71bc] (00/20) No match (V2 was not tested)
18 [756105a7] (00/20) No match (V2 was not tested)
19 [162cdddd] (00/20) No match (V2 was not tested)
20 [a18b255e] (00/20) No match (V2 was not tested)
21 [8a82510e] (00/20) No match (V2 was not tested)
22 [5a73bd01] (00/20) No match (V2 was not tested)
23 [b0ef4c99] (00/20) No match (V2 was not tested)
24 [baca0398] (00/20) No match (V2 was not tested)
25 [5fd0e8a6] (00/20) No match (V2 was not tested)

Track Peak [ CRC32 ] [W/O NULL] [ LOG ]
– 100,0 [6C00039A] [76D13D0D]
01 93,2 [8F5CD9D3] [FB662122] CRC32
02 100,0 [C091BC64] [3ABBD51D] CRC32
03 45,5 [FDCABE3E] [4EB1C45A] CRC32
04 55,0 [AF037A97] [E384D83A] CRC32
05 50,1 [2F53EF73] [901B40FA] CRC32
06 94,6 [644089C0] [06FECC3F] CRC32
07 68,2 [1290BB82] [5EBA7F59] CRC32
08 48,3 [3BCA1413] [EAF3DC36] CRC32
09 61,3 [1748FCA6] [57EB77DC] CRC32
10 87,7 [DABD99A2] [16A8EE44] CRC32
11 97,9 [D80F0B12] [CEA04728] CRC32
12 75,4 [1A264B1B] [84A96BCC] CRC32
13 99,5 [8B296896] [6E62BF0B] CRC32
14 28,8 [D71B8B1B] [AD10EF8A] CRC32
15 41,3 [08CB8B1D] [E4A15A3E] CRC32
16 46,5 [2544049E] [C2224E80] CRC32
17 61,9 [5EFB39B9] [683EF862] CRC32
18 76,0 [5E6E8F65] [4ED35FE8] CRC32
19 82,1 [764F9AF7] [09983525] CRC32
20 54,9 [E87AEC93] [991D6D54] CRC32
21 48,1 [E5CC7A9E] [6F7C2EE3] CRC32
22 96,3 [83B42FD3] [1E218EC0] CRC32
23 99,1 [0D9B0780] [56C91810] CRC32
24 97,6 [B4986744] [DE5A823F] CRC32
25 70,3 [29CFA86B] [EC2EDB17] CRC32

foobar2000 1.2 / Dynamic Range Meter 1.1.1
log date: 2017-04-13 22:51:39

––––––––––––––––––––––––––––––––––––––––
Analyzed: John Barry / The Golden Child (Disc 1)
––––––––––––––––––––––––––––––––––––––––

DR Peak RMS Duration Track
––––––––––––––––––––––––––––––––––––––––
DR12 -0.61 dB -17.73 dB 6:00 01-1M1\2\3\4\5\6\7\8\9 (The Child Is Taken)
DR14 0.00 dB -16.26 dB 3:25 02-Ann Wilson / The Best Man in the World
DR10 -6.83 dB -20.85 dB 1:47 03-2M1
DR11 -5.18 dB -20.21 dB 2:12 04-2M2
DR12 -6.00 dB -22.70 dB 3:38 05-3M1\2\3\4
DR14 -0.47 dB -22.26 dB 0:53 06-3M5\6A (Tin Can Man)
DR11 -3.31 dB -20.36 dB 2:56 07-3M7\4M0 (Follow That Bird)
DR11 -6.31 dB -21.86 dB 2:05 08-4M1 (Best Man)
DR11 -4.25 dB -20.32 dB 0:59 09-4M2
DR11 -1.13 dB -26.89 dB 1:13 10-5M2
DR15 -0.18 dB -21.39 dB 1:53 11-5M3
DR10 -2.45 dB -17.90 dB 2:36 12-5M4\6M0
DR16 -0.04 dB -22.38 dB 6:20 13-6M1 (Chandler's Dream)
DR11 -10.80 dB -26.62 dB 0:50 14-7M1
DR11 -7.68 dB -23.07 dB 2:22 15-7M2 (Love Theme)
DR7 -6.64 dB -20.75 dB 0:35 16-7M3Ar\C
DR12 -4.16 dB -21.54 dB 6:13 17-7M4\8M0\1
DR14 -2.38 dB -22.34 dB 2:34 18-8M2
DR14 -1.71 dB -20.56 dB 4:52 19-9M1 (Bottomless Pit)
DR11 -5.19 dB -21.60 dB 3:53 20-9M2R (Wisdom of the Ages)
DR11 -6.35 dB -21.70 dB 2:21 21-10M2\3
DR13 -0.32 dB -17.57 dB 3:01 22-10M4 (Kee Nang Gets the Arrow)
DR16 -0.07 dB -21.78 dB 3:05 23-11M1
DR12 -0.21 dB -16.75 dB 10:27 24-11M2\A\B\C\D\E\F (The Final Act)
DR10 -3.06 dB -18.50 dB 1:05 25-12M1
––––––––––––––––––––––––––––––––––––––––

Number of tracks: 25
Official DR value: DR12

Samplerate: 44100 Hz
Channels: 2
Bits per sample: 16
Bitrate: 750 kbps
Codec: FLAC
================================================================================


Exact Audio Copy V0.99 prebeta 4 from 23. January 2008

EAC extraction logfile from 2. August 2011, 13:22

Michel Colombier / The Golden Child (Disc 2)

Used drive : Optiarc DVD RW AD-7241S Adapter: 1 ID: 1

Read mode : Secure
Utilize accurate stream : Yes
Defeat audio cache : Yes
Make use of C2 pointers : No

Read offset correction : 48
Overread into Lead-In and Lead-Out : No
Fill up missing offset samples with silence : Yes
Delete leading and trailing silent blocks : No
Null samples used in CRC calculations : Yes
Used interface : Installed external ASPI interface
Gap handling : Appended to previous track

Used output format : User Defined Encoder
Selected bitrate : 1024 kBit/s
Quality : High
Add ID3 tag : No
Command line compressor : C:\Program Files\Exact Audio Copy\Flac\flac.exe
Additional command line options : -V -8 -T "Genre=%m" -T "Artist=%a" -T "Title=%t" -T "Album=%g" -T "Date=%y" -T "Tracknumber=%n" -T "Comment=EAC FLAC -8" %s


TOC of the extracted CD

Track | Start | Length | Start sector | End sector
––––––––––––––––––––––––––––-
1 | 0:00.00 | 5:28.50 | 0 | 24649
2 | 5:28.50 | 1:51.20 | 24650 | 32994
3 | 7:19.70 | 1:22.54 | 32995 | 39198
4 | 8:42.49 | 1:57.62 | 39199 | 48035
5 | 10:40.36 | 0:45.13 | 48036 | 51423
6 | 11:25.49 | 4:17.46 | 51424 | 70744
7 | 15:43.20 | 2:01.00 | 70745 | 79819
8 | 17:44.20 | 0:34.64 | 79820 | 82433
9 | 18:19.09 | 1:20.37 | 82434 | 88470
10 | 19:39.46 | 0:47.00 | 88471 | 91995
11 | 20:26.46 | 2:09.07 | 91996 | 101677
12 | 22:35.53 | 0:24.11 | 101678 | 103488
13 | 22:59.64 | 1:17.55 | 103489 | 109318
14 | 24:17.44 | 2:14.68 | 109319 | 119436
15 | 26:32.37 | 3:37.05 | 119437 | 135716
16 | 30:09.42 | 3:48.74 | 135717 | 152890
17 | 33:58.41 | 4:47.40 | 152891 | 174455
18 | 38:46.06 | 3:07.04 | 174456 | 188484
19 | 41:53.10 | 5:31.13 | 188485 | 213322
20 | 47:24.23 | 1:03.63 | 213323 | 218110
21 | 48:28.11 | 0:49.30 | 218111 | 221815
22 | 49:17.41 | 3:58.00 | 221816 | 239665
23 | 53:15.41 | 4:52.22 | 239666 | 261587


Track 1

Filename F:\torrent\The Golden Child_3CD\CD2\01. Michel Colombier – Sardo and the Child.wav

Pre-gap length 0:00:02.00

Peak level 99.0 %
Track quality 100.0 %
Test CRC 38284A1D
Copy CRC 38284A1D
Track not present in AccurateRip database
Copy OK

Track 2

Filename F:\torrent\The Golden Child_3CD\CD2\02. Michel Colombier – Blood in Oatmeal.wav

Pre-gap length 0:00:01.42

Peak level 87.7 %
Track quality 99.9 %
Test CRC CDB89522
Copy CRC CDB89522
Track not present in AccurateRip database
Copy OK

Track 3

Filename F:\torrent\The Golden Child_3CD\CD2\03. Michel Colombier – Child in Warehouse.wav

Pre-gap length 0:00:03.40

Peak level 41.6 %
Track quality 100.0 %
Test CRC 57529CB6
Copy CRC 57529CB6
Track not present in AccurateRip database
Copy OK

Track 4

Filename F:\torrent\The Golden Child_3CD\CD2\04. Michel Colombier – Astral Projection.wav

Pre-gap length 0:00:01.12

Peak level 35.8 %
Track quality 100.0 %
Test CRC D11321B7
Copy CRC D11321B7
Track not present in AccurateRip database
Copy OK

Track 5

Filename F:\torrent\The Golden Child_3CD\CD2\05. Michel Colombier – The Bikers.wav

Peak level 94.8 %
Track quality 99.7 %
Test CRC F45D9383
Copy CRC F45D9383
Track not present in AccurateRip database
Copy OK

Track 6

Filename F:\torrent\The Golden Child_3CD\CD2\06. Michel Colombier – We Sold Her.wav

Pre-gap length 0:00:01.24

Peak level 96.4 %
Track quality 100.0 %
Test CRC 08909DC3
Copy CRC 08909DC3
Track not present in AccurateRip database
Copy OK

Track 7

Filename F:\torrent\The Golden Child_3CD\CD2\07. Michel Colombier – Demons.wav

Pre-gap length 0:00:01.26

Peak level 91.4 %
Track quality 100.0 %
Test CRC 935AD328
Copy CRC 935AD328
Track not present in AccurateRip database
Copy OK

Track 8

Filename F:\torrent\The Golden Child_3CD\CD2\08. Michel Colombier – Kee's Tied Up.wav

Pre-gap length 0:00:02.30

Peak level 30.0 %
Track quality 99.6 %
Test CRC A77A27F3
Copy CRC A77A27F3
Track not present in AccurateRip database
Copy OK

Track 9

Filename F:\torrent\The Golden Child_3CD\CD2\09. Michel Colombier – Dream Sequence-Last Part.wav

Peak level 93.2 %
Track quality 100.0 %
Test CRC 78BADE04
Copy CRC 78BADE04
Track not present in AccurateRip database
Copy OK

Track 10

Filename F:\torrent\The Golden Child_3CD\CD2\10. Michel Colombier – Kee Nang Offers Herself.wav

Pre-gap length 0:00:01.31

Peak level 43.5 %
Track quality 100.0 %
Test CRC 04CF1647
Copy CRC 04CF1647
Track not present in AccurateRip database
Copy OK

Track 11

Filename F:\torrent\The Golden Child_3CD\CD2\11. Michel Colombier – Child in Truck - Chandler Follows Bird.wav

Peak level 95.0 %
Track quality 100.0 %
Test CRC F1079126
Copy CRC F1079126
Track not present in AccurateRip database
Copy OK

Track 12

Filename F:\torrent\The Golden Child_3CD\CD2\12. Michel Colombier – Take It.wav

Peak level 54.3 %
Track quality 100.0 %
Test CRC DF1AB5D2
Copy CRC DF1AB5D2
Track not present in AccurateRip database
Copy OK

Track 13

Filename F:\torrent\The Golden Child_3CD\CD2\13. Michel Colombier – The Mountain.wav

Peak level 79.7 %
Track quality 100.0 %
Test CRC AC3493B9
Copy CRC AC3493B9
Track not present in AccurateRip database
Copy OK

Track 14

Filename F:\torrent\The Golden Child_3CD\CD2\14. Michel Colombier – The Corridor.wav

Peak level 71.8 %
Track quality 100.0 %
Test CRC 3EAD155A
Copy CRC 3EAD155A
Track not present in AccurateRip database
Copy OK

Track 15

Filename F:\torrent\The Golden Child_3CD\CD2\15. Michel Colombier – The Knife Retrieval.wav

Peak level 83.6 %
Track quality 100.0 %
Test CRC B1C87001
Copy CRC B1C87001
Track not present in AccurateRip database
Copy OK

Track 16

Filename F:\torrent\The Golden Child_3CD\CD2\16. Michel Colombier – Golden Love.wav

Pre-gap length 0:00:01.40

Peak level 55.5 %
Track quality 100.0 %
Test CRC 43EDCE31
Copy CRC 43EDCE31
Track not present in AccurateRip database
Copy OK

Track 17

Filename F:\torrent\The Golden Child_3CD\CD2\17. Michel Colombier – Malibu - Battle at Malibu House.wav

Pre-gap length 0:00:01.39

Peak level 96.0 %
Track quality 99.9 %
Test CRC C422F5E4
Copy CRC C422F5E4
Track not present in AccurateRip database
Copy OK

Track 18

Filename F:\torrent\The Golden Child_3CD\CD2\18. Michel Colombier – Looking for Sardo.wav

Peak level 91.7 %
Track quality 100.0 %
Test CRC E7992264
Copy CRC E7992264
Track not present in AccurateRip database
Copy OK

Track 19

Filename F:\torrent\The Golden Child_3CD\CD2\19. Michel Colombier – Confrontation.wav

Peak level 92.8 %
Track quality 100.0 %
Test CRC 1585D9FD
Copy CRC 1585D9FD
Track not present in AccurateRip database
Copy OK

Track 20

Filename F:\torrent\The Golden Child_3CD\CD2\20. Michel Colombier – Sardo Is Back.wav

Peak level 93.9 %
Track quality 100.0 %
Test CRC CB11D050
Copy CRC CB11D050
Track not present in AccurateRip database
Copy OK

Track 21

Filename F:\torrent\The Golden Child_3CD\CD2\21. Michel Colombier – Kee Nang Lives.wav

Pre-gap length 0:00:02.25

Peak level 31.5 %
Track quality 100.0 %
Test CRC 04019425
Copy CRC 04019425
Track not present in AccurateRip database
Copy OK

Track 22

Filename F:\torrent\The Golden Child_3CD\CD2\22. Michel Colombier – Robbie Buchanan , The Chosen One.wav

Peak level 92.7 %
Track quality 100.0 %
Test CRC 6C52A4D6
Copy CRC 6C52A4D6
Track not present in AccurateRip database
Copy OK

Track 23

Filename F:\torrent\The Golden Child_3CD\CD2\23. Michel Colombier – Ashford & Simpson , Love Goes On (Love Theme From The Golden Child).wav

Pre-gap length 0:00:02.23

Peak level 64.1 %
Track quality 100.0 %
Test CRC 9449F559
Copy CRC 9449F559
Track not present in AccurateRip database
Copy OK


None of the tracks are present in the AccurateRip database

No errors occurred

End of status report

[CUETools log; Date: 13.04.2017 23:44:31; Version: 2.1.4]
[CTDB TOCID: cdCXVu0wMU8qmLHou0b3p4wFHTc-] found.
Track | CTDB Status
1 | (12/12) Accurately ripped
2 | (12/12) Accurately ripped
3 | (12/12) Accurately ripped
4 | (12/12) Accurately ripped
5 | (12/12) Accurately ripped
6 | (12/12) Accurately ripped
7 | (12/12) Accurately ripped
8 | (12/12) Accurately ripped
9 | (12/12) Accurately ripped
10 | (12/12) Accurately ripped
11 | (12/12) Accurately ripped
12 | (12/12) Accurately ripped
13 | (12/12) Accurately ripped
14 | (12/12) Accurately ripped
15 | (12/12) Accurately ripped
16 | (12/12) Accurately ripped
17 | (12/12) Accurately ripped
18 | (12/12) Accurately ripped
19 | (12/12) Accurately ripped
20 | (12/12) Accurately ripped
21 | (11/12) Accurately ripped
22 | (12/12) Accurately ripped
23 | (12/12) Accurately ripped
[AccurateRip ID: 002b7bd2-02d52442-350d9f17] found.
Track [ CRC | V2 ] Status
01 [7d14943b|c005a027] (04+12/19) Accurately ripped
02 [b5c3246e|840d9718] (04+12/19) Accurately ripped
03 [e8bf3298|a1867e9f] (04+12/19) Accurately ripped
04 [e90ad922|7d577d15] (04+12/19) Accurately ripped
05 [d409f023|028cec70] (04+12/19) Accurately ripped
06 [6edd72dc|5453159a] (04+12/19) Accurately ripped
07 [8e3ffa6f|a30ac263] (04+12/19) Accurately ripped
08 [7786956d|b458697a] (04+12/19) Accurately ripped
09 [d78fd714|28d6b8e7] (04+12/19) Accurately ripped
10 [4c9c13ff|ebfe7a7b] (04+12/19) Accurately ripped
11 [b7fdc895|e8b135a3] (04+12/19) Accurately ripped
12 [5fda18f6|7356e38e] (04+12/19) Accurately ripped
13 [87e19eb9|9ac665e6] (04+12/19) Accurately ripped
14 [eb2a1dae|69b69808] (04+12/19) Accurately ripped
15 [f10731f3|abc463d2] (04+12/19) Accurately ripped
16 [bf294882|718ed8e9] (04+12/19) Accurately ripped
17 [7d1df173|794e1305] (04+12/19) Accurately ripped
18 [9af14941|d04c0e9e] (04+12/19) Accurately ripped
19 [8b8a0f30|3f1a77f8] (04+12/19) Accurately ripped
20 [e89fc286|8a6a0369] (04+12/19) Accurately ripped
21 [61b3c0f8|47448155] (04+12/19) Accurately ripped
22 [882f8ca5|df031b63] (04+12/19) Accurately ripped
23 [e4e5b456|c75c2c77] (03+12/18) Accurately ripped
Offsetted by -634:
01 [4c9ba1d5] (00/19) No match (V2 was not tested)
02 [506023de] (00/19) No match (V2 was not tested)
03 [a1571f30] (00/19) No match (V2 was not tested)
04 [5c65f452] (00/19) No match (V2 was not tested)
05 [06378f61] (00/19) No match (V2 was not tested)
06 [8378bec4] (00/19) No match (V2 was not tested)
07 [4842e56d] (00/19) No match (V2 was not tested)
08 [5d49e71f] (00/19) No match (V2 was not tested)
09 [ed7dab3a] (00/19) No match (V2 was not tested)
10 [fa1ff90b] (00/19) No match (V2 was not tested)
11 [44378f11] (00/19) No match (V2 was not tested)
12 [756a5146] (00/19) No match (V2 was not tested)
13 [b4116ed6] (00/19) No match (V2 was not tested)
14 [e38e1a0d] (00/19) No match (V2 was not tested)
15 [b66dc7e3] (00/19) No match (V2 was not tested)
16 [4c451952] (00/19) No match (V2 was not tested)
17 [bb6d6da9] (00/19) No match (V2 was not tested)
18 [1d4d50a6] (00/19) No match (V2 was not tested)
19 [65888963] (00/19) No match (V2 was not tested)
20 [f53b47da] (00/19) No match (V2 was not tested)
21 [53f8f5a4] (00/19) No match (V2 was not tested)
22 [1564d187] (00/19) No match (V2 was not tested)
23 [dd51d188] (00/18) No match (V2 was not tested)

Track Peak [ CRC32 ] [W/O NULL] [ LOG ]
– 99,0 [02A97046] [99E81756]
01 99,0 [38284A1D] [D458039E] CRC32
02 87,7 [CDB89522] [74BE0679] CRC32
03 41,6 [57529CB6] [7787DBAF] CRC32
04 35,8 [D11321B7] [0A3ED869] CRC32
05 94,8 [F45D9383] [EDF9099F] CRC32
06 96,4 [08909DC3] [5B788CF2] CRC32
07 91,4 [935AD328] [F9B28463] CRC32
08 30,0 [A77A27F3] [34A5FC0F] CRC32
09 93,2 [78BADE04] [56AF3D50] CRC32
10 43,5 [04CF1647] [08285F52] CRC32
11 95,0 [F1079126] [DEA3EEE5] CRC32
12 54,3 [DF1AB5D2] [E5F5AF1B] CRC32
13 79,7 [AC3493B9] [35AFB10C] CRC32
14 71,8 [3EAD155A] [7D982E0C] CRC32
15 83,6 [B1C87001] [F8A6DAD3] CRC32
16 55,5 [43EDCE31] [91A92194] CRC32
17 96,0 [C422F5E4] [D11F5983] CRC32
18 91,7 [E7992264] [5859DD25] CRC32
19 92,8 [1585D9FD] [E45B53EA] CRC32
20 93,9 [CB11D050] [C573FCED] CRC32
21 31,5 [04019425] [9A33B526] CRC32
22 92,7 [6C52A4D6] [8977DBF1] CRC32
23 64,1 [9449F559] [B9BF569A] CRC32

foobar2000 1.2 / Dynamic Range Meter 1.1.1
log date: 2017-04-13 22:52:02

––––––––––––––––––––––––––––––––––––––––
Analyzed: Michel Colombier / The Golden Child (Disc 2)
––––––––––––––––––––––––––––––––––––––––

DR Peak RMS Duration Track
––––––––––––––––––––––––––––––––––––––––
DR14 -0.08 dB -17.68 dB 5:29 01-Sardo and the Child
DR10 -1.13 dB -14.49 dB 1:51 02-Blood in Oatmeal
DR8 -7.60 dB -20.76 dB 1:23 03-Child in Warehouse
DR9 -8.90 dB -23.58 dB 1:58 04-Astral Projection
DR12 -0.46 dB -16.28 dB 0:45 05-The Bikers
DR13 -0.31 dB -20.20 dB 4:18 06-We Sold Her
DR13 -0.77 dB -19.68 dB 2:01 07-Demons
DR10 -10.45 dB -23.46 dB 0:35 08-Kee's Tied Up
DR11 -0.61 dB -17.14 dB 1:20 09-Dream Sequence-Last Part
DR8 -7.22 dB -22.73 dB 0:47 10-Kee Nang Offers Herself
DR13 -0.44 dB -17.45 dB 2:09 11-Child in Truck \ Chandler Follows Bird
DR11 -5.30 dB -19.58 dB 0:24 12-Take It
DR12 -1.97 dB -18.38 dB 1:18 13-The Mountain
DR11 -2.87 dB -20.01 dB 2:15 14-The Corridor
DR12 -1.55 dB -20.34 dB 3:37 15-The Knife Retrieval
DR10 -5.10 dB -18.84 dB 3:49 16-Golden Love
DR13 -0.35 dB -19.25 dB 4:48 17-Malibu \ Battle at Malibu House
DR12 -0.75 dB -19.96 dB 3:07 18-Looking for Sardo
DR14 -0.64 dB -19.69 dB 5:31 19-Confrontation
DR13 -0.54 dB -17.70 dB 1:04 20-Sardo Is Back
DR9 -10.02 dB -25.40 dB 0:49 21-Kee Nang Lives
DR14 -0.66 dB -16.33 dB 3:58 22-Robbie Buchanan / The Chosen One
DR12 -3.86 dB -18.94 dB 4:52 23-Ashford & Simpson / Love Goes On (Love Theme From The Golden Child)
––––––––––––––––––––––––––––––––––––––––

Number of tracks: 23
Official DR value: DR12

Samplerate: 44100 Hz
Channels: 2
Bits per sample: 16
Bitrate: 738 kbps
Codec: FLAC
================================================================================


Exact Audio Copy V0.99 prebeta 4 from 23. January 2008

EAC extraction logfile from 2. August 2011, 16:46

Various / The Golden Child (Disc 3)

Used drive : Optiarc DVD RW AD-7241S Adapter: 1 ID: 1

Read mode : Secure
Utilize accurate stream : Yes
Defeat audio cache : Yes
Make use of C2 pointers : No

Read offset correction : 48
Overread into Lead-In and Lead-Out : No
Fill up missing offset samples with silence : Yes
Delete leading and trailing silent blocks : No
Null samples used in CRC calculations : Yes
Used interface : Installed external ASPI interface
Gap handling : Appended to previous track

Used output format : User Defined Encoder
Selected bitrate : 1024 kBit/s
Quality : High
Add ID3 tag : No
Command line compressor : C:\Program Files\Exact Audio Copy\Flac\flac.exe
Additional command line options : -V -8 -T "Genre=%m" -T "Artist=%a" -T "Title=%t" -T "Album=%g" -T "Date=%y" -T "Tracknumber=%n" -T "Comment=EAC FLAC -8" %s


TOC of the extracted CD

Track | Start | Length | Start sector | End sector
––––––––––––––––––––––––––––-
1 | 0:00.00 | 3:39.09 | 0 | 16433
2 | 3:39.09 | 1:23.55 | 16434 | 22713
3 | 5:02.64 | 1:08.23 | 22714 | 27836
4 | 6:11.12 | 1:57.46 | 27837 | 36657
5 | 8:08.58 | 4:25.20 | 36658 | 56552
6 | 12:34.03 | 4:30.34 | 56553 | 76836
7 | 17:04.37 | 4:18.53 | 76837 | 96239
8 | 21:23.15 | 3:52.04 | 96240 | 113643
9 | 25:15.19 | 5:02.70 | 113644 | 136363


Track 1

Filename F:\torrent\The Golden Child_3CD\CD3\01. John Barry – Best Man in the World (instrumental).wav

Pre-gap length 0:00:02.00

Peak level 46.3 %
Track quality 100.0 %
Test CRC 344CEB38
Copy CRC 344CEB38
Track not present in AccurateRip database
Copy OK

Track 2

Filename F:\torrent\The Golden Child_3CD\CD3\02. John Barry – 2M1R.wav

Peak level 51.1 %
Track quality 100.0 %
Test CRC 4D4798C6
Copy CRC 4D4798C6
Track not present in AccurateRip database
Copy OK

Track 3

Filename F:\torrent\The Golden Child_3CD\CD3\03. John Barry – 12M1R.wav

Pre-gap length 0:00:02.43

Peak level 41.2 %
Track quality 100.0 %
Test CRC 466585DB
Copy CRC 466585DB
Track not present in AccurateRip database
Copy OK

Track 4

Filename F:\torrent\The Golden Child_3CD\CD3\04. John Barry – 2M4 (Source).wav

Pre-gap length 0:00:03.44

Peak level 51.5 %
Track quality 100.0 %
Test CRC C0EA4BA1
Copy CRC C0EA4BA1
Track not present in AccurateRip database
Copy OK

Track 5

Filename F:\torrent\The Golden Child_3CD\CD3\05. Randy Edelman – Dance a Little Closer.wav

Pre-gap length 0:00:03.56

Peak level 50.9 %
Track quality 100.0 %
Test CRC 32A458D5
Copy CRC 32A458D5
Track not present in AccurateRip database
Copy OK

Track 6

Filename F:\torrent\The Golden Child_3CD\CD3\06. Meli'sa Morgan – Deeper Love.wav

Pre-gap length 0:00:05.23

Peak level 96.8 %
Track quality 100.0 %
Test CRC A43771B6
Copy CRC A43771B6
Track not present in AccurateRip database
Copy OK

Track 7

Filename F:\torrent\The Golden Child_3CD\CD3\07. Martha Davis – Shame on You.wav

Pre-gap length 0:00:04.44

Peak level 95.9 %
Track quality 100.0 %
Test CRC E7AD6529
Copy CRC E7AD6529
Track not present in AccurateRip database
Copy OK

Track 8

Filename F:\torrent\The Golden Child_3CD\CD3\08. Ratt – Body Talk.wav

Pre-gap length 0:00:04.35

Peak level 95.4 %
Track quality 100.0 %
Test CRC 3B20319B
Copy CRC 3B20319B
Track not present in AccurateRip database
Copy OK

Track 9

Filename F:\torrent\The Golden Child_3CD\CD3\09. Marlon Jackson – (Let Your Love Find) The Chosen One.wav

Pre-gap length 0:00:04.72

Peak level 96.6 %
Track quality 100.0 %
Test CRC C3CFF56A
Copy CRC C3CFF56A
Track not present in AccurateRip database
Copy OK


None of the tracks are present in the AccurateRip database

No errors occurred

End of status report

[CUETools log; Date: 13.04.2017 23:44:39; Version: 2.1.4]
[CTDB TOCID: xbzMDJr2.lh955JQpqu1h7pepq8-] found.
Track | CTDB Status
1 | (12/12) Accurately ripped
2 | (12/12) Accurately ripped
3 | (12/12) Accurately ripped
4 | (12/12) Accurately ripped
5 | (12/12) Accurately ripped
6 | (12/12) Accurately ripped
7 | (12/12) Accurately ripped
8 | (12/12) Accurately ripped
9 | (12/12) Accurately ripped
[AccurateRip ID: 0008e671-0043957e-61071a09] found.
Track [ CRC | V2 ] Status
01 [b064b4de|c1a1f5a3] (05+12/20) Accurately ripped
02 [7d105022|fa0844a3] (05+12/20) Accurately ripped
03 [b278974b|330b927a] (05+12/20) Accurately ripped
04 [f96ed3da|f932262a] (05+12/20) Accurately ripped
05 [a7f24985|6a054641] (05+12/20) Accurately ripped
06 [d6a22da4|695a6b89] (04+12/19) Accurately ripped
07 [9e3f5b0f|06870124] (04+12/19) Accurately ripped
08 [f9768d40|6bcdb4db] (04+12/19) Accurately ripped
09 [4c179d99|7ae8c25b] (04+12/19) Accurately ripped
Offsetted by -634:
01 [b484275e] (00/20) No match (V2 was not tested)
02 [b830b304] (00/20) No match (V2 was not tested)
03 [46b0d69d] (00/20) No match (V2 was not tested)
04 [e1a76650] (00/20) No match (V2 was not tested)
05 [33b87b61] (00/20) No match (V2 was not tested)
06 [44171d0e] (00/19) No match (V2 was not tested)
07 [940cc127] (00/19) No match (V2 was not tested)
08 [a9bd44e8] (00/19) No match (V2 was not tested)
09 [5d7c4ab9] (00/19) No match (V2 was not tested)

Track Peak [ CRC32 ] [W/O NULL] [ LOG ]
– 96,8 [11DD4A3A] [94DC68E5]
01 46,3 [344CEB38] [DBE98994] CRC32
02 51,1 [4D4798C6] [410A5204] CRC32
03 41,2 [466585DB] [6630C98A] CRC32
04 51,5 [C0EA4BA1] [C1821618] CRC32
05 50,9 [32A458D5] [3076982E] CRC32
06 96,8 [A43771B6] [FDD8DFE0] CRC32
07 95,9 [E7AD6529] [CD6345A9] CRC32
08 95,4 [3B20319B] [3952EAC1] CRC32
09 96,6 [C3CFF56A] [029DBBA8] CRC32

foobar2000 1.2 / Dynamic Range Meter 1.1.1
log date: 2017-04-13 22:52:15

––––––––––––––––––––––––––––––––––––––––
Analyzed: John Barry / The Golden Child (Disc 3) (1-4)
Marlon Jackson / The Golden Child (Disc 3) (5)
Martha Davis / The Golden Child (Disc 3) (6)
Meli'sa Morgan / The Golden Child (Disc 3) (7)
Randy Edelman / The Golden Child (Disc 3) (8)
Ratt / The Golden Child (Disc 3) (9)
––––––––––––––––––––––––––––––––––––––––

DR Peak RMS Duration Track
––––––––––––––––––––––––––––––––––––––––
DR10 -6.67 dB -21.06 dB 3:39 01-Best Man in the World (instrumental)
DR10 -5.82 dB -21.15 dB 1:24 02-2M1R
DR11 -7.70 dB -21.62 dB 1:08 03-12M1R
DR12 -5.75 dB -21.35 dB 1:58 04-2M4 (Source)
DR15 -0.30 dB -17.39 dB 5:03 09-(Let Your Love Find) The Chosen One
DR14 -0.36 dB -15.80 dB 4:19 07-Shame on You
DR13 -0.28 dB -15.88 dB 4:30 06-Deeper Love
DR14 -5.86 dB -24.76 dB 4:25 05-Dance a Little Closer
DR14 -0.40 dB -16.36 dB 3:52 08-Body Talk
––––––––––––––––––––––––––––––––––––––––

Number of tracks: 9
Official DR value: DR13

Samplerate: 44100 Hz
Channels: 2
Bits per sample: 16
Bitrate: 896 kbps
Codec: FLAC
================================================================================

John Barry, Michel Colombier & VA - The Golden Child: Music From The Motion Picture (1986) 3 CDs Limited Edition 2011 [Re-Up]

All thanks to original uploader - Sarant

More Movies & Soundtracks in Efgrapha Blog