Subcategories

John Barry ‎- The Real... John Barry: The Ultimate Collection (2016) 3 CDs

Posted By: Efgrapha
John Barry ‎- The Real... John Barry: The Ultimate Collection (2016) 3 CDs

John Barry ‎- The Real… John Barry: The Ultimate Collection (2016) 3 CDs
EAC | FLAC (Tracks) + cue.+log ~ 925 Mb | Scans included | 02:50:36
Soundrtacks, Easy Listening, Orchestral | Label: Sony | # 88985373242

54 compositions from the legendary composer on 3CDs, packaged in a fold out card digipack. Includes The James Bond Theme, Zulu, Midnight Cowboy, Coney Island, The Lion In Winter, Out of Africa, Dances With Wolves, The Ipcress File, The Quiller Memorandum, and many many more!

The last half-decent CD I had officially issued by Columbia/CBS covering John Barry's magnificent Movie Soundtrack output was "Themeology" - a stunning 23-track 'Best Of' singular CD issued in 1997 – still available to this day and for peanuts money too. "The Real…John Barry" feels like a massive triple-disc 'Expanded Edition' of that much praised CD Compilation - but typically it's a tale of two cities - much to recommend and yet another missed opportunity.

This 2016 'Ultimate Collection' 3CD-set stretches to 54-tracks covering 1965 to 1995 on Columbia, CBS and Epic Records and even after all these decades – has many 'first time on CD' moments that will thrill fans to the core of their dapper beings. It's also very cleverly sequenced – an art form in itself for compilations like this.

That doesn't mean that "The Real…John Barry" isn't without problems. It won't take a Mensa Membership for folks to notice that some of the Bond stuff has copyright dates that doesn't match up – "From Russia With Love" listed as 'recorded prior to 1972' and the title song to "Diamonds Are Forever" and "All Time High" from "Octopussy" done in 1995 – so obviously these are not the United Artists original releases of 1963, 1971 or 1983. But more importantly to me and other fellow lovers of 'Sounds Good' music - this triple-CD set is a 'Columbia/Legacy' Reissue - so therefore comes with genuinely great Remastered Audio despite not advising where, when or by whom these were mastered.

And what a journey of memories this triple is - listening to "Space March" from 1967's "You Only Live Twice" or "Who Will Buy My Yesterdays" from 1970's "Ready When You Are J.B." (a rarity on CD) or the uber-cool of Harry Palmer's "The Ipcress File" (Michael Caine's dapper British spy) will blow most people's socks off. Not only is the music utterly wonderful – swirling strings and echoed pianos steeped in that fantastic 60ts sound and Barry's knack for hooky melodies – it sounds toppermost of the poppermost.

So even if it is a mishmash or originals vs. re-recordings (and I can't emphasise this enough) - "The Real…John Barry" is a fantastic listen throughout all three discs. Here are the Mister Kiss Kiss Bang Bangs and Midnight Cowboys…

UK released 14 October 2016 – "The Real…John Barry" on Sony/Legacy 88985373242 (Barcode 889853732425) is a 3CD/54-Track compilation and plays out as follows:

Disc 1 (52:09 minutes):
1. The James Bond Theme (re-recording from the 1967 CBS LP "John Barry Conducts His Greatest Movie Hits")
2. 007 (original from the 1965 United Artists Original Soundtrack LP "Thunderball")
3. From Russia With Love (re-recording from the 1972 CBS LP "Theme From "The Persuaders!")
4. Goldfinger (re-recording from the 1967 CBS LP "John Barry Conducts His Greatest Movie Hits")
5. Thunderball (re-recording from the 1967 CBS LP "John Barry Conducts His Greatest Movie Hits")
6. Mister Kiss Kiss Bang Bang (original from the 1965 United Artists Original Soundtrack LP "Thunderball")
7. Vendetta (original 1966 UK 7" single on CBS Records 202390, A-side)
8. The Danny Scipio Theme (original 1966 UK 7" single on CBS Records 2020390, B-side)
9. Wednesday's Child (original from the 1966 Soundtrack LP "The Quiller Memorandum" on CBS Records)
10. Sleep Well My Darling (original non-album B-side to the 1966 UK 7" single of "Theme To The Quiller Memorandum - Wednesday's Child" on CBS Records 202451)
11. You Only Live Twice [Instrumental] (original from the 1967 Soundtrack LP to "You Only Live Twice" - also A-side of Track 18 on Disc 2)
12. Space March (Capsule In Space) (original from the 1967 Soundtrack LP to "You Only Live Twice")
13. On Her Majesty's Secret Service (from the 1970 UK CBS compilation LP "Ready When You Are, J.B. - John Barry Plays His Great Movie Hits")
14. Try (from the 1970 UK CBS compilation LP "Ready When You Are, J.B. - John Barry Plays His Great Movie Hits")
15. Who Will Buy My Yesterdays (from the 1970 UK CBS compilation LP "Ready When You Are, J.B. - John Barry Plays His Great Movie Hits")
16. The More Things Change (from the 1970 UK CBS compilation LP "Ready When You Are, J.B. - John Barry Plays His Great Movie Hits")
17. Diamonds Are Forever (re-recording from the 1995 Epic CD compilation "Moviola 2: Action And Adventure")
18. All Time High (From "Octopussy") (re-recording from the 1995 Epic CD compilation "Moviola 2: Action And Adventure")

Disc 2 (49:35 minutes):
1. The Ipcress File (re-recording from the 1966 UK CBS Records compilation LP "The Great Movie Sounds Of John Barry")
2. A Man Alone (original from the 1965 Soundtrack LP "The Ipcress File" on CBS Records)
3. Barbra's Theme (non-album original B-side to the UK 7" single for "A Man Alone (Theme From The Film "The Ipcress File")"
4. The Syndicate (original from the 1965 Original Cast Recording for "Passion Flower Hotel" on CBS Records)
5. What A Question (original from the 1965 Original Cast Recording for "Passion Flower Hotel" on CBS Records)
6. Zulu (original from 1964 Soundtrack LP to "Zulu" on Ember)
7. Séance On A Wet Afternoon (re-recording from the 1966 UK CBS Records compilation LP "The Great Movie Sounds Of John Barry")
8. The Knack (original from the 1965 Soundtrack LP to "The Knack…And How To Get It")
9. King Rat March (original from the 1965 Soundtrack LP "King Rat" on United Artists)
10. The Wrong Box (re-recording from the 1967 CBS LP "John Barry Conducts His Greatest Movie Hits")
11. Main Title: The Chase (original from the 1966 Soundtrack LP "The Chase" on CBS Records)
12. Born Free (re-recording from the 1967 CBS LP "John Barry Conducts His Greatest Movie Hits")
13. The Whisperers (re-recording from the 1967 CBS LP "John Barry Conducts His Greatest Movie Hits")
14. Dutchman (re-recording from the 1967 CBS LP "John Barry Conducts His Greatest Movie Hits")
15. Theme From "Romance For Guitar and Orchestra" (from the 1970 UK CBS compilation LP "Ready When You Are, J.B. - John Barry Plays His Great Movie Hits")
16. The Lion In Winter (from the 1970 UK CBS compilation LP "Ready When You Are, J.B. - John Barry Plays His Great Movie Hits")
17. Theme From "The Appointment" (from the 1970 UK CBS compilation LP "Ready When You Are, J.B. - John Barry Plays His Great Movie Hits")
18. The Girl With The Sun In Her Hair (B-side to the 1967 UK 7" single for "You Only Live Twice" on CBS Records 2825)

Disc 3 (68:56 minutes):
1. Midnight Cowboy (original 1969 UK 7"single on CBS Records 4468, A and from the 1970 UK CBS compilation LP "Ready When You Are, J.B. - John Barry Plays His Great Movie Hits")
2. Fun City (original 1969 UK 7"single on CBS Records 4468, B-side and from the 1970 UK CBS compilation LP "Ready When You Are, J.B. - John Barry Plays His Great Movie Hits")
3. Walkabout (re-recording from the 1992 Epic CD/LP compilation "Moviola")
4. Afternoon (from the 1970 UK CBS compilation LP "Ready When You Are, J.B. - John Barry Plays His Great Movie Hits")
5. Mary, Queen Of Scots (re-recording from the 1992 Epic CD/LP compilation "Moviola")
6. Body Heat (re-recording from the 1992 Epic CD/LP compilation "Moviola")
7. Frances (re-recording from the 1992 Epic CD/LP compilation "Moviola")
8. Until September (re-recording from the 1995 Epic CD compilation "Moviola 2: Action And Adventure")
9. The Cotton Club (re-recording from the 1992 Epic CD/LP compilation "Moviola")
10. Out Of Africa (re-recording from the 1992 Epic CD/LP compilation "Moviola")
11. The John Dunbar Theme (original from the 1990 Soundtrack LP/CD "Dances With Wolves")
12. Journey To The Buffalo Killing Field (original from the 1990 Soundtrack LP/CD "Dances With Wolves")
13. Theme From "Chaplin" (re-recording from the 1992 Epic CD/LP compilation "Moviola")
14. Moviola (re-recording from the 1992 Epic CD/LP compilation "Moviola")
15. The Specialist (original from the 1994 Soundtrack LP/CD "The Specialist")
16. Coney Island (original from the 1995 Soundtrack CD "Across The Sea Of Time")
17. Cry, Cry The Beloved Country (original from the 1995 Soundtrack CD "Cry, Cry The Beloved Country")
18. End Title (original from the 1995 Soundtrack to "The Scarlett Letter")

The foldout three-way card digipak is hardly anything great to look at but does at least have track lists beneath the three see-through plastic trays. But there's no booklet and correspondingly no real appreciation of the goodies on sale. The AUDIO as I say is fabulous and even though the versions from the 60ts are re-recordings - they're done within grasping distance of the originals so sound amazingly similar. Much of it is in glorious Stereo too. Many of us will recall the Sunsilk adverts which tapped into the superb B-side "The Girl With The Sun In Her Hair" - Roger Moore and Tony Curtis suave in the 70ts TV show "The Persuaders" and think of Rizzo played by Dustin Hoffman in "Midnight Cowboy" as he takes his last ride on that bus into Miami - all of this music sublime. But few of us will know later soundtracks like "The Specialists", "Across The Sea Of Time" and "Cry, Cry The Beloved Country" - and they're discoveries worth savouring.

Also - on a personal note - the "Ready When You Are, J.B. - John Barry Plays His Great Movie Hits" CBS/Columbia Records compilation LP released in February 1970 had 12 tracks - and all except "We Have All The Time In The World" are here as far as I can see (CBS Records 63952 in the UK - Columbia CS 1003 in the USA). It's a stunner - a forgotten and lost nugget from the decade's first year that rarely ever gets mentioned outside of Soundtrack circles. But as a musical and evocative listen - it's practically flawless and along with its new 1969 re-recordings of film themes it also offers other exclusive JB tracks like "The More Things Change" and "Afternoon" that aren't on anything else. There was a US-Only release of the album in 1998 on Columbia Special Products/Peg Recordings PEG043 (Barcode 706404004322) but it's been deleted decades now and was at times attracting prices in excess of $150. Which brings me back to this triple - damn good value for the money. So its 'almost' total presence here is welcome news indeed for rabid fans and the casual listener alike. Using tracks across all three discs - you can CD sequence that forgotten LP as follows…

Side 1
1. Midnight Cowboy [Track 1, Disc 3]
2. We Have All The Time in The World
3. Theme From 'Romance For Guitar And Orchestra' from "Deadfall" [Track 15, Disc 2]
4. Who Will Buy My Yesterdays [Track 15, Disc 1]
5. Fun City [Track 3, Disc 3]
6. The Lion In Winter [Track 16, Disc 2]
Side 2:
1. On Her Majesty's Secret Service [Track 13, Disc 1]
2. Theme From "The Appointment" [Track 17, Disc 2]
3. Try [Track 14, Disc 1]
4. The More Things Change [Track 16, Disc 1]
5. Afternoon [Track 4, Disc 3]
6. Theme From "Born Free" [Track 12, Disc 2]

Downsides - die-hard aficionados will know that beautiful music from "Somewhere In Time" and "High Road To China" and huge dollops more is all missing because they're linked to MCA and other Record companies outside of the Sony remit (you can't have it all). And it's arguable that every one of the Bond CDs - which were expanded and remastered by EMI Capitol in 2003 with huge dollops of previously unreleased tracks in stunning audio - are both must buys and conspicuous by their 'original issue' absence. John Barry's name is so synonymous with James Bond 007 that at least some of it should have been represented here (see my separate reviews for "Thunderball", "You Only Live Twice" and "Diamonds Are Forever"). And I wish there was better annotation.

It's been said a hundred times before - SONY need to treat their most famous Soundtrack son (John Barry Prendergast) with the respect of a genuinely decent and properly annotated 5 to 6CD retrospective Box Set.

But in the meantime (and on face value) - for less than six post-Brexit pounds you can have the well-endowed 3CD digipak "The Real…John Barry" and wallow in a film-music genius who (along with John Williams) won five Oscars and is still sorely missed…

Mark Barry, Amazon.co.uk

John Barry ‎- The Real... John Barry: The Ultimate Collection (2016) 3 CDs



Tracklist:

CD1:

01. The James Bond Theme (2:04)
02. 007 (2:14) (from 'From Russia With Love')
03. From Russia With Love (2:38)
04. Goldfinger (4:25)
05. Thunderball (3:15)
06. Mister Kiss Kiss Bang Bang (3:15) (from 'Thunderball')
07. Vendetta (2:02)
08. The Danny Scipio Theme (2:46) (from 'Vendetta')
09. Wednesday's Child (from 'The Quiller Memorandum') (2:12)
10. Sleep Well My Darling (3:17)
11. You Only Live Twice (2:38)
12. Space March (Capsule In Space) (2:44) (from 'You Only Live Twice')
13. On Her Majesty's Secret Service (2:43)
14. Try (3:20) (from 'On Her Majesty's Secret Service')
15. Who Will Buy My Yesterdays (3:29) (from 'On Her Majesty's Secret Service')
16. The More Things Change (2:41)
17. Diamonds Are Forever (2:28)
18. All Time High (3:56) (from 'Octopussy')

CD2:

01. The Ipcress File (3:56)
02. A Man Alone (from 'The Ipcress File') (2:30)
03. Barbra's Theme (2:52)
04. The Syndicate (2:21) (from 'Passion Flower Hotel')
05. What A Question (2:12) (from 'Passion Flower Hotel')
06. Zulu (2:47)
07. Seance On A Wet Afternoon (2:22)
08. The Knack (2:55) (from 'The Knack…And How To Get It')
09. King Rat March (3:05) (from 'King Rat')
10. The Wrong Box (2:33)
11. Main Title: The Chase (2:45)
12. Born Free (2:48)
13. The Whisperers (2:38)
14. Dutchman (2:54)
15. Theme From 'Romance For Guitar And Orchestra' (2:37) (from 'Deadfall')
16. The Lion In Winter (2:47)
17. Theme From 'The Appointment' (2:37)
18. The Girl with the Sun in Her Hair (2:56)

CD3:

01. Midnight Cowboy (2:37)
02. Fun City (3:22) (from 'Midnight Cowboy')
03. Walkabout (2:59)
04. Afternoon (2:45)
05. Mary, Queen of Scots (2:34)
06. Body Heat (3:56)
07. Frances (7:49)
08. Until September (4:25)
09. The Cotton Club (3:47)
10. Out of Africa (4:29)
11. The John Dunbar Theme (2:19) (from 'Dances With Wolves')
12. Journey to the Buffalo Killing Ground (3:44) (from 'Dances With Wolves')
13. Theme From Chaplin (3:08)
14. Moviola (4:35)
15. The Specialist (5:41)
16. Coney Island (2:49) (from 'Across the Sea of Time')
17. Cry, Cry The Beloved Country (3:38)
18. End Title (4:16) (from 'The Scarlett Letter')


Exact Audio Copy V1.3 from 2. September 2016

EAC extraction logfile from 1. June 2017, 20:27

John Barry / The Real… John Barry - CD1

Used drive : TSSTcorpCDDVDW SE-208AB Adapter: 2 ID: 0

Read mode : Secure
Utilize accurate stream : Yes
Defeat audio cache : Yes
Make use of C2 pointers : No

Read offset correction : 6
Overread into Lead-In and Lead-Out : No
Fill up missing offset samples with silence : Yes
Delete leading and trailing silent blocks : No
Null samples used in CRC calculations : Yes
Used interface : Installed external ASPI interface
Gap handling : Appended to previous track

Used output format : User Defined Encoder
Selected bitrate : 768 kBit/s
Quality : High
Add ID3 tag : No
Command line compressor : C:\Program Files (x86)\Exact Audio Copy\Flac\flac.exe
Additional command line options : -8 -V -T "ARTIST=%artist%" -T "TITLE=%title%" -T "ALBUM=%albumtitle%" -T "DATE=%year%" -T "TRACKNUMBER=%tracknr%" -T "GENRE=%genre%" -T "COMMENT=%comment%" -T "BAND=%albuminterpret%" -T "ALBUMARTIST=%albuminterpret%" -T "COMPOSER=%composer%" %haslyrics%–tag-from-file=LYRICS="%lyricsfile%"%haslyrics% -T "DISCNUMBER=%cdnumber%" -T "TOTALDISCS=%totalcds%" -T "TOTALTRACKS=%numtracks%" %hascover%–picture="%coverfile%"%hascover% %source% -o %dest%


TOC of the extracted CD

Track | Start | Length | Start sector | End sector
––––––––––––––––––––––––––––-
1 | 0:00.00 | 2:04.04 | 0 | 9303
2 | 2:04.04 | 2:14.02 | 9304 | 19355
3 | 4:18.06 | 2:37.38 | 19356 | 31168
4 | 6:55.44 | 4:24.64 | 31169 | 51032
5 | 11:20.33 | 3:14.61 | 51033 | 65643
6 | 14:35.19 | 3:14.39 | 65644 | 80232
7 | 17:49.58 | 2:02.37 | 80233 | 89419
8 | 19:52.20 | 2:46.29 | 89420 | 101898
9 | 22:38.49 | 2:12.28 | 101899 | 111826
10 | 24:51.02 | 3:17.33 | 111827 | 126634
11 | 28:08.35 | 2:37.55 | 126635 | 138464
12 | 30:46.15 | 2:44.30 | 138465 | 150794
13 | 33:30.45 | 2:42.65 | 150795 | 163009
14 | 36:13.35 | 3:20.15 | 163010 | 178024
15 | 39:33.50 | 3:28.65 | 178025 | 193689
16 | 43:02.40 | 2:41.18 | 193690 | 205782
17 | 45:43.58 | 2:28.00 | 205783 | 216882
18 | 48:11.58 | 3:56.14 | 216883 | 234596


Track 1

Filename C:\Program Files (x86)\Exact Audio Copy\Flac\01. The James Bond Theme.wav

Pre-gap length 0:00:02.00

Peak level 98.9 %
Extraction speed 0.9 X
Track quality 100.0 %
Test CRC 44CB0E6F
Copy CRC 44CB0E6F
Accurately ripped (confidence 2) [90D37728] (AR v2)
Copy OK

Track 2

Filename C:\Program Files (x86)\Exact Audio Copy\Flac\02. 007.wav

Pre-gap length 0:00:01.22

Peak level 98.9 %
Extraction speed 1.0 X
Track quality 100.0 %
Test CRC EAF8948E
Copy CRC EAF8948E
Accurately ripped (confidence 2) [0D8A260F] (AR v2)
Copy OK

Track 3

Filename C:\Program Files (x86)\Exact Audio Copy\Flac\03. From Russia With Love.wav

Pre-gap length 0:00:01.07

Peak level 95.4 %
Extraction speed 1.1 X
Track quality 100.0 %
Test CRC F56D8604
Copy CRC F56D8604
Accurately ripped (confidence 2) [5923B765] (AR v2)
Copy OK

Track 4

Filename C:\Program Files (x86)\Exact Audio Copy\Flac\04. Goldfinger.wav

Pre-gap length 0:00:01.15

Peak level 99.4 %
Extraction speed 1.3 X
Track quality 100.0 %
Test CRC E230F02F
Copy CRC E230F02F
Accurately ripped (confidence 2) [C735F776] (AR v2)
Copy OK

Track 5

Filename C:\Program Files (x86)\Exact Audio Copy\Flac\05. Thunderball.wav

Pre-gap length 0:00:01.30

Peak level 78.2 %
Extraction speed 1.3 X
Track quality 100.0 %
Test CRC 856655A3
Copy CRC 856655A3
Accurately ripped (confidence 2) [938DBE25] (AR v2)
Copy OK

Track 6

Filename C:\Program Files (x86)\Exact Audio Copy\Flac\06. Mister Kiss Kiss Bang Bang.wav

Pre-gap length 0:00:01.15

Peak level 73.6 %
Extraction speed 1.2 X
Track quality 99.9 %
Test CRC 289386EB
Copy CRC 289386EB
Accurately ripped (confidence 2) [C801E6E0] (AR v2)
Copy OK

Track 7

Filename C:\Program Files (x86)\Exact Audio Copy\Flac\07. Vendetta.wav

Pre-gap length 0:00:01.33

Peak level 92.7 %
Extraction speed 1.1 X
Track quality 99.9 %
Test CRC 9DD7F6FB
Copy CRC 9DD7F6FB
Accurately ripped (confidence 2) [3384E34B] (AR v2)
Copy OK

Track 8

Filename C:\Program Files (x86)\Exact Audio Copy\Flac\08. The Danny Scipio Theme.wav

Pre-gap length 0:00:01.15

Peak level 77.6 %
Extraction speed 1.4 X
Track quality 100.0 %
Test CRC 22A1775D
Copy CRC 22A1775D
Accurately ripped (confidence 2) [680DF607] (AR v2)
Copy OK

Track 9

Filename C:\Program Files (x86)\Exact Audio Copy\Flac\09. Wednesday's Child (From The Picture ''The Quiller Memorandum'').wav

Pre-gap length 0:00:01.17

Peak level 80.4 %
Extraction speed 1.4 X
Track quality 100.0 %
Test CRC 610220A9
Copy CRC 610220A9
Accurately ripped (confidence 2) [7AE2F67E] (AR v2)
Copy OK

Track 10

Filename C:\Program Files (x86)\Exact Audio Copy\Flac\10. Sleep Well My Darling.wav

Pre-gap length 0:00:01.23

Peak level 70.0 %
Extraction speed 1.6 X
Track quality 100.0 %
Test CRC 5517DA13
Copy CRC 5517DA13
Accurately ripped (confidence 2) [A1D61065] (AR v2)
Copy OK

Track 11

Filename C:\Program Files (x86)\Exact Audio Copy\Flac\11. You Only Live Twice.wav

Pre-gap length 0:00:01.27

Peak level 91.8 %
Extraction speed 1.4 X
Track quality 100.0 %
Test CRC F0D60FA9
Copy CRC F0D60FA9
Accurately ripped (confidence 2) [CB4BEF4E] (AR v2)
Copy OK

Track 12

Filename C:\Program Files (x86)\Exact Audio Copy\Flac\12. Space March (Capsule In Space).wav

Pre-gap length 0:00:01.26

Peak level 97.7 %
Extraction speed 1.7 X
Track quality 100.0 %
Test CRC 20FE8EEA
Copy CRC 20FE8EEA
Accurately ripped (confidence 2) [52BD8DC5] (AR v2)
Copy OK

Track 13

Filename C:\Program Files (x86)\Exact Audio Copy\Flac\13. On Her Majesty's Secret Service.wav

Pre-gap length 0:00:00.51

Peak level 93.1 %
Extraction speed 1.7 X
Track quality 100.0 %
Test CRC 2936EF8C
Copy CRC 2936EF8C
Accurately ripped (confidence 2) [275FA1BD] (AR v2)
Copy OK

Track 14

Filename C:\Program Files (x86)\Exact Audio Copy\Flac\14. Try.wav

Pre-gap length 0:00:01.19

Peak level 98.9 %
Extraction speed 1.6 X
Track quality 99.9 %
Test CRC 1EBB5FAD
Copy CRC 1EBB5FAD
Accurately ripped (confidence 2) [3E7240A0] (AR v2)
Copy OK

Track 15

Filename C:\Program Files (x86)\Exact Audio Copy\Flac\15. Who Will Buy My Yesterdays.wav

Pre-gap length 0:00:01.18

Peak level 87.0 %
Extraction speed 1.9 X
Track quality 100.0 %
Test CRC 01BC295A
Copy CRC 01BC295A
Accurately ripped (confidence 2) [26723943] (AR v2)
Copy OK

Track 16

Filename C:\Program Files (x86)\Exact Audio Copy\Flac\16. The More Things Change.wav

Pre-gap length 0:00:01.20

Peak level 97.1 %
Extraction speed 1.9 X
Track quality 100.0 %
Test CRC 793DF2B1
Copy CRC 793DF2B1
Accurately ripped (confidence 2) [29B98B67] (AR v2)
Copy OK

Track 17

Filename C:\Program Files (x86)\Exact Audio Copy\Flac\17. Diamonds Are Forever.wav

Pre-gap length 0:00:01.34

Peak level 98.9 %
Extraction speed 1.9 X
Track quality 100.0 %
Test CRC F2C52E61
Copy CRC F2C52E61
Accurately ripped (confidence 2) [0983ADD5] (AR v2)
Copy OK

Track 18

Filename C:\Program Files (x86)\Exact Audio Copy\Flac\18. All Time High From ''Octopussy''.wav

Pre-gap length 0:00:01.30

Peak level 76.9 %
Extraction speed 2.1 X
Track quality 100.0 %
Test CRC BF061069
Copy CRC BF061069
Accurately ripped (confidence 2) [6FDFC359] (AR v2)
Copy OK


All tracks accurately ripped

No errors occurred

End of status report

–– CUETools DB Plugin V2.1.6

[CTDB TOCID: 9YIg8mkJMuAp2zmjE6YV5_LZURI-] found
Submit result: 9YIg8mkJMuAp2zmjE6YV5_LZURI- has been confirmed
Track | CTDB Status
1 | (11/11) Accurately ripped
2 | (11/11) Accurately ripped
3 | (11/11) Accurately ripped
4 | (11/11) Accurately ripped
5 | (11/11) Accurately ripped
6 | (11/11) Accurately ripped
7 | (11/11) Accurately ripped
8 | (11/11) Accurately ripped
9 | (11/11) Accurately ripped
10 | (11/11) Accurately ripped
11 | (11/11) Accurately ripped
12 | (11/11) Accurately ripped
13 | (11/11) Accurately ripped
14 | (11/11) Accurately ripped
15 | (11/11) Accurately ripped
16 | (11/11) Accurately ripped
17 | (11/11) Accurately ripped
18 | (11/11) Accurately ripped


==== Log checksum 536534CDCCA1D321CE315C606F67E3828D4DAD00AEF84D9C1547707B07B48BA9 ====

foobar2000 1.2 / Dynamic Range Meter 1.1.1
log date: 2017-06-06 23:30:00

––––––––––––––––––––––––––––––––––––––––
Analyzed: John Barry / The Real… John Barry - CD1
––––––––––––––––––––––––––––––––––––––––

DR Peak RMS Duration Track
––––––––––––––––––––––––––––––––––––––––
DR12 -0.09 dB -16.16 dB 2:04 01-The James Bond Theme
DR10 -0.09 dB -13.82 dB 2:14 02-007
DR10 -0.40 dB -13.24 dB 2:38 03-From Russia With Love
DR11 -0.05 dB -16.03 dB 4:25 04-Goldfinger
DR11 -2.13 dB -15.67 dB 3:15 05-Thunderball
DR11 -2.65 dB -17.35 dB 3:15 06-Mister Kiss Kiss Bang Bang
DR11 -0.65 dB -13.82 dB 2:02 07-Vendetta
DR11 -2.20 dB -16.39 dB 2:46 08-The Danny Scipio Theme
DR10 -1.89 dB -15.65 dB 2:12 09-Wednesday's Child (From The Picture 'The Quiller Memorandum')
DR8 -3.09 dB -14.19 dB 3:17 10-Sleep Well My Darling
DR10 -0.74 dB -14.24 dB 2:38 11-You Only Live Twice
DR10 -0.20 dB -15.02 dB 2:44 12-Space March (Capsule In Space)
DR12 -0.62 dB -15.22 dB 2:43 13-On Her Majesty's Secret Service
DR12 -0.09 dB -14.84 dB 3:20 14-Try
DR9 -1.21 dB -13.74 dB 3:29 15-Who Will Buy My Yesterdays
DR13 -0.25 dB -16.92 dB 2:41 16-The More Things Change
DR12 -0.09 dB -16.44 dB 2:28 17-Diamonds Are Forever
DR11 -2.28 dB -17.58 dB 3:56 18-All Time High From 'Octopussy'
––––––––––––––––––––––––––––––––––––––––

Number of tracks: 18
Official DR value: DR11

Samplerate: 44100 Hz
Channels: 2
Bits per sample: 16
Bitrate: 653 kbps
Codec: FLAC
================================================================================


Exact Audio Copy V1.3 from 2. September 2016

EAC extraction logfile from 1. June 2017, 21:51

John Barry / The Real… John Barry - CD2

Used drive : TSSTcorpCDDVDW SE-208AB Adapter: 2 ID: 0

Read mode : Secure
Utilize accurate stream : Yes
Defeat audio cache : Yes
Make use of C2 pointers : No

Read offset correction : 6
Overread into Lead-In and Lead-Out : No
Fill up missing offset samples with silence : Yes
Delete leading and trailing silent blocks : No
Null samples used in CRC calculations : Yes
Used interface : Installed external ASPI interface
Gap handling : Appended to previous track

Used output format : User Defined Encoder
Selected bitrate : 768 kBit/s
Quality : High
Add ID3 tag : No
Command line compressor : C:\Program Files (x86)\Exact Audio Copy\Flac\flac.exe
Additional command line options : -8 -V -T "ARTIST=%artist%" -T "TITLE=%title%" -T "ALBUM=%albumtitle%" -T "DATE=%year%" -T "TRACKNUMBER=%tracknr%" -T "GENRE=%genre%" -T "COMMENT=%comment%" -T "BAND=%albuminterpret%" -T "ALBUMARTIST=%albuminterpret%" -T "COMPOSER=%composer%" %haslyrics%–tag-from-file=LYRICS="%lyricsfile%"%haslyrics% -T "DISCNUMBER=%cdnumber%" -T "TOTALDISCS=%totalcds%" -T "TOTALTRACKS=%numtracks%" %hascover%–picture="%coverfile%"%hascover% %source% -o %dest%


TOC of the extracted CD

Track | Start | Length | Start sector | End sector
––––––––––––––––––––––––––––-
1 | 0:00.00 | 3:55.41 | 0 | 17665
2 | 3:55.41 | 2:29.52 | 17666 | 28892
3 | 6:25.18 | 2:52.36 | 28893 | 41828
4 | 9:17.54 | 2:21.12 | 41829 | 52415
5 | 11:38.66 | 2:12.15 | 52416 | 62330
6 | 13:51.06 | 2:46.59 | 62331 | 74839
7 | 16:37.65 | 2:21.48 | 74840 | 85462
8 | 18:59.38 | 2:54.39 | 85463 | 98551
9 | 21:54.02 | 3:05.16 | 98552 | 112442
10 | 24:59.18 | 2:32.68 | 112443 | 123910
11 | 27:32.11 | 2:44.53 | 123911 | 136263
12 | 30:16.64 | 2:48.22 | 136264 | 148885
13 | 33:05.11 | 2:37.67 | 148886 | 160727
14 | 35:43.03 | 2:53.50 | 160728 | 173752
15 | 38:36.53 | 2:37.02 | 173753 | 185529
16 | 41:13.55 | 2:47.22 | 185530 | 198076
17 | 44:01.02 | 2:37.11 | 198077 | 209862
18 | 46:38.13 | 2:55.52 | 209863 | 223039


Track 1

Filename C:\Program Files (x86)\Exact Audio Copy\Flac\01. The Ipcress File.wav

Pre-gap length 0:00:02.00

Peak level 64.9 %
Extraction speed 1.1 X
Track quality 100.0 %
Test CRC 396935C4
Copy CRC 396935C4
Accurately ripped (confidence 2) [46EBD03D] (AR v2)
Copy OK

Track 2

Filename C:\Program Files (x86)\Exact Audio Copy\Flac\02. A Man Alone (Theme from the film ''The Ipcress File'').wav

Pre-gap length 0:00:01.31

Peak level 74.1 %
Extraction speed 0.9 X
Track quality 99.9 %
Test CRC F40673B1
Copy CRC F40673B1
Accurately ripped (confidence 2) [7D7C4337] (AR v2)
Copy OK

Track 3

Filename C:\Program Files (x86)\Exact Audio Copy\Flac\03. Barbra's Theme.wav

Pre-gap length 0:00:02.06

Peak level 81.3 %
Extraction speed 1.2 X
Track quality 100.0 %
Test CRC 4656F48A
Copy CRC 4656F48A
Accurately ripped (confidence 2) [36C9BBD3] (AR v2)
Copy OK

Track 4

Filename C:\Program Files (x86)\Exact Audio Copy\Flac\04. The Syndicate.wav

Pre-gap length 0:00:01.16

Peak level 88.9 %
Extraction speed 1.2 X
Track quality 100.0 %
Test CRC 0D4F9280
Copy CRC 0D4F9280
Accurately ripped (confidence 2) [76E142B4] (AR v2)
Copy OK

Track 5

Filename C:\Program Files (x86)\Exact Audio Copy\Flac\05. What A Question.wav

Pre-gap length 0:00:01.73

Peak level 84.8 %
Extraction speed 1.3 X
Track quality 100.0 %
Test CRC 46B67758
Copy CRC 46B67758
Accurately ripped (confidence 2) [DDC66254] (AR v2)
Copy OK

Track 6

Filename C:\Program Files (x86)\Exact Audio Copy\Flac\06. Zulu.wav

Pre-gap length 0:00:00.73

Peak level 96.3 %
Extraction speed 1.4 X
Track quality 100.0 %
Test CRC EB9291A3
Copy CRC EB9291A3
Accurately ripped (confidence 2) [876A8847] (AR v2)
Copy OK

Track 7

Filename C:\Program Files (x86)\Exact Audio Copy\Flac\07. Seance On A Wet Afternoon.wav

Pre-gap length 0:00:00.44

Peak level 67.2 %
Extraction speed 1.4 X
Track quality 100.0 %
Test CRC 2473F679
Copy CRC 2473F679
Accurately ripped (confidence 2) [1074796D] (AR v2)
Copy OK

Track 8

Filename C:\Program Files (x86)\Exact Audio Copy\Flac\08. The Knack.wav

Pre-gap length 0:00:01.20

Peak level 98.5 %
Extraction speed 1.5 X
Track quality 100.0 %
Test CRC 18A2C0D2
Copy CRC 18A2C0D2
Accurately ripped (confidence 2) [6374A202] (AR v2)
Copy OK

Track 9

Filename C:\Program Files (x86)\Exact Audio Copy\Flac\09. King Rat March.wav

Pre-gap length 0:00:01.29

Peak level 98.9 %
Extraction speed 1.6 X
Track quality 100.0 %
Test CRC 3F6DFFC5
Copy CRC 3F6DFFC5
Accurately ripped (confidence 2) [A58A0DA2] (AR v2)
Copy OK

Track 10

Filename C:\Program Files (x86)\Exact Audio Copy\Flac\10. The Wrong Box.wav

Pre-gap length 0:00:01.42

Peak level 76.5 %
Extraction speed 1.6 X
Track quality 100.0 %
Test CRC 0096E6FB
Copy CRC 0096E6FB
Accurately ripped (confidence 2) [2A0FF4F6] (AR v2)
Copy OK

Track 11

Filename C:\Program Files (x86)\Exact Audio Copy\Flac\11. Main Title- The Chase.wav

Pre-gap length 0:00:00.64

Peak level 77.4 %
Extraction speed 1.7 X
Track quality 100.0 %
Test CRC E81E9E86
Copy CRC E81E9E86
Accurately ripped (confidence 2) [7F99C2C6] (AR v2)
Copy OK

Track 12

Filename C:\Program Files (x86)\Exact Audio Copy\Flac\12. Born Free.wav

Pre-gap length 0:00:01.22

Peak level 69.6 %
Extraction speed 1.5 X
Track quality 99.9 %
Test CRC 8BB0AE2E
Copy CRC 8BB0AE2E
Accurately ripped (confidence 2) [DAD1FF8B] (AR v2)
Copy OK

Track 13

Filename C:\Program Files (x86)\Exact Audio Copy\Flac\13. The Whisperers.wav

Pre-gap length 0:00:02.31

Peak level 62.4 %
Extraction speed 1.8 X
Track quality 100.0 %
Test CRC AE4514B5
Copy CRC AE4514B5
Accurately ripped (confidence 2) [493D5B90] (AR v2)
Copy OK

Track 14

Filename C:\Program Files (x86)\Exact Audio Copy\Flac\14. Dutchman.wav

Pre-gap length 0:00:00.22

Peak level 91.4 %
Extraction speed 1.8 X
Track quality 100.0 %
Test CRC 15D04490
Copy CRC 15D04490
Accurately ripped (confidence 2) [6495D03E] (AR v2)
Copy OK

Track 15

Filename C:\Program Files (x86)\Exact Audio Copy\Flac\15. Theme From ''Romance For Guitar And Orchestra''.wav

Pre-gap length 0:00:01.62

Peak level 96.5 %
Extraction speed 1.6 X
Track quality 99.9 %
Test CRC 94DA8B04
Copy CRC 94DA8B04
Accurately ripped (confidence 2) [5854F5AB] (AR v2)
Copy OK

Track 16

Filename C:\Program Files (x86)\Exact Audio Copy\Flac\16. The Lion In Winter.wav

Pre-gap length 0:00:01.23

Peak level 98.9 %
Extraction speed 1.6 X
Track quality 99.9 %
Test CRC F57E38E2
Copy CRC F57E38E2
Accurately ripped (confidence 2) [CB8480F6] (AR v2)
Copy OK

Track 17

Filename C:\Program Files (x86)\Exact Audio Copy\Flac\17. Theme From ''The Appointment''.wav

Pre-gap length 0:00:01.20

Peak level 81.4 %
Extraction speed 1.9 X
Track quality 100.0 %
Test CRC FBAE64F6
Copy CRC FBAE64F6
Accurately ripped (confidence 2) [61B0026D] (AR v2)
Copy OK

Track 18

Filename C:\Program Files (x86)\Exact Audio Copy\Flac\18. The Girl with the Sun in Her Hair.wav

Pre-gap length 0:00:01.63

Peak level 88.9 %
Extraction speed 2.0 X
Track quality 100.0 %
Test CRC E64DE121
Copy CRC E64DE121
Accurately ripped (confidence 2) [85393915] (AR v2)
Copy OK


All tracks accurately ripped

No errors occurred

End of status report

–– CUETools DB Plugin V2.1.6

[CTDB TOCID: ORqAX2njDmu5ambEgYRanyhu3Rc-] found
Submit result: ORqAX2njDmu5ambEgYRanyhu3Rc- has been confirmed
Track | CTDB Status
1 | (11/11) Accurately ripped
2 | (11/11) Accurately ripped
3 | (11/11) Accurately ripped
4 | (11/11) Accurately ripped
5 | (11/11) Accurately ripped
6 | (11/11) Accurately ripped
7 | (11/11) Accurately ripped
8 | (11/11) Accurately ripped
9 | (11/11) Accurately ripped
10 | (11/11) Accurately ripped
11 | (11/11) Accurately ripped
12 | (11/11) Accurately ripped
13 | (11/11) Accurately ripped
14 | (11/11) Accurately ripped
15 | (11/11) Accurately ripped
16 | (11/11) Accurately ripped
17 | (11/11) Accurately ripped
18 | (11/11) Accurately ripped


==== Log checksum C214DAFAC2090886B68FC22FBE5EA1A811B7C4E964F9793AD0AA18BC5554C11D ====

foobar2000 1.2 / Dynamic Range Meter 1.1.1
log date: 2017-06-06 23:30:19

––––––––––––––––––––––––––––––––––––––––
Analyzed: John Barry / The Real… John Barry - CD2
––––––––––––––––––––––––––––––––––––––––

DR Peak RMS Duration Track
––––––––––––––––––––––––––––––––––––––––
DR12 -3.75 dB -19.23 dB 3:56 01-The Ipcress File
DR12 -2.60 dB -16.16 dB 2:30 02-A Man Alone (Theme from the film 'The Ipcress File')
DR10 -1.80 dB -14.77 dB 2:52 03-Barbra's Theme
DR10 -1.02 dB -13.20 dB 2:21 04-The Syndicate
DR10 -1.43 dB -14.16 dB 2:12 05-What A Question
DR12 -0.33 dB -14.71 dB 2:47 06-Zulu
DR8 -3.45 dB -16.98 dB 2:22 07-Seance On A Wet Afternoon
DR11 -0.13 dB -15.68 dB 2:55 08-The Knack
DR11 -0.09 dB -15.95 dB 3:05 09-King Rat March
DR10 -2.32 dB -14.85 dB 2:33 10-The Wrong Box
DR9 -2.22 dB -16.78 dB 2:45 11-Main Title: The Chase
DR9 -3.15 dB -18.63 dB 2:48 12-Born Free
DR11 -4.09 dB -20.62 dB 2:38 13-The Whisperers
DR10 -0.78 dB -14.90 dB 2:54 14-Dutchman
DR11 -0.31 dB -16.09 dB 2:37 15-Theme From 'Romance For Guitar And Orchestra'
DR10 -0.09 dB -13.23 dB 2:47 16-The Lion In Winter
DR11 -1.78 dB -14.84 dB 2:37 17-Theme From 'The Appointment'
DR11 -1.01 dB -15.54 dB 2:56 18-The Girl with the Sun in Her Hair
––––––––––––––––––––––––––––––––––––––––

Number of tracks: 18
Official DR value: DR10

Samplerate: 44100 Hz
Channels: 2
Bits per sample: 16
Bitrate: 830 kbps
Codec: FLAC
================================================================================


Exact Audio Copy V1.3 from 2. September 2016

EAC extraction logfile from 1. June 2017, 23:33

John Barry / The Real… John Barry - CD3

Used drive : TSSTcorpCDDVDW SE-208AB Adapter: 2 ID: 0

Read mode : Secure
Utilize accurate stream : Yes
Defeat audio cache : Yes
Make use of C2 pointers : No

Read offset correction : 6
Overread into Lead-In and Lead-Out : No
Fill up missing offset samples with silence : Yes
Delete leading and trailing silent blocks : No
Null samples used in CRC calculations : Yes
Used interface : Installed external ASPI interface
Gap handling : Appended to previous track

Used output format : User Defined Encoder
Selected bitrate : 768 kBit/s
Quality : High
Add ID3 tag : No
Command line compressor : C:\Program Files (x86)\Exact Audio Copy\Flac\flac.exe
Additional command line options : -8 -V -T "ARTIST=%artist%" -T "TITLE=%title%" -T "ALBUM=%albumtitle%" -T "DATE=%year%" -T "TRACKNUMBER=%tracknr%" -T "GENRE=%genre%" -T "COMMENT=%comment%" -T "BAND=%albuminterpret%" -T "ALBUMARTIST=%albuminterpret%" -T "COMPOSER=%composer%" %haslyrics%–tag-from-file=LYRICS="%lyricsfile%"%haslyrics% -T "DISCNUMBER=%cdnumber%" -T "TOTALDISCS=%totalcds%" -T "TOTALTRACKS=%numtracks%" %hascover%–picture="%coverfile%"%hascover% %source% -o %dest%


TOC of the extracted CD

Track | Start | Length | Start sector | End sector
––––––––––––––––––––––––––––-
1 | 0:00.00 | 2:36.72 | 0 | 11771
2 | 2:36.72 | 3:22.28 | 11772 | 26949
3 | 5:59.25 | 2:59.35 | 26950 | 40409
4 | 8:58.60 | 2:44.63 | 40410 | 52772
5 | 11:43.48 | 2:33.73 | 52773 | 64320
6 | 14:17.46 | 3:55.47 | 64321 | 81992
7 | 18:13.18 | 7:49.29 | 81993 | 117196
8 | 26:02.47 | 4:25.03 | 117197 | 137074
9 | 30:27.50 | 3:47.03 | 137075 | 154102
10 | 34:14.53 | 4:28.64 | 154103 | 174266
11 | 38:43.42 | 2:19.03 | 174267 | 184694
12 | 41:02.45 | 3:44.33 | 184695 | 201527
13 | 44:47.03 | 3:08.36 | 201528 | 215663
14 | 47:55.39 | 4:34.72 | 215664 | 236285
15 | 52:30.36 | 5:40.53 | 236286 | 261838
16 | 58:11.14 | 2:48.38 | 261839 | 274476
17 | 60:59.52 | 3:38.33 | 274477 | 290859
18 | 64:38.10 | 4:16.37 | 290860 | 310096


Track 1

Filename C:\Program Files (x86)\Exact Audio Copy\Flac\01. Midnight Cowboy.wav

Pre-gap length 0:00:02.00

Peak level 94.0 %
Extraction speed 1.2 X
Track quality 100.0 %
Test CRC 55BE6491
Copy CRC 55BE6491
Accurately ripped (confidence 2) [9144177D] (AR v2)
Copy OK

Track 2

Filename C:\Program Files (x86)\Exact Audio Copy\Flac\02. Fun City.wav

Pre-gap length 0:00:01.51

Peak level 85.0 %
Extraction speed 1.4 X
Track quality 100.0 %
Test CRC 54D8347C
Copy CRC 54D8347C
Accurately ripped (confidence 2) [2EDAA47F] (AR v2)
Copy OK

Track 3

Filename C:\Program Files (x86)\Exact Audio Copy\Flac\03. Walkabout.wav

Pre-gap length 0:00:01.03

Peak level 72.1 %
Extraction speed 1.5 X
Track quality 100.0 %
Test CRC C877F721
Copy CRC C877F721
Accurately ripped (confidence 2) [6A91E7C2] (AR v2)
Copy OK

Track 4

Filename C:\Program Files (x86)\Exact Audio Copy\Flac\04. Afternoon.wav

Pre-gap length 0:00:00.19

Peak level 73.6 %
Extraction speed 1.5 X
Track quality 100.0 %
Test CRC 4097D3BD
Copy CRC 4097D3BD
Accurately ripped (confidence 2) [A11DD3C7] (AR v2)
Copy OK

Track 5

Filename C:\Program Files (x86)\Exact Audio Copy\Flac\05. Mary, Queen of Scots.wav

Pre-gap length 0:00:00.23

Peak level 97.7 %
Extraction speed 1.5 X
Track quality 100.0 %
Test CRC CB0AFAB0
Copy CRC CB0AFAB0
Accurately ripped (confidence 2) [A9683992] (AR v2)
Copy OK

Track 6

Filename C:\Program Files (x86)\Exact Audio Copy\Flac\06. Body Heat.wav

Pre-gap length 0:00:01.64

Peak level 85.3 %
Extraction speed 1.7 X
Track quality 100.0 %
Test CRC 1451815A
Copy CRC 1451815A
Accurately ripped (confidence 2) [F3B2AD00] (AR v2)
Copy OK

Track 7

Filename C:\Program Files (x86)\Exact Audio Copy\Flac\07. Frances.wav

Pre-gap length 0:00:00.29

Peak level 78.7 %
Extraction speed 2.0 X
Track quality 100.0 %
Test CRC 9A6659CA
Copy CRC 9A6659CA
Accurately ripped (confidence 2) [DB79A6E8] (AR v2)
Copy OK

Track 8

Filename C:\Program Files (x86)\Exact Audio Copy\Flac\08. Until September.wav

Peak level 67.6 %
Extraction speed 2.0 X
Track quality 100.0 %
Test CRC 5E6C31F0
Copy CRC 5E6C31F0
Accurately ripped (confidence 2) [CE8F687D] (AR v2)
Copy OK

Track 9

Filename C:\Program Files (x86)\Exact Audio Copy\Flac\09. The Cotton Club.wav

Pre-gap length 0:00:00.42

Peak level 84.9 %
Extraction speed 1.6 X
Track quality 99.9 %
Test CRC 1D872C86
Copy CRC 1D872C86
Accurately ripped (confidence 2) [82B394C6] (AR v2)
Copy OK

Track 10

Filename C:\Program Files (x86)\Exact Audio Copy\Flac\10. Out of Africa.wav

Pre-gap length 0:00:00.61

Peak level 99.8 %
Extraction speed 2.2 X
Track quality 100.0 %
Test CRC 0C4BF82E
Copy CRC 0C4BF82E
Accurately ripped (confidence 2) [2AF40F68] (AR v2)
Copy OK

Track 11

Filename C:\Program Files (x86)\Exact Audio Copy\Flac\11. The John Dunbar Theme.wav

Pre-gap length 0:00:00.42

Peak level 70.4 %
Extraction speed 1.9 X
Track quality 100.0 %
Test CRC 8B7FDC28
Copy CRC 8B7FDC28
Accurately ripped (confidence 2) [31940F08] (AR v2)
Copy OK

Track 12

Filename C:\Program Files (x86)\Exact Audio Copy\Flac\12. Journey to the Buffalo Killing Ground.wav

Pre-gap length 0:00:01.43

Peak level 83.2 %
Extraction speed 1.8 X
Track quality 99.9 %
Test CRC 6623DFFC
Copy CRC 6623DFFC
Accurately ripped (confidence 2) [15E10B40] (AR v2)
Copy OK

Track 13

Filename C:\Program Files (x86)\Exact Audio Copy\Flac\13. Theme From Chaplin.wav

Pre-gap length 0:00:01.01

Peak level 74.9 %
Extraction speed 2.2 X
Track quality 100.0 %
Test CRC 379B461A
Copy CRC 379B461A
Accurately ripped (confidence 2) [8027003A] (AR v2)
Copy OK

Track 14

Filename C:\Program Files (x86)\Exact Audio Copy\Flac\14. Moviola.wav

Pre-gap length 0:00:01.45

Peak level 85.3 %
Extraction speed 2.3 X
Track quality 100.0 %
Test CRC 135D8E54
Copy CRC 135D8E54
Accurately ripped (confidence 2) [DFDEA9B6] (AR v2)
Copy OK

Track 15

Filename C:\Program Files (x86)\Exact Audio Copy\Flac\15. The Specialist.wav

Pre-gap length 0:00:01.17

Peak level 93.0 %
Extraction speed 2.5 X
Track quality 100.0 %
Test CRC 3F8C59A4
Copy CRC 3F8C59A4
Accurately ripped (confidence 2) [61353B76] (AR v2)
Copy OK

Track 16

Filename C:\Program Files (x86)\Exact Audio Copy\Flac\16. Coney Island.wav

Pre-gap length 0:00:00.64

Peak level 50.2 %
Extraction speed 2.3 X
Track quality 100.0 %
Test CRC 2DF0B07C
Copy CRC 2DF0B07C
Accurately ripped (confidence 2) [3ABB3FCD] (AR v2)
Copy OK

Track 17

Filename C:\Program Files (x86)\Exact Audio Copy\Flac\17. Cry, Cry The Beloved Country.wav

Pre-gap length 0:00:01.33

Peak level 98.9 %
Extraction speed 2.0 X
Track quality 99.9 %
Test CRC 25FFA2E2
Copy CRC 25FFA2E2
Accurately ripped (confidence 2) [2F72F90E] (AR v2)
Copy OK

Track 18

Filename C:\Program Files (x86)\Exact Audio Copy\Flac\18. End Title.wav

Pre-gap length 0:00:02.08

Peak level 93.5 %
Extraction speed 2.3 X
Track quality 100.0 %
Test CRC 3B917947
Copy CRC 3B917947
Accurately ripped (confidence 2) [CB4F8B8E] (AR v2)
Copy OK


All tracks accurately ripped

No errors occurred

End of status report

–– CUETools DB Plugin V2.1.6

[CTDB TOCID: wAvitt7cjPjOG4N4WfwP3IG_fFA-] found
Submit result: wAvitt7cjPjOG4N4WfwP3IG_fFA- has been confirmed
Track | CTDB Status
1 | (9/9) Accurately ripped
2 | (9/9) Accurately ripped
3 | (9/9) Accurately ripped
4 | (9/9) Accurately ripped
5 | (9/9) Accurately ripped
6 | (9/9) Accurately ripped
7 | (9/9) Accurately ripped
8 | (9/9) Accurately ripped
9 | (9/9) Accurately ripped
10 | (9/9) Accurately ripped
11 | (9/9) Accurately ripped
12 | (9/9) Accurately ripped
13 | (9/9) Accurately ripped
14 | (9/9) Accurately ripped
15 | (9/9) Accurately ripped
16 | (9/9) Accurately ripped
17 | (9/9) Accurately ripped
18 | (9/9) Accurately ripped


==== Log checksum 8CEF08993AADD2E9CDD5BB3E9BE3A65AD2D0293BBBAE8F7342C51514FC977544 ====

foobar2000 1.2 / Dynamic Range Meter 1.1.1
log date: 2017-06-06 23:30:44

––––––––––––––––––––––––––––––––––––––––
Analyzed: John Barry / The Real… John Barry - CD3
––––––––––––––––––––––––––––––––––––––––

DR Peak RMS Duration Track
––––––––––––––––––––––––––––––––––––––––
DR13 -0.54 dB -16.04 dB 2:37 01-Midnight Cowboy
DR10 -1.41 dB -13.75 dB 3:22 02-Fun City
DR10 -2.84 dB -18.83 dB 2:59 03-Walkabout
DR10 -2.66 dB -15.90 dB 2:45 04-Afternoon
DR11 -0.20 dB -16.44 dB 2:34 05-Mary, Queen of Scots
DR11 -1.37 dB -17.73 dB 3:56 06-Body Heat
DR12 -2.07 dB -18.61 dB 7:49 07-Frances
DR11 -3.39 dB -19.01 dB 4:25 08-Until September
DR12 -1.42 dB -19.67 dB 3:47 09-The Cotton Club
DR10 -0.01 dB -13.10 dB 4:29 10-Out of Africa
DR10 -3.04 dB -16.02 dB 2:19 11-The John Dunbar Theme
DR11 -1.59 dB -16.65 dB 3:44 12-Journey to the Buffalo Killing Ground
DR12 -2.50 dB -21.32 dB 3:08 13-Theme From Chaplin
DR12 -1.37 dB -17.68 dB 4:35 14-Moviola
DR11 -0.63 dB -16.37 dB 5:41 15-The Specialist
DR11 -5.97 dB -20.22 dB 2:49 16-Coney Island
DR12 -0.09 dB -16.09 dB 3:38 17-Cry, Cry The Beloved Country
DR11 -0.58 dB -16.35 dB 4:16 18-End Title
––––––––––––––––––––––––––––––––––––––––

Number of tracks: 18
Official DR value: DR11

Samplerate: 44100 Hz
Channels: 2
Bits per sample: 16
Bitrate: 633 kbps
Codec: FLAC
================================================================================

John Barry ‎- The Real... John Barry: The Ultimate Collection (2016) 3 CDs

John Barry ‎- The Real... John Barry: The Ultimate Collection (2016) 3 CDs

All thanks to original uploader - Olivierito

More Movies & Soundtracks in Efgrapha Blog