Tags
Language
Tags

John Lennon - Signature Box (2010) [11CD Box Set]

Posted By:
John Lennon - Signature Box (2010) [11CD Box Set]

John Lennon - Signature Box (2010)
EAC | Flac(Image) + Cue + Log & MP3 CBR 320Kbps
11CD | EMI, 5099990650925 | ~ 2869 or 1012 Mb | Scans(png) -> 1215 Mb
Pop Rock / Claasic Rock / Rock & Roll

The crown jewel in Apple/EMI’s extensive 2010 John Lennon remasters series, Signature Box contains all of the solo studio albums Lennon released during his lifetime (minus the trio of experimental duet LPs with Yoko Ono released on Apple and Zapple), his first posthumous album Milk and Honey, a disc of non-LP singles, a disc of home demos, but not the 2010 showcase item Double Fantasy Stripped Down, which is available only as a bonus on the indvidual reissue of Double Fantasy. It is, in other words, close enough to complete to perhaps invite a little bit of quibbling about what is absent – Live Peace in Toronto could fit in nicely with this batch and there are outtakes from Menlove Ave missing but the real niggling comes with the home demo disc, which emphasizes demos and alternate takes of songs from Plastic Ono Band and Imagine, leaving behind demos of songs Lennon gave away, including “I’m the Greatest” and “Goodnight Vienna,” which he handed over to Ringo, and songs that never made it to one of his records. Ultimately, this is nitpicking because Signature Box is handsomely produced and contains the best-sounding Lennon remasters – remastered by the team that did the acclaimed 2009 Beatles remasters, using the original mixes, not the recent remixes – which is enough to make this more than worthwhile for the serious Lennon fan.

John Lennon - Signature Box (2010) [11CD Box Set]

by Stephen Thomas Erlewine, AMG
John Lennon - Signature Box (2010) [11CD Box Set]


John Lennon - Signature Box (2010):

John Lennon - Signature Box (2010) [11CD Box Set]

Tracklist CD01 - 1970 John Lennon / Plastic Ono Band:

01 Mother
02 Hold On
03 I Found Out
04 Working Class Hero
05 Isolation
06 Remember
07 Love
08 Well Well Well
09 Look At Me
10 God
11 My Mummy’s Dead

Exact Audio Copy V1.1 from 23. June 2015

EAC extraction logfile from 26. August 2015, 18:47

John Lennon & Plastic Ono Band / John Lennon Plastic Ono Band

Used drive : PLEXTOR BD-R PX-B950SA Adapter: 1 ID: 1

Read mode : Secure
Utilize accurate stream : Yes
Defeat audio cache : Yes
Make use of C2 pointers : No

Read offset correction : 6
Overread into Lead-In and Lead-Out : No
Fill up missing offset samples with silence : Yes
Delete leading and trailing silent blocks : No
Null samples used in CRC calculations : Yes
Used interface : Native Win32 interface for Win NT & 2000

Used output format : Internal WAV Routines
Sample format : 44.100 Hz; 16 Bit; Stereo


TOC of the extracted CD

Track | Start | Length | Start sector | End sector
––––––––––––––––––––––––––––-
1 | 0:00.00 | 5:36.23 | 0 | 25222
2 | 5:36.23 | 1:52.03 | 25223 | 33625
3 | 7:28.26 | 3:38.00 | 33626 | 49975
4 | 11:06.26 | 3:47.70 | 49976 | 67070
5 | 14:54.21 | 2:52.19 | 67071 | 79989
6 | 17:46.40 | 4:32.72 | 79990 | 100461
7 | 22:19.37 | 3:22.11 | 100462 | 115622
8 | 25:41.48 | 5:57.31 | 115623 | 142428
9 | 31:39.04 | 2:53.49 | 142429 | 155452
10 | 34:32.53 | 4:12.58 | 155453 | 174410
11 | 38:45.36 | 0:51.60 | 174411 | 178295


Range status and errors

Selected range

Filename C:\Users\Meijin\Desktop\ALLexxess\John Lennon\2010 Signature Box (11CD Box Set EMI Records)\1970 John Lennon Plastic Ono Band\John Lennon Plastic Ono Band.wav

Peak level 99.3 %
Extraction speed 6.9 X
Range quality 100.0 %
Test CRC C02D2CAD
Copy CRC C02D2CAD
Copy OK

No errors occurred


AccurateRip summary

Track 1 accurately ripped (confidence 69) [5CF177F3] (AR v2)
Track 2 accurately ripped (confidence 69) [5C6EC60C] (AR v2)
Track 3 accurately ripped (confidence 69) [AF6B036F] (AR v2)
Track 4 accurately ripped (confidence 69) [2CF01AA1] (AR v2)
Track 5 accurately ripped (confidence 69) [109F58B7] (AR v2)
Track 6 accurately ripped (confidence 69) [F0E5C19F] (AR v2)
Track 7 accurately ripped (confidence 69) [8E94D257] (AR v2)
Track 8 accurately ripped (confidence 69) [0C1B09AD] (AR v2)
Track 9 accurately ripped (confidence 69) [9EDB3169] (AR v2)
Track 10 accurately ripped (confidence 69) [2D44FE70] (AR v2)
Track 11 accurately ripped (confidence 69) [2654CC85] (AR v2)

All tracks accurately ripped

End of status report

–– CUETools DB Plugin V2.1.6

[CTDB TOCID: MB9eZZdoSJh19dTgp2ROt3qQNzI-] found
Submit result: MB9eZZdoSJh19dTgp2ROt3qQNzI- has been confirmed
Track | CTDB Status
1 | (152/154) Accurately ripped
2 | (152/154) Accurately ripped
3 | (152/154) Accurately ripped
4 | (152/154) Accurately ripped
5 | (152/154) Accurately ripped
6 | (149/154) Accurately ripped
7 | (149/154) Accurately ripped
8 | (150/154) Accurately ripped
9 | (152/154) Accurately ripped
10 | (152/154) Accurately ripped
11 | (152/154) Accurately ripped


==== Log checksum BC419D148914009D30ACC55106204DF8002704164F85CEC737EE7383726D4F81 ====

foobar2000 1.2.9 / Dynamic Range Meter 1.1.1
log date: 2015-08-29 19:25:46

––––––––––––––––––––––––––––––––––––––––
Analyzed: John Lennon & Plastic Ono Band / John Lennon Plastic Ono Band
––––––––––––––––––––––––––––––––––––––––

DR Peak RMS Duration Track
––––––––––––––––––––––––––––––––––––––––
DR13 -0.29 dB -16.39 dB 5:36 01-Mother
DR13 -2.75 dB -17.89 dB 1:52 02-Hold On
DR10 -0.06 dB -12.34 dB 3:38 03-I Found Out
DR13 -1.70 dB -19.78 dB 3:48 04-Working Class Hero
DR12 -0.21 dB -17.06 dB 2:52 05-Isolation
DR12 -0.17 dB -13.19 dB 4:33 06-Remember
DR11 -4.47 dB -20.53 dB 3:22 07-Love
DR12 -0.22 dB -13.89 dB 5:57 08-Well Well Well
DR11 -5.75 dB -20.65 dB 2:54 09-Look At Me
DR12 -0.23 dB -14.41 dB 4:13 10-God
DR10 -9.09 dB -25.13 dB 0:52 11-My Mummy's Dead
––––––––––––––––––––––––––––––––––––––––

Number of tracks: 11
Official DR value: DR12

Samplerate: 44100 Hz
Channels: 2
Bits per sample: 16
Bitrate: 771 kbps
Codec: FLAC

[CUETools log; Date: 29.08.2015 11:55:47; Version: 2.1.4]
[CTDB TOCID: MB9eZZdoSJh19dTgp2ROt3qQNzI-] found.
Track | CTDB Status
1 | (155/157) Accurately ripped
2 | (155/157) Accurately ripped
3 | (155/157) Accurately ripped
4 | (155/157) Accurately ripped
5 | (155/157) Accurately ripped
6 | (152/157) Accurately ripped
7 | (152/157) Accurately ripped
8 | (153/157) Accurately ripped
9 | (155/157) Accurately ripped
10 | (155/157) Accurately ripped
11 | (155/157) Accurately ripped
[AccurateRip ID: 00112100-0093d876-8f09490b] found.
Track [ CRC | V2 ] Status
01 [f9114992|5cf177f3] (040+069/276) Accurately ripped
02 [cd00e617|5c6ec60c] (040+069/274) Accurately ripped
03 [9f3d6aa5|af6b036f] (040+069/274) Accurately ripped
04 [be8aabf9|2cf01aa1] (040+069/276) Accurately ripped
05 [d3857b2d|109f58b7] (041+069/275) Accurately ripped
06 [f4dc64a4|f0e5c19f] (040+069/273) Accurately ripped
07 [282efbaf|8e94d257] (040+069/272) Accurately ripped
08 [8a1f2eeb|0c1b09ad] (040+069/272) Accurately ripped
09 [954e335b|9edb3169] (040+069/273) Accurately ripped
10 [539576ce|2d44fe70] (040+069/274) Accurately ripped
11 [11a1795d|2654cc85] (040+069/273) Accurately ripped
Offsetted by -664:
01 [67a96f04] (002/276) Accurately ripped
02 [ed3e2bca] (002/274) Accurately ripped
03 [68931962] (002/274) Accurately ripped
04 [fb7aaac5] (002/276) Accurately ripped
05 [713943f0] (002/275) Accurately ripped
06 [22eaa676] (002/273) Accurately ripped
07 [116f1ecd] (002/272) Accurately ripped
08 [77a81ce8] (002/272) Accurately ripped
09 [ae508e09] (002/273) Accurately ripped
10 [89ec6914] (002/274) Accurately ripped
11 [efd73a83] (002/273) Accurately ripped
Offsetted by 12:
01 [5d09fc2a] (042/276) Accurately ripped
02 [dd0d556c] (042/274) Accurately ripped
03 [9fa3e792] (042/274) Accurately ripped
04 [b6103be6] (042/276) Accurately ripped
05 [52cd8670] (042/275) Accurately ripped
06 [0ca24f2b] (042/273) Accurately ripped
07 [74d69e78] (042/272) Accurately ripped
08 [b3c744b7] (042/272) Accurately ripped
09 [9c8b32de] (041/273) Accurately ripped
10 [29ee32fe] (042/274) Accurately ripped
11 [9ccfe56c] (042/273) Accurately ripped
Offsetted by 135:
01 [891647ad] (003/276) Accurately ripped
02 [20173691] (003/274) Accurately ripped
03 [a52076f8] (003/274) Accurately ripped
04 [246a21c6] (003/276) Accurately ripped
05 [ac5f8e0a] (003/275) Accurately ripped
06 [31f52297] (003/273) Accurately ripped
07 [aeb937ad] (003/272) Accurately ripped
08 [dda89fb4] (003/272) Accurately ripped
09 [d41692b8] (003/273) Accurately ripped
10 [6357acc8] (003/274) Accurately ripped
11 [342b443d] (003/273) Accurately ripped
Offsetted by -18:
01 [90b7280b] (000/276) No match (V2 was not tested)
02 [a6c00ca4] (000/274) No match (V2 was not tested)
03 [63c8e9a3] (000/274) No match (V2 was not tested)
04 [ae099f4e] (000/276) No match (V2 was not tested)
05 [43f32e52] (000/275) No match (V2 was not tested)
06 [2764e3b6] (000/273) No match (V2 was not tested)
07 [1db06252] (000/272) No match (V2 was not tested)
08 [58a70ab7] (000/272) No match (V2 was not tested)
09 [25f3cd4f] (000/273) No match (V2 was not tested)
10 [26e66104] (000/274) No match (V2 was not tested)
11 [2fcbd126] (000/273) No match (V2 was not tested)
Offsetted by 6:
01 [91918d1b] (000/276) No match (V2 was not tested)
02 [be83b4b7] (000/274) No match (V2 was not tested)
03 [1cdf8886] (000/274) No match (V2 was not tested)
04 [7d5b058f] (000/276) No match (V2 was not tested)
05 [2e7ebccb] (000/275) No match (V2 was not tested)
06 [69b1d6e5] (000/273) No match (V2 was not tested)
07 [f023414b] (000/272) No match (V2 was not tested)
08 [25cfbfe2] (000/272) No match (V2 was not tested)
09 [8155365a] (000/273) No match (V2 was not tested)
10 [ea5271b6] (000/274) No match (V2 was not tested)
11 [5836af76] (000/273) No match (V2 was not tested)

Track Peak [ CRC32 ] [W/O NULL] [ LOG ]
– 99,3 [C02D2CAD] [BB07C25E] CRC32
01 96,7 [8AB3B69D] [16E9929D]
02 72,8 [143ECAEA] [823F2348]
03 99,3 [6EF9C4DE] [02DC1E2B]
04 82,2 [4670E713] [5A59F565]
05 97,5 [A00632A9] [021E00E6]
06 98,0 [E36A9866] [20C85801]
07 59,8 [7A01C85D] [30C0B19C]
08 97,4 [E11FCD2D] [8656F862]
09 51,5 [0C68D164] [F96A66DE]
10 97,3 [175A790E] [F2913BBD]
11 35,1 [53DA70CE] [AEBAFDEC]

John Lennon - Signature Box (2010) [11CD Box Set]

Tracklist CD02 - 1971 Imagine:

01 Imagine
02 Crippled Inside
03 Jealous Guy
04 It’s So Hard
05 I Don’t Want To Be A Soldier Mama
06 Give Me Some Truth
07 Oh My Love
08 How Do You Sleep?
09 How?
10 Oh Yoko!

Exact Audio Copy V1.1 from 23. June 2015

EAC extraction logfile from 26. August 2015, 13:37

John Lennon / Imagine

Used drive : PLEXTOR BD-R PX-B950SA Adapter: 1 ID: 1

Read mode : Secure
Utilize accurate stream : Yes
Defeat audio cache : Yes
Make use of C2 pointers : No

Read offset correction : 6
Overread into Lead-In and Lead-Out : No
Fill up missing offset samples with silence : Yes
Delete leading and trailing silent blocks : No
Null samples used in CRC calculations : Yes
Used interface : Native Win32 interface for Win NT & 2000

Used output format : Internal WAV Routines
Sample format : 44.100 Hz; 16 Bit; Stereo


TOC of the extracted CD

Track | Start | Length | Start sector | End sector
––––––––––––––––––––––––––––-
1 | 0:00.00 | 3:07.65 | 0 | 14089
2 | 3:07.65 | 3:52.47 | 14090 | 31536
3 | 7:00.37 | 4:17.59 | 31537 | 50870
4 | 11:18.21 | 2:29.06 | 50871 | 62051
5 | 13:47.27 | 6:08.36 | 62052 | 89687
6 | 19:55.63 | 3:17.61 | 89688 | 104523
7 | 23:13.49 | 2:48.08 | 104524 | 117131
8 | 26:01.57 | 5:39.14 | 117132 | 142570
9 | 31:40.71 | 3:46.21 | 142571 | 159541
10 | 35:27.17 | 4:20.56 | 159542 | 179097


Range status and errors

Selected range

Filename C:\Users\Meijin\Desktop\ALLexxess\John Lennon\2010 Signature Box (11CD Box Set EMI Records)\1971 Imagine\John Lennon - Imagine.wav

Peak level 98.5 %
Extraction speed 6.9 X
Range quality 100.0 %
Test CRC 6DEEBF60
Copy CRC 6DEEBF60
Copy OK

No errors occurred


AccurateRip summary

Track 1 accurately ripped (confidence 77) [46025DEF] (AR v2)
Track 2 accurately ripped (confidence 77) [3DB172D4] (AR v2)
Track 3 accurately ripped (confidence 78) [378FFBAA] (AR v2)
Track 4 accurately ripped (confidence 76) [D2B835CA] (AR v2)
Track 5 accurately ripped (confidence 76) [E22DB988] (AR v2)
Track 6 accurately ripped (confidence 76) [1D7CF5D5] (AR v2)
Track 7 accurately ripped (confidence 77) [88EC3AB9] (AR v2)
Track 8 accurately ripped (confidence 75) [9D0C3DE2] (AR v2)
Track 9 accurately ripped (confidence 76) [E1730A6F] (AR v2)
Track 10 accurately ripped (confidence 76) [131B9BD3] (AR v2)

All tracks accurately ripped

End of status report

–– CUETools DB Plugin V2.1.6

[CTDB TOCID: yQWKeaoV2ON.kBE_GR72W9KL0r0-] found
Submit result: yQWKeaoV2ON.kBE_GR72W9KL0r0- has been confirmed
Track | CTDB Status
1 | (195/195) Accurately ripped
2 | (194/195) Accurately ripped
3 | (195/195) Accurately ripped
4 | (194/195) Accurately ripped
5 | (194/195) Accurately ripped
6 | (195/195) Accurately ripped
7 | (195/195) Accurately ripped
8 | (195/195) Accurately ripped
9 | (195/195) Accurately ripped
10 | (195/195) Accurately ripped


==== Log checksum F9E9E2E8EC82D3D8DEFACA36D9DE74553C416EAEDDD72BB791BAC587BE0D30E6 ====

foobar2000 1.2.9 / Dynamic Range Meter 1.1.1
log date: 2015-08-29 19:26:03

––––––––––––––––––––––––––––––––––––––––
Analyzed: John Lennon / Imagine
––––––––––––––––––––––––––––––––––––––––

DR Peak RMS Duration Track
––––––––––––––––––––––––––––––––––––––––
DR10 -0.23 dB -11.72 dB 3:08 01-Imagine
DR10 -0.13 dB -11.29 dB 3:53 02-Crippled Inside
DR10 -0.21 dB -12.03 dB 4:18 03-Jealous Guy
DR11 -0.21 dB -12.70 dB 2:29 04-It's So Hard
DR9 -0.21 dB -11.23 dB 6:08 05-I Don't Wanna Be A Soldier Mama I Don't Wanna Die
DR10 -0.17 dB -11.30 dB 3:18 06-Gimme Some Truth
DR12 -0.24 dB -15.13 dB 2:48 07-Oh My Love
DR10 -0.19 dB -11.40 dB 5:39 08-How Do You Sleep?
DR11 -0.20 dB -13.92 dB 3:46 09-How?
DR9 -0.18 dB -10.89 dB 4:21 10-Oh Yoko!
––––––––––––––––––––––––––––––––––––––––

Number of tracks: 10
Official DR value: DR10

Samplerate: 44100 Hz
Channels: 2
Bits per sample: 16
Bitrate: 811 kbps
Codec: FLAC

[CUETools log; Date: 29.08.2015 11:58:02; Version: 2.1.4]
[CTDB TOCID: yQWKeaoV2ON.kBE_GR72W9KL0r0-] found.
Track | CTDB Status
1 | (197/197) Accurately ripped
2 | (196/197) Accurately ripped
3 | (197/197) Accurately ripped
4 | (196/197) Accurately ripped
5 | (196/197) Accurately ripped
6 | (197/197) Accurately ripped
7 | (197/197) Accurately ripped
8 | (197/197) Accurately ripped
9 | (197/197) Accurately ripped
10 | (197/197) Accurately ripped
[AccurateRip ID: 000e8341-00755ef9-8a09530a] found.
Track [ CRC | V2 ] Status
01 [4d936e68|46025def] (039+077/326) Accurately ripped
02 [de01ab10|3db172d4] (039+077/324) Accurately ripped
03 [3f6ecb9f|378ffbaa] (039+078/327) Accurately ripped
04 [5c96441e|d2b835ca] (039+076/324) Accurately ripped
05 [a0235f4d|e22db988] (039+076/324) Accurately ripped
06 [82279242|1d7cf5d5] (039+076/326) Accurately ripped
07 [c383e89a|88ec3ab9] (039+077/326) Accurately ripped
08 [14294013|9d0c3de2] (039+075/324) Accurately ripped
09 [a88ffb40|e1730a6f] (039+076/323) Accurately ripped
10 [82264538|131b9bd3] (038+076/324) Accurately ripped
Offsetted by 6:
01 [5004fa3f] (053/326) Accurately ripped
02 [f97c1105] (053/324) Accurately ripped
03 [0a588e26] (053/327) Accurately ripped
04 [a7702c63] (053/324) Accurately ripped
05 [497aa2be] (053/324) Accurately ripped
06 [574c9d3b] (053/326) Accurately ripped
07 [12781c29] (053/326) Accurately ripped
08 [0aba24b4] (053/324) Accurately ripped
09 [7ecb260d] (052/323) Accurately ripped
10 [bdd845e1] (053/324) Accurately ripped
Offsetted by 129:
01 [661de1ba] (003/326) Accurately ripped
02 [d159ad7d] (003/324) Accurately ripped
03 [7d6ed18d] (003/327) Accurately ripped
04 [a2244163] (003/324) Accurately ripped
05 [4df76eed] (003/324) Accurately ripped
06 [27e6e330] (003/326) Accurately ripped
07 [2d4e22bc] (003/326) Accurately ripped
08 [3c1c6eca] (003/324) Accurately ripped
09 [72fcef2d] (003/323) Accurately ripped
10 [13df5348] (003/324) Accurately ripped
Offsetted by -664:
01 [2f476e77] (000/326) No match (V2 was not tested)
02 [a53ae8ac] (000/324) No match (V2 was not tested)
03 [39420ff6] (000/327) No match (V2 was not tested)
04 [c198580b] (000/324) No match (V2 was not tested)
05 [0795e886] (000/324) No match (V2 was not tested)
06 [82640469] (000/326) No match (V2 was not tested)
07 [2a6137ac] (000/326) No match (V2 was not tested)
08 [f09b5823] (000/324) No match (V2 was not tested)
09 [2e54e90c] (000/323) No match (V2 was not tested)
10 [7d8eec1b] (000/324) No match (V2 was not tested)
Offsetted by -24:
01 [a513a65f] (000/326) No match (V2 was not tested)
02 [ba50ed09] (000/324) No match (V2 was not tested)
03 [5630f2a8] (000/327) No match (V2 was not tested)
04 [5b0c4fb5] (000/324) No match (V2 was not tested)
05 [5522f4fd] (000/324) No match (V2 was not tested)
06 [805dd835] (000/326) No match (V2 was not tested)
07 [0788314f] (000/326) No match (V2 was not tested)
08 [e170bbf1] (000/324) No match (V2 was not tested)
09 [5c37e9b0] (000/323) No match (V2 was not tested)
10 [93f5428a] (000/324) No match (V2 was not tested)

Track Peak [ CRC32 ] [W/O NULL] [ LOG ]
– 98,5 [6DEEBF60] [5C3D3D2A] CRC32
01 97,3 [117A7627] [73CFF35C]
02 98,5 [2DD0ABA5] [C7458E58]
03 97,6 [A1017C3C] [CB11084B]
04 97,6 [0F57934B] [AC3D1FB6]
05 97,5 [F6909F08] [ADD4BCC8]
06 98,0 [9B9B6104] [A8B4FEC7]
07 97,2 [389390C6] [166ADEB3]
08 97,8 [9C4CD541] [28F7B3FB]
09 97,6 [FED7BFC9] [4F1457C6]
10 97,9 [FC349834] [3B59FD53]

John Lennon - Signature Box (2010) [11CD Box Set]

Tracklist CD03 - 1971 Sometime In New York City CD1:

01 Woman Is The Nigger Of The World
02 Sisters, O Sisters
03 Attica State
04 Born In A Prison
05 New York City
06 Sunday Bloody Sunday
07 The Luck Of The Irish
08 John Sinclair
09 Angela
10 We’re All Water

Exact Audio Copy V1.1 from 23. June 2015

EAC extraction logfile from 26. August 2015, 12:56

John Lennon & Yoko Ono & Plastic Ono Band / Sometime In New York City CD1

Used drive : PLEXTOR BD-R PX-B950SA Adapter: 1 ID: 1

Read mode : Secure
Utilize accurate stream : Yes
Defeat audio cache : Yes
Make use of C2 pointers : No

Read offset correction : 6
Overread into Lead-In and Lead-Out : No
Fill up missing offset samples with silence : Yes
Delete leading and trailing silent blocks : No
Null samples used in CRC calculations : Yes
Used interface : Native Win32 interface for Win NT & 2000

Used output format : Internal WAV Routines
Sample format : 44.100 Hz; 16 Bit; Stereo


TOC of the extracted CD

Track | Start | Length | Start sector | End sector
––––––––––––––––––––––––––––-
1 | 0:00.00 | 5:18.56 | 0 | 23905
2 | 5:18.56 | 3:49.24 | 23906 | 41104
3 | 9:08.05 | 2:56.50 | 41105 | 54354
4 | 12:04.55 | 4:07.06 | 54355 | 72885
5 | 16:11.61 | 4:34.27 | 72886 | 93462
6 | 20:46.13 | 5:03.16 | 93463 | 116203
7 | 25:49.29 | 2:59.53 | 116204 | 129681
8 | 28:49.07 | 3:31.13 | 129682 | 145519
9 | 32:20.20 | 4:09.08 | 145520 | 164202
10 | 36:29.28 | 7:14.08 | 164203 | 196760


Range status and errors

Selected range

Filename C:\Users\Meijin\Desktop\ALLexxess\John Lennon\2010 Signature Box (11CD Box Set EMI Records)\1971 Sometime In New York City 2CD\CD1\John Lennon - Sometime In New York City CD1.wav

Peak level 97.9 %
Extraction speed 7.0 X
Range quality 99.9 %
Test CRC 7FF8A965
Copy CRC 7FF8A965
Copy OK

No errors occurred


AccurateRip summary

Track 1 accurately ripped (confidence 42) [7B2EC1DF] (AR v2)
Track 2 accurately ripped (confidence 42) [08EFCB05] (AR v2)
Track 3 accurately ripped (confidence 42) [42AC84C8] (AR v2)
Track 4 accurately ripped (confidence 42) [7EB8B76E] (AR v2)
Track 5 accurately ripped (confidence 42) [5E0EBC99] (AR v2)
Track 6 accurately ripped (confidence 42) [3D8F8925] (AR v2)
Track 7 accurately ripped (confidence 42) [72203F0D] (AR v2)
Track 8 accurately ripped (confidence 42) [9B4330A4] (AR v2)
Track 9 accurately ripped (confidence 41) [AF5BE7D3] (AR v2)
Track 10 accurately ripped (confidence 42) [A27439B3] (AR v2)

All tracks accurately ripped

End of status report

–– CUETools DB Plugin V2.1.6

[CTDB TOCID: Ac5.ed4kMUuI87Rb7Kr4YME8E1g-] found
Submit result: Ac5.ed4kMUuI87Rb7Kr4YME8E1g- has been confirmed
Track | CTDB Status
1 | (80/81) Accurately ripped
2 | (80/81) Accurately ripped
3 | (80/81) Accurately ripped
4 | (80/81) Accurately ripped
5 | (80/81) Accurately ripped
6 | (80/81) Accurately ripped
7 | (79/81) Accurately ripped
8 | (80/81) Accurately ripped
9 | (80/81) Accurately ripped
10 | (81/81) Accurately ripped


==== Log checksum 4393E35F7A4A17AE0A44A254C03B5DD6A884E754CC57D847C4215E076E6303FC ====

foobar2000 1.2.9 / Dynamic Range Meter 1.1.1
log date: 2015-08-29 19:26:23

––––––––––––––––––––––––––––––––––––––––
Analyzed: John Lennon & Yoko Ono & Plastic Ono Band / Sometime In New York City CD1
––––––––––––––––––––––––––––––––––––––––

DR Peak RMS Duration Track
––––––––––––––––––––––––––––––––––––––––
DR11 -0.26 dB -12.87 dB 5:19 01-Woman Is The Nigger Of The World
DR11 -0.40 dB -13.77 dB 3:49 02-Sisters, O Sisters
DR11 -0.22 dB -13.18 dB 2:57 03-Attica State
DR11 -0.25 dB -14.73 dB 4:07 04-Born In A Prison
DR11 -0.25 dB -12.98 dB 4:34 05-New York City
DR11 -0.31 dB -13.96 dB 5:03 06-Sunday Bloody Sunday
DR12 -1.26 dB -14.91 dB 3:00 07-The Luck Of The Irish
DR11 -0.92 dB -14.69 dB 3:31 08-John Sinclair
DR10 -0.18 dB -13.43 dB 4:09 09-Angela
DR10 -0.21 dB -11.85 dB 7:14 10-We're All Water
––––––––––––––––––––––––––––––––––––––––

Number of tracks: 10
Official DR value: DR11

Samplerate: 44100 Hz
Channels: 2
Bits per sample: 16
Bitrate: 867 kbps
Codec: FLAC

[CUETools log; Date: 29.08.2015 11:59:56; Version: 2.1.4]
[CTDB TOCID: Ac5.ed4kMUuI87Rb7Kr4YME8E1g-] found.
Track | CTDB Status
1 | (81/82) Accurately ripped
2 | (81/82) Accurately ripped
3 | (81/82) Accurately ripped
4 | (81/82) Accurately ripped
5 | (81/82) Accurately ripped
6 | (81/82) Accurately ripped
7 | (80/82) Accurately ripped
8 | (81/82) Accurately ripped
9 | (81/82) Accurately ripped
10 | (82/82) Accurately ripped
[AccurateRip ID: 000fd705-007e5a91-770a3f0a] found.
Track [ CRC | V2 ] Status
01 [abc31a14|7b2ec1df] (036+042/173) Accurately ripped
02 [a2069274|08efcb05] (036+042/174) Accurately ripped
03 [8da15101|42ac84c8] (036+042/174) Accurately ripped
04 [b61e957f|7eb8b76e] (036+042/174) Accurately ripped
05 [1cbe0f1b|5e0ebc99] (036+042/174) Accurately ripped
06 [76d5f99c|3d8f8925] (036+042/174) Accurately ripped
07 [a2c8327c|72203f0d] (036+042/174) Accurately ripped
08 [d535714b|9b4330a4] (036+042/175) Accurately ripped
09 [640da515|af5be7d3] (035+041/172) Accurately ripped
10 [dbf205a1|a27439b3] (034+042/172) Accurately ripped
Offsetted by 6:
01 [8b30a233] (028/173) Accurately ripped
02 [81c0ef41] (028/174) Accurately ripped
03 [4088cea7] (028/174) Accurately ripped
04 [859049d8] (028/174) Accurately ripped
05 [7fea9646] (028/174) Accurately ripped
06 [c188cff0] (028/174) Accurately ripped
07 [826dc1e0] (028/174) Accurately ripped
08 [cb8346c0] (028/175) Accurately ripped
09 [60a6f53b] (028/172) Accurately ripped
10 [fece92d8] (028/172) Accurately ripped
Offsetted by 129:
01 [f1d0fb60] (003/173) Accurately ripped
02 [6d0cb7f3] (003/174) Accurately ripped
03 [052ce40f] (003/174) Accurately ripped
04 [565a09a9] (003/174) Accurately ripped
05 [82abc1f8] (003/174) Accurately ripped
06 [ec9ba795] (003/174) Accurately ripped
07 [d251cc9d] (003/174) Accurately ripped
08 [d624c788] (003/175) Accurately ripped
09 [dfd1fe2b] (003/172) Accurately ripped
10 [592d6112] (003/172) Accurately ripped
Offsetted by -664:
01 [e2737e09] (000/173) No match (V2 was not tested)
02 [ce73e3d4] (000/174) No match (V2 was not tested)
03 [93491b03] (000/174) No match (V2 was not tested)
04 [d3c011fd] (000/174) No match (V2 was not tested)
05 [3a3af5f2] (000/174) No match (V2 was not tested)
06 [777edc2b] (000/174) No match (V2 was not tested)
07 [6aa69d01] (000/174) No match (V2 was not tested)
08 [b154b597] (000/175) No match (V2 was not tested)
09 [0dfc383f] (000/172) No match (V2 was not tested)
10 [406fe9a7] (000/172) No match (V2 was not tested)
Offsetted by -24:
01 [49b8bf7a] (000/173) No match (V2 was not tested)
02 [b60e5f16] (000/174) No match (V2 was not tested)
03 [c75e40db] (000/174) No match (V2 was not tested)
04 [91d1c49a] (000/174) No match (V2 was not tested)
05 [c2e8e8d0] (000/174) No match (V2 was not tested)
06 [c5f3b2d2] (000/174) No match (V2 was not tested)
07 [4976f4e2] (000/174) No match (V2 was not tested)
08 [52581521] (000/175) No match (V2 was not tested)
09 [4e91c422] (000/172) No match (V2 was not tested)
10 [511ad0c0] (000/172) No match (V2 was not tested)

Track Peak [ CRC32 ] [W/O NULL] [ LOG ]
– 97,9 [7FF8A965] [5F07BDB6] CRC32
01 97,0 [14899792] [7A8E76FB]
02 95,5 [3F20F732] [DD1276CC]
03 97,5 [AC059950] [6D059DB8]
04 97,2 [5F573A72] [AD6773ED]
05 97,1 [6CF67ADC] [08D3F459]
06 96,4 [9DA53FE6] [F6ACE790]
07 86,4 [624D1A46] [CBD30755]
08 89,9 [BE301486] [2119BA03]
09 97,9 [44A52A0D] [D7FFF13E]
10 97,5 [E2884C50] [2F2A32AC]

Tracklist CD04 - 1971 Sometime In New York City CD1:

01 Cold Turkey
02 Don’t Worry Kyoko
03 Well (Baby Please Don’t Go)
04 Jamrag
05 Scumbag
06 Au

Exact Audio Copy V1.1 from 23. June 2015

EAC extraction logfile from 25. August 2015, 19:53

John Lennon & Yoko Ono & Plastic Ono Band / Sometime In New York City CD2

Used drive : PLEXTOR BD-R PX-B950SA Adapter: 1 ID: 1

Read mode : Secure
Utilize accurate stream : Yes
Defeat audio cache : Yes
Make use of C2 pointers : No

Read offset correction : 6
Overread into Lead-In and Lead-Out : No
Fill up missing offset samples with silence : Yes
Delete leading and trailing silent blocks : No
Null samples used in CRC calculations : Yes
Used interface : Native Win32 interface for Win NT & 2000

Used output format : Internal WAV Routines
Sample format : 44.100 Hz; 16 Bit; Stereo


TOC of the extracted CD

Track | Start | Length | Start sector | End sector
––––––––––––––––––––––––––––-
1 | 0:00.00 | 8:35.30 | 0 | 38654
2 | 8:35.30 | 16:06.27 | 38655 | 111131
3 | 24:41.57 | 4:40.64 | 111132 | 132195
4 | 29:22.46 | 5:36.04 | 132196 | 157399
5 | 34:58.50 | 4:27.23 | 157400 | 177447
6 | 39:25.73 | 8:10.17 | 177448 | 214214


Range status and errors

Selected range

Filename C:\Users\Meijin\Desktop\ALLexxess\John Lennon\2010 Signature Box (11CD Box Set EMI Records)\1971 Sometime In New York City 2CD\CD2\John Lennon - Sometime In New York City CD2.wav

Peak level 97.6 %
Extraction speed 7.0 X
Range quality 99.9 %
Test CRC 95DAC3B9
Copy CRC 95DAC3B9
Copy OK

No errors occurred


AccurateRip summary

Track 1 accurately ripped (confidence 43) [B5F73406] (AR v2)
Track 2 accurately ripped (confidence 42) [7BD85004] (AR v2)
Track 3 accurately ripped (confidence 43) [6443E41B] (AR v2)
Track 4 accurately ripped (confidence 43) [132AECD8] (AR v2)
Track 5 accurately ripped (confidence 43) [489306A4] (AR v2)
Track 6 accurately ripped (confidence 43) [CE86A7AC] (AR v2)

All tracks accurately ripped

End of status report

–– CUETools DB Plugin V2.1.6

[CTDB TOCID: FkLSNSLW9LHb3cIX8j6CwdB9qfE-] found
Submit result: FkLSNSLW9LHb3cIX8j6CwdB9qfE- has been confirmed
Track | CTDB Status
1 | (79/82) Accurately ripped
2 | (80/82) Accurately ripped
3 | (80/82) Accurately ripped
4 | (81/82) Accurately ripped
5 | (81/82) Accurately ripped
6 | (81/82) Accurately ripped


==== Log checksum F7611E77446431E176E89188FECA432D98B235C2814C9D2EFF3E22D5B8F6E4B1 ====

foobar2000 1.2.9 / Dynamic Range Meter 1.1.1
log date: 2015-08-29 19:26:43

––––––––––––––––––––––––––––––––––––––––
Analyzed: John Lennon & Yoko Ono & Plastic Ono Band / Sometime In New York City CD2
––––––––––––––––––––––––––––––––––––––––

DR Peak RMS Duration Track
––––––––––––––––––––––––––––––––––––––––
DR9 -0.21 dB -11.49 dB 8:35 01-Cold Turkey
DR10 -0.21 dB -11.98 dB 16:06 02-Don't Worry Kyoko
DR10 -0.24 dB -12.91 dB 4:41 03-Well (Baby Please Don't Go)
DR11 -1.14 dB -15.19 dB 5:36 04-Jamrag
DR11 -0.29 dB -13.23 dB 4:27 05-Scumbag
DR10 -1.25 dB -14.28 dB 8:10 06-Au
––––––––––––––––––––––––––––––––––––––––

Number of tracks: 6
Official DR value: DR10

Samplerate: 44100 Hz
Channels: 2
Bits per sample: 16
Bitrate: 834 kbps
Codec: FLAC

[CUETools log; Date: 29.08.2015 12:01:54; Version: 2.1.4]
[CTDB TOCID: FkLSNSLW9LHb3cIX8j6CwdB9qfE-] found.
Track | CTDB Status
1 | (80/83) Accurately ripped
2 | (81/83) Accurately ripped
3 | (81/83) Accurately ripped
4 | (82/83) Accurately ripped
5 | (82/83) Accurately ripped
6 | (82/83) Accurately ripped
[AccurateRip ID: 000cae46-0041787c-460b2806] found.
Track [ CRC | V2 ] Status
01 [119e5e05|b5f73406] (035+043/169) Accurately ripped
02 [298fdb7d|7bd85004] (035+042/167) Accurately ripped
03 [2555bfac|6443e41b] (035+043/169) Accurately ripped
04 [f7a2b996|132aecd8] (035+043/169) Accurately ripped
05 [d8517650|489306a4] (035+043/170) Accurately ripped
06 [7d0c90c4|ce86a7ac] (035+043/168) Accurately ripped
Offsetted by 6:
01 [08f3a4e7] (027/169) Accurately ripped
02 [53016517] (026/167) Accurately ripped
03 [2b5be9be] (027/169) Accurately ripped
04 [ee4b2fee] (027/169) Accurately ripped
05 [7cb181a8] (027/170) Accurately ripped
06 [5557a0fc] (027/168) Accurately ripped
Offsetted by 129:
01 [f70e3988] (003/169) Accurately ripped
02 [cbb7eded] (003/167) Accurately ripped
03 [6f098122] (003/169) Accurately ripped
04 [23429292] (003/169) Accurately ripped
05 [e9ae4a40] (003/170) Accurately ripped
06 [07a87534] (003/168) Accurately ripped
Offsetted by -664:
01 [e3ecdbf8] (000/169) No match (V2 was not tested)
02 [54f477e9] (000/167) No match (V2 was not tested)
03 [ec096bcb] (000/169) No match (V2 was not tested)
04 [c2a78d93] (000/169) No match (V2 was not tested)
05 [a52b5faa] (000/170) No match (V2 was not tested)
06 [478842f7] (000/168) No match (V2 was not tested)
Offsetted by -24:
01 [0c9a0bed] (000/169) No match (V2 was not tested)
02 [217ebb23] (000/167) No match (V2 was not tested)
03 [089282d4] (000/169) No match (V2 was not tested)
04 [2d60b76e] (000/169) No match (V2 was not tested)
05 [0543f0bb] (000/170) No match (V2 was not tested)
06 [61bad75f] (000/168) No match (V2 was not tested)

Track Peak [ CRC32 ] [W/O NULL] [ LOG ]
– 97,6 [95DAC3B9] [6E5B21D7] CRC32
01 97,6 [0C886215] [83D0954F]
02 97,5 [DB2E409E] [B6230D1E]
03 97,3 [76D9DE4A] [A4914FE6]
04 87,7 [5D70ECED] [6F92B229]
05 96,7 [82E4AEA0] [471A5C5D]
06 86,5 [8D84F722] [B1856A72]

John Lennon - Signature Box (2010) [11CD Box Set]

Tracklist CD05 - 1973 Mind Games:

01 Mind Games
02 Tight As
03 Aisumasen (I’m Sorry)
04 One Day (At A Time)
05 Bring On The Lucie (Freda Peeple)
06 Nutopian International Anthem
07 Intuition
08 Out The Blue
09 Only People
10 I Know (I Know)
11 You Are Here
12 Meat City

Exact Audio Copy V1.1 from 23. June 2015

EAC extraction logfile from 25. August 2015, 19:27

John Lennon / Mind Games

Used drive : PLEXTOR BD-R PX-B950SA Adapter: 1 ID: 1

Read mode : Secure
Utilize accurate stream : Yes
Defeat audio cache : Yes
Make use of C2 pointers : No

Read offset correction : 6
Overread into Lead-In and Lead-Out : No
Fill up missing offset samples with silence : Yes
Delete leading and trailing silent blocks : No
Null samples used in CRC calculations : Yes
Used interface : Native Win32 interface for Win NT & 2000

Used output format : Internal WAV Routines
Sample format : 44.100 Hz; 16 Bit; Stereo


TOC of the extracted CD

Track | Start | Length | Start sector | End sector
––––––––––––––––––––––––––––-
1 | 0:00.00 | 4:13.20 | 0 | 18994
2 | 4:13.20 | 3:39.28 | 18995 | 35447
3 | 7:52.48 | 4:44.73 | 35448 | 56820
4 | 12:37.46 | 3:10.34 | 56821 | 71104
5 | 15:48.05 | 4:12.25 | 71105 | 90029
6 | 20:00.30 | 0:04.07 | 90030 | 90336
7 | 20:04.37 | 3:10.68 | 90337 | 104654
8 | 23:15.30 | 3:22.53 | 104655 | 119857
9 | 26:38.08 | 3:28.53 | 119858 | 135510
10 | 30:06.61 | 3:51.10 | 135511 | 152845
11 | 33:57.71 | 4:12.51 | 152846 | 171796
12 | 38:10.47 | 2:53.13 | 171797 | 184784


Range status and errors

Selected range

Filename C:\Users\Meijin\Desktop\ALLexxess\John Lennon\2010 Signature Box (11CD Box Set EMI Records)\1973 Mind Games\John Lennon - Mind Games.wav

Peak level 98.7 %
Extraction speed 6.7 X
Range quality 99.9 %
Test CRC 6628B62D
Copy CRC 6628B62D
Copy OK

No errors occurred


AccurateRip summary

Track 1 accurately ripped (confidence 42) [E0067055] (AR v2)
Track 2 accurately ripped (confidence 42) [595C3A36] (AR v2)
Track 3 accurately ripped (confidence 42) [714CD6A0] (AR v2)
Track 4 accurately ripped (confidence 42) [68DE32E1] (AR v2)
Track 5 accurately ripped (confidence 42) [49A66D64] (AR v2)
Track 6 not present in database
Track 7 accurately ripped (confidence 42) [9D17ABF1] (AR v2)
Track 8 accurately ripped (confidence 42) [26AE4B97] (AR v2)
Track 9 accurately ripped (confidence 42) [0F97D7A2] (AR v2)
Track 10 accurately ripped (confidence 42) [EDF3121C] (AR v2)
Track 11 accurately ripped (confidence 42) [5FB6263D] (AR v2)
Track 12 accurately ripped (confidence 42) [F8D71C1E] (AR v2)

11 track(s) accurately ripped
1 track(s) not present in the AccurateRip database

Some tracks could not be verified as accurate

End of status report

–– CUETools DB Plugin V2.1.6

[CTDB TOCID: lq1lJqe2NxWAKxIbhe7vauZnpAk-] found
Submit result: lq1lJqe2NxWAKxIbhe7vauZnpAk- has been confirmed
Track | CTDB Status
1 | (101/103) Accurately ripped
2 | (102/103) Accurately ripped
3 | (102/103) Accurately ripped
4 | (102/103) Accurately ripped
5 | (102/103) Accurately ripped
6 | (102/103) Accurately ripped
7 | (102/103) Accurately ripped
8 | (101/103) Accurately ripped
9 | (101/103) Accurately ripped
10 | (102/103) Accurately ripped
11 | (102/103) Accurately ripped
12 | (103/103) Accurately ripped


==== Log checksum C2284A36B1C2F52E2B2B6223D16969124B10D2D26FD0A418CF2571905F3361CF ====

foobar2000 1.2.9 / Dynamic Range Meter 1.1.1
log date: 2015-08-29 19:27:01

––––––––––––––––––––––––––––––––––––––––
Analyzed: John Lennon / Mind Games
––––––––––––––––––––––––––––––––––––––––

DR Peak RMS Duration Track
––––––––––––––––––––––––––––––––––––––––
DR12 -0.21 dB -14.37 dB 4:13 01-Mind Games
DR11 -0.15 dB -12.83 dB 3:39 02-Tight As
DR11 -0.20 dB -12.88 dB 4:45 03-Aisumasen (I'm Sorry)
DR11 -0.24 dB -13.32 dB 3:10 04-One Day (At A Time)
DR12 -0.20 dB -13.12 dB 4:12 05-Bring On The Lucie (Freda Peeple)
DR14 -58.49 dB -72.71 dB 0:04 06-Nutopian International Anthem
DR13 -0.19 dB -14.03 dB 3:11 07-Intuition
DR10 -0.11 dB -12.75 dB 3:23 08-Out The Blue
DR11 -0.19 dB -13.60 dB 3:29 09-Only People
DR11 -0.18 dB -12.84 dB 3:51 10-I Know (I Know)
DR13 -0.21 dB -15.25 dB 4:13 11-You Are Here
DR10 -0.20 dB -12.20 dB 2:53 12-Meat City
––––––––––––––––––––––––––––––––––––––––

Number of tracks: 12
Official DR value: DR12

Samplerate: 44100 Hz
Channels: 2
Bits per sample: 16
Bitrate: 844 kbps
Codec: FLAC

[CUETools log; Date: 29.08.2015 12:03:58; Version: 2.1.4]
[CTDB TOCID: lq1lJqe2NxWAKxIbhe7vauZnpAk-] found.
Track | CTDB Status
1 | (103/105) Accurately ripped
2 | (104/105) Accurately ripped
3 | (104/105) Accurately ripped
4 | (104/105) Accurately ripped
5 | (104/105) Accurately ripped
6 | (104/105) Accurately ripped
7 | (104/105) Accurately ripped
8 | (103/105) Accurately ripped
9 | (103/105) Accurately ripped
10 | (104/105) Accurately ripped
11 | (104/105) Accurately ripped
12 | (105/105) Accurately ripped
[AccurateRip ID: 0012cd3c-00acaa76-97099f0c] found.
Track [ CRC | V2 ] Status
01 [ad076870|e0067055] (020+042/155) Accurately ripped
02 [29e5ad42|595c3a36] (020+042/154) Accurately ripped
03 [c9f35250|714cd6a0] (020+042/154) Accurately ripped
04 [1cdf34d7|68de32e1] (020+042/154) Accurately ripped
05 [cde412f6|49a66d64] (020+042/153) Accurately ripped
06 [9cb9dc5e|5fe50962] (006+020/076) Accurately ripped
07 [9d472d43|9d17abf1] (020+042/154) Accurately ripped
08 [3073fbd3|26ae4b97] (020+042/154) Accurately ripped
09 [acbb7f91|0f97d7a2] (020+042/155) Accurately ripped
10 [6040d67c|edf3121c] (021+042/155) Accurately ripped
11 [b9d62ecd|5fb6263d] (020+042/153) Accurately ripped
12 [a252ef75|f8d71c1e] (020+042/154) Accurately ripped
Offsetted by 12:
01 [820e7ccf] (017/155) Accurately ripped
02 [3a9fb6dd] (016/154) Accurately ripped
03 [75332c95] (016/154) Accurately ripped
04 [5b6da257] (016/154) Accurately ripped
05 [601b9b54] (016/153) Accurately ripped
06 [99088cba] (007/076) Accurately ripped
07 [ea6a71fd] (016/154) Accurately ripped
08 [ed5f8fbc] (016/154) Accurately ripped
09 [de177bb2] (016/155) Accurately ripped
10 [2ee822ea] (017/155) Accurately ripped
11 [85de6dc6] (016/153) Accurately ripped
12 [0d07166d] (016/154) Accurately ripped
Offsetted by -664:
01 [ae1b4696] (000/155) No match (V2 was not tested)
02 [28d47022] (000/154) No match (V2 was not tested)
03 [7dacb96e] (000/154) No match (V2 was not tested)
04 [c521a091] (000/154) No match (V2 was not tested)
05 [e6958fc1] (000/153) No match (V2 was not tested)
06 [b1d47c67] (000/076) No match
07 [b7eb2623] (000/154) No match (V2 was not tested)
08 [559c593c] (000/154) No match (V2 was not tested)
09 [905c2b0b] (000/155) No match (V2 was not tested)
10 [a90bba1a] (000/155) No match (V2 was not tested)
11 [22458063] (000/153) No match (V2 was not tested)
12 [da94b2a4] (000/154) No match (V2 was not tested)
Offsetted by -18:
01 [fd259559] (000/155) No match (V2 was not tested)
02 [63130663] (000/154) No match (V2 was not tested)
03 [ccfca326] (000/154) No match (V2 was not tested)
04 [4c4cee55] (000/154) No match (V2 was not tested)
05 [b2a457bf] (000/153) No match (V2 was not tested)
06 [f4531bba] (000/076) No match
07 [7035c5b1] (000/154) No match (V2 was not tested)
08 [920087c4] (000/154) No match (V2 was not tested)
09 [78013297] (000/155) No match (V2 was not tested)
10 [53934ace] (000/155) No match (V2 was not tested)
11 [5a03c02f] (000/153) No match (V2 was not tested)
12 [02cb34ed] (000/154) No match (V2 was not tested)
Offsetted by 6:
01 [183edfc4] (000/155) No match (V2 was not tested)
02 [93c7320e] (000/154) No match (V2 was not tested)
03 [4d0fea59] (000/154) No match (V2 was not tested)
04 [94199425] (000/154) No match (V2 was not tested)
05 [b460bbcc] (000/153) No match (V2 was not tested)
06 [1bb85b56] (000/076) No match
07 [a565bcd9] (000/154) No match (V2 was not tested)
08 [708daab0] (000/154) No match (V2 was not tested)
09 [e3717d9f] (000/155) No match (V2 was not tested)
10 [7bb3050a] (000/155) No match (V2 was not tested)
11 [3b7a4634] (000/153) No match (V2 was not tested)
12 [d7a182f2] (000/154) No match (V2 was not tested)
Offsetted by 135:
01 [5b8c785f] (002/155) Accurately ripped
02 [9371a4b7] (002/154) Accurately ripped
03 [90952afe] (002/154) Accurately ripped
04 [ed4450cb] (002/154) Accurately ripped
05 [0ddd6d9c] (002/153) Accurately ripped
06 [29e80d55] (000/076) No match
07 [9fc04bad] (002/154) Accurately ripped
08 [8fbca0cd] (002/154) Accurately ripped
09 [28c6029f] (002/155) Accurately ripped
10 [de685fe8] (002/155) Accurately ripped
11 [e09c4b12] (002/153) Accurately ripped
12 [61bfe513] (002/154) Accurately ripped

Track Peak [ CRC32 ] [W/O NULL] [ LOG ]
– 98,7 [6628B62D] [05FD010E] CRC32
01 97,5 [F3C342E0] [CAF139F4]
02 98,2 [84FA1C41] [6644F988]
03 97,6 [FF5B84C8] [F8461107]
04 97,2 [5F918372] [E4A16020]
05 97,6 [14C9BEB6] [8758A483]
06 0,1 [1D646A69] [3B2A0154]
07 97,8 [413B8568] [A85DBC1F]
08 98,7 [E9EBF547] [A6924C47]
09 97,8 [59392284] [E668DBC3]
10 97,9 [D17D3A82] [F7B73E95]
11 97,6 [867CBA51] [026C1A50]
12 97,6 [1E34E99A] [2763D103]

John Lennon - Signature Box (2010) [11CD Box Set]

Tracklist CD06 - 1974 Walls And Bridges:

01 Going Down On Love
02 Whatever Gets You Through The Night
03 Old Dirt Road
04 What You Got
05 Bless You
06 Scared
07 #9 Dream
08 Surprise, Surprise (Sweet Bird Of Paradox)
09 Steel And Glass
10 Beef Jerky
11 Nobody Loves You (When You’re Down And Out)
12 Ya Ya

Exact Audio Copy V1.1 from 23. June 2015

EAC extraction logfile from 25. August 2015, 19:04

John Lennon / Walls And Bridges

Used drive : PLEXTOR BD-R PX-B950SA Adapter: 1 ID: 1

Read mode : Secure
Utilize accurate stream : Yes
Defeat audio cache : Yes
Make use of C2 pointers : No

Read offset correction : 6
Overread into Lead-In and Lead-Out : No
Fill up missing offset samples with silence : Yes
Delete leading and trailing silent blocks : No
Null samples used in CRC calculations : Yes
Used interface : Native Win32 interface for Win NT & 2000

Used output format : Internal WAV Routines
Sample format : 44.100 Hz; 16 Bit; Stereo


TOC of the extracted CD

Track | Start | Length | Start sector | End sector
––––––––––––––––––––––––––––-
1 | 0:00.00 | 3:57.24 | 0 | 17798
2 | 3:57.24 | 3:27.23 | 17799 | 33346
3 | 7:24.47 | 4:13.53 | 33347 | 52374
4 | 11:38.25 | 3:09.30 | 52375 | 66579
5 | 14:47.55 | 4:37.12 | 66580 | 87366
6 | 19:24.67 | 4:41.03 | 87367 | 108444
7 | 24:05.70 | 4:46.61 | 108445 | 129955
8 | 28:52.56 | 2:57.05 | 129956 | 143235
9 | 31:49.61 | 4:39.55 | 143236 | 164215
10 | 36:29.41 | 3:31.23 | 164216 | 180063
11 | 40:00.64 | 5:12.73 | 180064 | 203536
12 | 45:13.62 | 1:09.25 | 203537 | 208736


Range status and errors

Selected range

Filename C:\Users\Meijin\Desktop\ALLexxess\John Lennon\2010 Signature Box (11CD Box Set EMI Records)\1974 Walls And Bridges\John Lennon - Walls And Bridges.wav

Peak level 98.5 %
Extraction speed 7.0 X
Range quality 99.9 %
Test CRC CDE493F0
Copy CRC CDE493F0
Copy OK

No errors occurred


AccurateRip summary

Track 1 accurately ripped (confidence 44) [24703C3D] (AR v2)
Track 2 accurately ripped (confidence 44) [DE2B1ACF] (AR v2)
Track 3 accurately ripped (confidence 44) [29D6A3CD] (AR v2)
Track 4 accurately ripped (confidence 44) [03671575] (AR v2)
Track 5 accurately ripped (confidence 44) [C3E25EE5] (AR v2)
Track 6 accurately ripped (confidence 44) [FA601B86] (AR v2)
Track 7 accurately ripped (confidence 44) [CFD30A31] (AR v2)
Track 8 accurately ripped (confidence 44) [2092B353] (AR v2)
Track 9 accurately ripped (confidence 44) [8332F277] (AR v2)
Track 10 accurately ripped (confidence 44) [C406D7E0] (AR v2)
Track 11 accurately ripped (confidence 44) [84E62BB3] (AR v2)
Track 12 accurately ripped (confidence 44) [D4795BF9] (AR v2)

All tracks accurately ripped

End of status report

–– CUETools DB Plugin V2.1.6

[CTDB TOCID: sjSmxFoz4vsR4czipavHt3jNeF0-] found
Submit result: sjSmxFoz4vsR4czipavHt3jNeF0- has been confirmed
Track | CTDB Status
1 | (101/103) Accurately ripped
2 | (102/103) Accurately ripped
3 | (102/103) Accurately ripped
4 | (102/103) Accurately ripped
5 | (102/103) Accurately ripped
6 | (102/103) Accurately ripped
7 | (102/103) Accurately ripped
8 | (102/103) Accurately ripped
9 | (102/103) Accurately ripped
10 | (102/103) Accurately ripped
11 | (102/103) Accurately ripped
12 | (102/103) Accurately ripped


==== Log checksum 2A7BD98F8C9E53121D6C53700122BCBEA9B35D68B7ADE18C7D21AF2D76B03087 ====

foobar2000 1.2.9 / Dynamic Range Meter 1.1.1
log date: 2015-08-29 19:27:21

––––––––––––––––––––––––––––––––––––––––
Analyzed: John Lennon / Walls And Bridges
––––––––––––––––––––––––––––––––––––––––

DR Peak RMS Duration Track
––––––––––––––––––––––––––––––––––––––––
DR12 -0.17 dB -14.70 dB 3:57 01-Going Down On Love
DR12 -0.23 dB -13.23 dB 3:27 02-Whatever Gets You Through The Night
DR11 -0.19 dB -13.32 dB 4:14 03-Old Dirt Road
DR12 -0.19 dB -13.39 dB 3:09 04-What You Got
DR12 -0.26 dB -14.77 dB 4:37 05-Bless You
DR10 -0.15 dB -12.47 dB 4:41 06-Scared
DR11 -0.24 dB -13.24 dB 4:47 07-#9 Dream
DR11 -0.23 dB -13.54 dB 2:57 08-Surprise, Surprise (Sweet Bird Of Paradox)
DR11 -0.18 dB -13.87 dB 4:40 09-Steel And Glass
DR12 -0.12 dB -14.84 dB 3:31 10-Beef Jerky
DR11 -0.22 dB -14.31 dB 5:13 11-Nobody Loves You (When You're Down And Out)
DR11 -3.77 dB -20.31 dB 1:09 12-Ya Ya
––––––––––––––––––––––––––––––––––––––––

Number of tracks: 12
Official DR value: DR11

Samplerate: 44100 Hz
Channels: 2
Bits per sample: 16
Bitrate: 842 kbps
Codec: FLAC

[CUETools log; Date: 29.08.2015 12:05:52; Version: 2.1.4]
[CTDB TOCID: sjSmxFoz4vsR4czipavHt3jNeF0-] found.
Track | CTDB Status
1 | (104/106) Accurately ripped
2 | (105/106) Accurately ripped
3 | (105/106) Accurately ripped
4 | (105/106) Accurately ripped
5 | (105/106) Accurately ripped
6 | (105/106) Accurately ripped
7 | (105/106) Accurately ripped
8 | (105/106) Accurately ripped
9 | (105/106) Accurately ripped
10 | (105/106) Accurately ripped
11 | (105/106) Accurately ripped
12 | (105/106) Accurately ripped
[AccurateRip ID: 00154bcb-00c76ada-9b0adf0c] found.
Track [ CRC | V2 ] Status
01 [51cb3902|24703c3d] (036+044/199) Accurately ripped
02 [3c6e269e|de2b1acf] (036+044/198) Accurately ripped
03 [1aef1b33|29d6a3cd] (036+044/198) Accurately ripped
04 [58a81426|03671575] (036+044/197) Accurately ripped
05 [28bf51bf|c3e25ee5] (036+044/198) Accurately ripped
06 [1450114f|fa601b86] (036+044/198) Accurately ripped
07 [a52c26fe|cfd30a31] (036+044/198) Accurately ripped
08 [b2ceb820|2092b353] (036+044/198) Accurately ripped
09 [9d21bf89|8332f277] (036+044/198) Accurately ripped
10 [72aedf4d|c406d7e0] (036+044/198) Accurately ripped
11 [02362531|84e62bb3] (035+044/196) Accurately ripped
12 [7e8e084c|d4795bf9] (036+044/196) Accurately ripped
Offsetted by 12:
01 [1a3c5ffc] (035/199) Accurately ripped
02 [5b7f88f4] (035/198) Accurately ripped
03 [96eafe20] (035/198) Accurately ripped
04 [25f11489] (034/197) Accurately ripped
05 [9582a5b3] (034/198) Accurately ripped
06 [c2866a75] (035/198) Accurately ripped
07 [1f00211d] (035/198) Accurately ripped
08 [713d00e9] (035/198) Accurately ripped
09 [65e994e3] (034/198) Accurately ripped
10 [4943a7a8] (034/198) Accurately ripped
11 [a12ff044] (033/196) Accurately ripped
12 [260f1532] (033/196) Accurately ripped
Offsetted by -664:
01 [07ebd758] (000/199) No match (V2 was not tested)
02 [f0803ebc] (000/198) No match (V2 was not tested)
03 [63b7a10f] (000/198) No match (V2 was not tested)
04 [076ca474] (000/197) No match (V2 was not tested)
05 [fae704c4] (000/198) No match (V2 was not tested)
06 [5c60498a] (000/198) No match (V2 was not tested)
07 [96ddc2a5] (000/198) No match (V2 was not tested)
08 [f5e7c715] (000/198) No match (V2 was not tested)
09 [778f8806] (000/198) No match (V2 was not tested)
10 [0178b805] (000/198) No match (V2 was not tested)
11 [58443fb9] (000/196) No match (V2 was not tested)
12 [c49124c9] (000/196) No match (V2 was not tested)
Offsetted by -18:
01 [424694d1] (000/199) No match (V2 was not tested)
02 [c66014ef] (000/198) No match (V2 was not tested)
03 [3ba98e0f] (000/198) No match (V2 was not tested)
04 [909b594c] (000/197) No match (V2 was not tested)
05 [fe719356] (000/198) No match (V2 was not tested)
06 [fe518fb5] (000/198) No match (V2 was not tested)
07 [ea7b2f78] (000/198) No match (V2 was not tested)
08 [ed99d119] (000/198) No match (V2 was not tested)
09 [6e6f9c74] (000/198) No match (V2 was not tested)
10 [3fbe56ec] (000/198) No match (V2 was not tested)
11 [4fff7491] (000/196) No match (V2 was not tested)
12 [03b574f6] (000/196) No match (V2 was not tested)
Offsetted by 6:
01 [905430a8] (000/199) No match (V2 was not tested)
02 [8c7157c7] (000/198) No match (V2 was not tested)
03 [1132d3bb] (000/198) No match (V2 was not tested)
04 [4aecf48d] (000/197) No match (V2 was not tested)
05 [04fb9634] (000/198) No match (V2 was not tested)
06 [e963490f] (000/198) No match (V2 was not tested)
07 [e07923d7] (000/198) No match (V2 was not tested)
08 [9e8c7c55] (000/198) No match (V2 was not tested)
09 [a3be3867] (000/198) No match (V2 was not tested)
10 [81bdab0d] (000/198) No match (V2 was not tested)
11 [53730f79] (000/196) No match (V2 was not tested)
12 [52478ebb] (000/196) No match (V2 was not tested)
Offsetted by 135:
01 [0bf3fd7e] (003/199) Accurately ripped
02 [e1b12ecf] (003/198) Accurately ripped
03 [5a8273e8] (003/198) Accurately ripped
04 [f8fb6725] (003/197) Accurately ripped
05 [a63b42e5] (003/198) Accurately ripped
06 [54884de8] (003/198) Accurately ripped
07 [0638e4c1] (003/198) Accurately ripped
08 [afc7ee17] (003/198) Accurately ripped
09 [4966e4e7] (003/198) Accurately ripped
10 [30b5aa7d] (003/198) Accurately ripped
11 [2e719bce] (003/196) Accurately ripped
12 [aa3f59ca] (000/196) No match (V2 was not tested)

Track Peak [ CRC32 ] [W/O NULL] [ LOG ]
– 98,5 [CDE493F0] [AE82304B] CRC32
01 98,0 [4C7659F4] [37EAB452]
02 97,3 [FDE44F46] [4B73D795]
03 97,7 [8203AB8B] [6BA8D681]
04 97,8 [36F4E390] [B653A974]
05 97,0 [5057F1DB] [F15AD7B1]
06 98,3 [95A3A789] [18D8B8E6]
07 97,2 [B83F5703] [6DD67088]
08 97,3 [22AE8171] [C00FE10F]
09 97,9 [E16BE5E5] [DAD10249]
10 98,5 [C552FEA8] [3E315E27]
11 97,5 [B8374AED] [072C1AAF]
12 64,7 [50E7265B] [DFA03DDB]

John Lennon - Signature Box (2010) [11CD Box Set]

Tracklist CD07 - 1975 Rock 'N' Roll:

01 Be-Bop-A-Lula
02 Stand By Me
03 Medley: Rip It Up / Ready Teddy
04 You Can’t Catch Me
05 Ain’t That A Shame
06 Do You Want To Dance
07 Sweet Little Sixteen
08 Slippin’ And Slidin’
09 Peggy Sue
10 Medley: Bring It On Home To Me / Send Me Some Lovin'
11 Bony Moronie
12 Ya Ya
13 Just Because

Exact Audio Copy V1.1 from 23. June 2015

EAC extraction logfile from 25. August 2015, 16:47

John Lennon / Rock 'N' Roll

Used drive : PLEXTOR BD-R PX-B950SA Adapter: 1 ID: 1

Read mode : Secure
Utilize accurate stream : Yes
Defeat audio cache : Yes
Make use of C2 pointers : No

Read offset correction : 6
Overread into Lead-In and Lead-Out : No
Fill up missing offset samples with silence : Yes
Delete leading and trailing silent blocks : No
Null samples used in CRC calculations : Yes
Used interface : Native Win32 interface for Win NT & 2000

Used output format : Internal WAV Routines
Sample format : 44.100 Hz; 16 Bit; Stereo


TOC of the extracted CD

Track | Start | Length | Start sector | End sector
––––––––––––––––––––––––––––-
1 | 0:00.00 | 2:37.26 | 0 | 11800
2 | 2:37.26 | 3:31.50 | 11801 | 27675
3 | 6:09.01 | 1:34.26 | 27676 | 34751
4 | 7:43.27 | 4:53.67 | 34752 | 56793
5 | 12:37.19 | 2:34.11 | 56794 | 68354
6 | 15:11.30 | 2:53.55 | 68355 | 81384
7 | 18:05.10 | 3:04.21 | 81385 | 95205
8 | 21:09.31 | 2:17.50 | 95206 | 105530
9 | 23:27.06 | 2:05.05 | 105531 | 114910
10 | 25:32.11 | 3:42.18 | 114911 | 131578
11 | 29:14.29 | 3:50.54 | 131579 | 148882
12 | 33:05.08 | 2:17.74 | 148883 | 159231
13 | 35:23.07 | 4:30.13 | 159232 | 179494


Range status and errors

Selected range

Filename C:\Users\Meijin\Desktop\ALLexxess\John Lennon\2010 Signature Box (11CD Box Set EMI Records)\1975 Rock 'N' Roll\John Lennon - Rock 'N' Roll.wav

Peak level 98.3 %
Extraction speed 6.9 X
Range quality 100.0 %
Test CRC E031C719
Copy CRC E031C719
Copy OK

No errors occurred


AccurateRip summary

Track 1 accurately ripped (confidence 48) [34E4BFEE] (AR v2)
Track 2 accurately ripped (confidence 48) [B8C9F74C] (AR v2)
Track 3 accurately ripped (confidence 48) [CABB70B9] (AR v2)
Track 4 accurately ripped (confidence 48) [11958402] (AR v2)
Track 5 accurately ripped (confidence 48) [5D8BCB33] (AR v2)
Track 6 accurately ripped (confidence 48) [2383256E] (AR v2)
Track 7 accurately ripped (confidence 48) [287C4E6A] (AR v2)
Track 8 accurately ripped (confidence 48) [92678F6F] (AR v2)
Track 9 accurately ripped (confidence 48) [2DD92E34] (AR v2)
Track 10 accurately ripped (confidence 48) [92ECAD8C] (AR v2)
Track 11 accurately ripped (confidence 48) [756BECDA] (AR v2)
Track 12 accurately ripped (confidence 48) [94742F93] (AR v2)
Track 13 accurately ripped (confidence 48) [5C75F951] (AR v2)

All tracks accurately ripped

End of status report

–– CUETools DB Plugin V2.1.6

[CTDB TOCID: th17HYwVgrebtiAheoLBPiZ8Lsw-] found
Submit result: th17HYwVgrebtiAheoLBPiZ8Lsw- has been confirmed
Track | CTDB Status
1 | (101/102) Accurately ripped
2 | (101/102) Accurately ripped
3 | (101/102) Accurately ripped
4 | (101/102) Accurately ripped
5 | (101/102) Accurately ripped
6 | (101/102) Accurately ripped
7 | (101/102) Accurately ripped
8 | (101/102) Accurately ripped
9 | (100/102) Accurately ripped
10 | (101/102) Accurately ripped
11 | (101/102) Accurately ripped
12 | (101/102) Accurately ripped
13 | (102/102) Accurately ripped


==== Log checksum C4C48116903FC5FF3ABFCF660C08C0514BFFD979647E8BE6098992481E278A70 ====

foobar2000 1.2.9 / Dynamic Range Meter 1.1.1
log date: 2015-08-29 19:27:38

––––––––––––––––––––––––––––––––––––––––
Analyzed: John Lennon / Rock 'N' Roll
––––––––––––––––––––––––––––––––––––––––

DR Peak RMS Duration Track
––––––––––––––––––––––––––––––––––––––––
DR11 -0.19 dB -12.37 dB 2:37 01-Be-Bop-A-Lula
DR11 -0.21 dB -14.00 dB 3:32 02-Stand By Me
DR11 -0.23 dB -12.80 dB 1:34 03-Medley: Rip It Up / Ready Teddy
DR10 -0.15 dB -10.96 dB 4:54 04-You Can't Catch Me
DR11 -0.21 dB -12.41 dB 2:34 05-Ain't That A Shame
DR12 -0.24 dB -13.51 dB 2:54 06-Do You Wanna Dance
DR12 -0.22 dB -13.39 dB 3:04 07-Sweet Little Sixteen
DR12 -0.24 dB -13.37 dB 2:18 08-Slippin' And Slidin'
DR9 -0.22 dB -10.56 dB 2:05 09-Peggy Sue
DR11 -1.11 dB -13.11 dB 3:42 10-Medley: Bring It On Home To Me / Send Me Some Lovin'
DR11 -0.21 dB -12.11 dB 3:51 11-Bony Moronie
DR11 -0.22 dB -12.96 dB 2:18 12-Ya Ya
DR12 -0.25 dB -16.08 dB 4:30 13-Just Because
––––––––––––––––––––––––––––––––––––––––

Number of tracks: 13
Official DR value: DR11

Samplerate: 44100 Hz
Channels: 2
Bits per sample: 16
Bitrate: 844 kbps
Codec: FLAC

[CUETools log; Date: 29.08.2015 12:08:02; Version: 2.1.4]
[CTDB TOCID: th17HYwVgrebtiAheoLBPiZ8Lsw-] found.
Track | CTDB Status
1 | (102/103) Accurately ripped
2 | (102/103) Accurately ripped
3 | (102/103) Accurately ripped
4 | (102/103) Accurately ripped
5 | (102/103) Accurately ripped
6 | (102/103) Accurately ripped
7 | (102/103) Accurately ripped
8 | (102/103) Accurately ripped
9 | (101/103) Accurately ripped
10 | (102/103) Accurately ripped
11 | (102/103) Accurately ripped
12 | (102/103) Accurately ripped
13 | (103/103) Accurately ripped
[AccurateRip ID: 00128c70-00b9f502-b909590d] found.
Track [ CRC | V2 ] Status
01 [a5a7ed34|34e4bfee] (038+048/195) Accurately ripped
02 [85555e3e|b8c9f74c] (038+048/195) Accurately ripped
03 [54b25393|cabb70b9] (038+048/195) Accurately ripped
04 [b7f12197|11958402] (038+048/194) Accurately ripped
05 [c7df2cbf|5d8bcb33] (039+048/195) Accurately ripped
06 [7addc8e6|2383256e] (039+048/195) Accurately ripped
07 [4eca7a41|287c4e6a] (039+048/196) Accurately ripped
08 [37e202d5|92678f6f] (039+048/194) Accurately ripped
09 [c9b3646a|2dd92e34] (039+048/195) Accurately ripped
10 [c98ffc69|92ecad8c] (039+048/195) Accurately ripped
11 [8ed5c2e4|756becda] (039+048/196) Accurately ripped
12 [f12bf69a|94742f93] (039+048/194) Accurately ripped
13 [02470cfb|5c75f951] (039+048/195) Accurately ripped
Offsetted by 6:
01 [cd366c11] (030/195) Accurately ripped
02 [e3d88f3e] (030/195) Accurately ripped
03 [ce9f5f38] (030/195) Accurately ripped
04 [6434c767] (030/194) Accurately ripped
05 [76475cb5] (029/195) Accurately ripped
06 [0cb6482f] (029/195) Accurately ripped
07 [f85f343c] (029/196) Accurately ripped
08 [44be9560] (028/194) Accurately ripped
09 [07fb8bd7] (029/195) Accurately ripped
10 [6e9a4ce3] (029/195) Accurately ripped
11 [71db1979] (029/196) Accurately ripped
12 [0638c74f] (028/194) Accurately ripped
13 [0c2338db] (029/195) Accurately ripped
Offsetted by 129:
01 [b327596a] (002/195) Accurately ripped
02 [b68e95e5] (002/195) Accurately ripped
03 [dec766be] (002/195) Accurately ripped
04 [08035c03] (002/194) Accurately ripped
05 [851549fb] (002/195) Accurately ripped
06 [8ca7962f] (002/195) Accurately ripped
07 [a503e4ab] (002/196) Accurately ripped
08 [d8701c0e] (002/194) Accurately ripped
09 [93f05267] (002/195) Accurately ripped
10 [4be1b28b] (002/195) Accurately ripped
11 [f0ad764c] (002/196) Accurately ripped
12 [ae06af40] (002/194) Accurately ripped
13 [e4bd3cce] (002/195) Accurately ripped
Offsetted by -664:
01 [8cc1da9b] (000/195) No match (V2 was not tested)
02 [793f3f32] (000/195) No match (V2 was not tested)
03 [70a547de] (000/195) No match (V2 was not tested)
04 [b6339be4] (000/194) No match (V2 was not tested)
05 [1136b400] (000/195) No match (V2 was not tested)
06 [bc904d35] (000/195) No match (V2 was not tested)
07 [afa47d4c] (000/196) No match (V2 was not tested)
08 [44fe55c2] (000/194) No match (V2 was not tested)
09 [78412e5e] (000/195) No match (V2 was not tested)
10 [acd73fba] (000/195) No match (V2 was not tested)
11 [12f72189] (000/196) No match (V2 was not tested)
12 [9e332cc3] (000/194) No match (V2 was not tested)
13 [a998aebd] (000/195) No match (V2 was not tested)
Offsetted by -24:
01 [4dc86922] (000/195) No match (V2 was not tested)
02 [25fb0452] (000/195) No match (V2 was not tested)
03 [84d2f018] (000/195) No match (V2 was not tested)
04 [f0cc2f5c] (000/194) No match (V2 was not tested)
05 [08588457] (000/195) No match (V2 was not tested)
06 [eb60f639] (000/195) No match (V2 was not tested)
07 [a60e9ea4] (000/196) No match (V2 was not tested)
08 [143a9ead] (000/194) No match (V2 was not tested)
09 [a920de63] (000/195) No match (V2 was not tested)
10 [cad45fa4] (000/195) No match (V2 was not tested)
11 [a6de8329] (000/196) No match (V2 was not tested)
12 [429afc3d] (000/194) No match (V2 was not tested)
13 [db885d61] (000/195) No match (V2 was not tested)

Track Peak [ CRC32 ] [W/O NULL] [ LOG ]
– 98,3 [E031C719] [7300CF36] CRC32
01 97,7 [7EE3DF18] [A0F9CBAD]
02 97,5 [3FB87CD6] [AAA55AC9]
03 97,4 [C0C00303] [AA99443B]
04 98,3 [20575810] [8845E415]
05 97,6 [4DCB12D5] [CC6DCFBC]
06 97,3 [52BC27ED] [518519B5]
07 97,5 [57D8B5C8] [576C9B66]
08 97,3 [86B26283] [FDA9ED04]
09 97,4 [82E23600] [19AE2E37]
10 88,0 [8F860EFF] [7C7B7848]
11 97,6 [B939E641] [961B3D05]
12 97,5 [592232B2] [6856188E]
13 97,1 [E5D9DE6C] [641F03C0]

John Lennon - Signature Box (2010) [11CD Box Set]

Tracklist CD08 - 1980 Double Fantasy:

01 (Just Like) Starting Over
02 Kiss Kiss Kiss
03 Cleanup Time
04 Give Me Something
05 I'm Losing You
06 I'm Moving On
07 Beautiful Boy (Darling Boy)
08 Watching The Wheels
09 Yes, I'm Your Angel
10 Woman
11 Beautiful Boys
12 Dear Yoko
13 Every Man Has A Woman Who Loves Him
14 Hard Times Are Over

Exact Audio Copy V1.1 from 23. June 2015

EAC extraction logfile from 25. August 2015, 16:20

John Lennon & Yoko Ono / Double Fantasy

Used drive : PLEXTOR BD-R PX-B950SA Adapter: 1 ID: 1

Read mode : Secure
Utilize accurate stream : Yes
Defeat audio cache : Yes
Make use of C2 pointers : No

Read offset correction : 6
Overread into Lead-In and Lead-Out : No
Fill up missing offset samples with silence : Yes
Delete leading and trailing silent blocks : No
Null samples used in CRC calculations : Yes
Used interface : Native Win32 interface for Win NT & 2000

Used output format : Internal WAV Routines
Sample format : 44.100 Hz; 16 Bit; Stereo


TOC of the extracted CD

Track | Start | Length | Start sector | End sector
––––––––––––––––––––––––––––-
1 | 0:00.00 | 3:56.41 | 0 | 17740
2 | 3:56.41 | 2:41.74 | 17741 | 29889
3 | 6:38.40 | 2:58.44 | 29890 | 43283
4 | 9:37.09 | 1:34.70 | 43284 | 50403
5 | 11:12.04 | 3:57.12 | 50404 | 68190
6 | 15:09.16 | 2:21.73 | 68191 | 78838
7 | 17:31.14 | 4:05.52 | 78839 | 97265
8 | 21:36.66 | 3:59.70 | 97266 | 115260
9 | 25:36.61 | 3:09.33 | 115261 | 129468
10 | 28:46.19 | 3:32.70 | 129469 | 145438
11 | 32:19.14 | 2:55.33 | 145439 | 158596
12 | 35:14.47 | 2:34.45 | 158597 | 170191
13 | 37:49.17 | 4:03.01 | 170192 | 188417
14 | 41:52.18 | 3:19.31 | 188418 | 203373


Range status and errors

Selected range

Filename C:\Users\Meijin\Desktop\ALLexxess\John Lennon\2010 Signature Box (11CD Box Set EMI Records)\1980 Double Fantasy\John Lennon & Yoko Ono - Double Fantasy.wav

Peak level 97.7 %
Extraction speed 7.1 X
Range quality 100.0 %
Test CRC 8AAF0C49
Copy CRC 8AAF0C49
Copy OK

No errors occurred


AccurateRip summary

Track 1 accurately ripped (confidence 72) [60D6AB26] (AR v2)
Track 2 accurately ripped (confidence 71) [8C4F60E9] (AR v2)
Track 3 accurately ripped (confidence 72) [30770FFE] (AR v2)
Track 4 accurately ripped (confidence 71) [42BC4F30] (AR v2)
Track 5 accurately ripped (confidence 72) [68845EF1] (AR v2)
Track 6 accurately ripped (confidence 71) [E2282D95] (AR v2)
Track 7 accurately ripped (confidence 72) [59FB3894] (AR v2)
Track 8 accurately ripped (confidence 72) [FDE969CC] (AR v2)
Track 9 accurately ripped (confidence 71) [284CB526] (AR v2)
Track 10 accurately ripped (confidence 72) [BE6215A6] (AR v2)
Track 11 accurately ripped (confidence 71) [336E38E5] (AR v2)
Track 12 accurately ripped (confidence 72) [B81A4044] (AR v2)
Track 13 accurately ripped (confidence 72) [686A7D9B] (AR v2)
Track 14 accurately ripped (confidence 72) [115C9110] (AR v2)

All tracks accurately ripped

End of status report

–– CUETools DB Plugin V2.1.6

[CTDB TOCID: k75NhBMhTGpQ07YcGSKTKUlgPTw-] found
Submit result: k75NhBMhTGpQ07YcGSKTKUlgPTw- has been confirmed
Track | CTDB Status
1 | (134/136) Accurately ripped
2 | (134/136) Accurately ripped
3 | (134/136) Accurately ripped
4 | (134/136) Accurately ripped
5 | (134/136) Accurately ripped
6 | (134/136) Accurately ripped
7 | (134/136) Accurately ripped
8 | (133/136) Accurately ripped
9 | (133/136) Accurately ripped
10 | (134/136) Accurately ripped
11 | (134/136) Accurately ripped
12 | (134/136) Accurately ripped
13 | (134/136) Accurately ripped
14 | (133/136) Accurately ripped


==== Log checksum A34046DDC8DC19250B43DBAA6E535F092B371DF6073332CE17B8C5A0B92FF4A3 ====

foobar2000 1.2.9 / Dynamic Range Meter 1.1.1
log date: 2015-08-29 19:27:56

––––––––––––––––––––––––––––––––––––––––
Analyzed: John Lennon & Yoko Ono / Double Fantasy
––––––––––––––––––––––––––––––––––––––––

DR Peak RMS Duration Track
––––––––––––––––––––––––––––––––––––––––
DR9 -1.21 dB -12.38 dB 3:57 01-(Just Like) Starting Over
DR12 -0.20 dB -14.36 dB 2:42 02-Kiss Kiss Kiss
DR10 -0.20 dB -12.17 dB 2:59 03-Cleanup Time
DR9 -0.20 dB -11.01 dB 1:35 04-Give Me Something
DR9 -0.20 dB -11.60 dB 3:57 05-I'm Losing You
DR10 -0.21 dB -12.10 dB 2:22 06-I'm Moving On
DR11 -0.20 dB -14.43 dB 4:06 07-Beautiful Boy (Darling Boy)
DR10 -0.20 dB -12.62 dB 4:00 08-Watching The Wheels
DR13 -0.20 dB -16.07 dB 3:09 09-Yes, I'm Your Angel
DR8 -0.20 dB -10.65 dB 3:33 10-Woman
DR10 -0.20 dB -12.56 dB 2:55 11-Beautiful Boys
DR9 -0.20 dB -10.88 dB 2:35 12-Dear Yoko
DR10 -0.20 dB -11.96 dB 4:03 13-Every Man Has A Woman Who Loves Him
DR9 -0.20 dB -11.80 dB 3:19 14-Hard Times Are Over
––––––––––––––––––––––––––––––––––––––––

Number of tracks: 14
Official DR value: DR10

Samplerate: 44100 Hz
Channels: 2
Bits per sample: 16
Bitrate: 862 kbps
Codec: FLAC

[CUETools log; Date: 29.08.2015 12:09:40; Version: 2.1.4]
[CTDB TOCID: k75NhBMhTGpQ07YcGSKTKUlgPTw-] found.
Track | CTDB Status
1 | (135/137) Accurately ripped
2 | (135/137) Accurately ripped
3 | (135/137) Accurately ripped
4 | (135/137) Accurately ripped
5 | (135/137) Accurately ripped
6 | (135/137) Accurately ripped
7 | (135/137) Accurately ripped
8 | (134/137) Accurately ripped
9 | (134/137) Accurately ripped
10 | (135/137) Accurately ripped
11 | (135/137) Accurately ripped
12 | (135/137) Accurately ripped
13 | (135/137) Accurately ripped
14 | (134/137) Accurately ripped
[AccurateRip ID: 0016d52d-00f48766-b50a970e] found.
Track [ CRC | V2 ] Status
01 [eef98edd|60d6ab26] (056+072/295) Accurately ripped
02 [8df4c306|8c4f60e9] (055+071/291) Accurately ripped
03 [cd70af49|30770ffe] (056+072/295) Accurately ripped
04 [ed5c9b71|42bc4f30] (055+071/291) Accurately ripped
05 [311b55ab|68845ef1] (056+072/297) Accurately ripped
06 [d581c892|e2282d95] (055+071/291) Accurately ripped
07 [5c157aef|59fb3894] (056+072/297) Accurately ripped
08 [7a7a3a82|fde969cc] (057+072/297) Accurately ripped
09 [6d37e071|284cb526] (056+071/292) Accurately ripped
10 [fdeac7ef|be6215a6] (057+072/298) Accurately ripped
11 [4c7bad72|336e38e5] (056+071/290) Accurately ripped
12 [2a69e365|b81a4044] (057+072/294) Accurately ripped
13 [3ac4a9d4|686a7d9b] (056+072/291) Accurately ripped
14 [b7cffa98|115c9110] (054+072/289) Accurately ripped
Offsetted by 12:
01 [7abe69cc] (048/295) Accurately ripped
02 [1a8e88de] (046/291) Accurately ripped
03 [34a9874e] (048/295) Accurately ripped
04 [d32ceff3] (046/291) Accurately ripped
05 [414577c3] (049/297) Accurately ripped
06 [dde31972] (046/291) Accurately ripped
07 [1c52137d] (049/297) Accurately ripped
08 [d90513bc] (049/297) Accurately ripped
09 [d9a2a787] (046/292) Accurately ripped
10 [ce0d91f4] (049/298) Accurately ripped
11 [0e2cf3ab] (045/290) Accurately ripped
12 [38c186f2] (048/294) Accurately ripped
13 [70a83cfb] (045/291) Accurately ripped
14 [5fd61576] (046/289) Accurately ripped
Offsetted by 135:
01 [c26a8f3f] (002/295) Accurately ripped
02 [a99678bb] (002/291) Accurately ripped
03 [ebfd5256] (002/295) Accurately ripped
04 [88d5750a] (002/291) Accurately ripped
05 [fa05cd22] (002/297) Accurately ripped
06 [179e15b0] (002/291) Accurately ripped
07 [56cda8af] (002/297) Accurately ripped
08 [8bee91ad] (002/297) Accurately ripped
09 [85a18367] (002/292) Accurately ripped
10 [318a170e] (002/298) Accurately ripped
11 [55f9670e] (002/290) Accurately ripped
12 [45f35fbe] (002/294) Accurately ripped
13 [3f3b63c2] (002/291) Accurately ripped
14 [cc9e67b2] (002/289) Accurately ripped
Offsetted by -664:
01 [81476ebb] (000/295) No match (V2 was not tested)
02 [b900e4be] (000/291) No match (V2 was not tested)
03 [680db12d] (000/295) No match (V2 was not tested)
04 [fee0ab40] (000/291) No match (V2 was not tested)
05 [6dd0b987] (000/297) No match (V2 was not tested)
06 [772c64f1] (000/291) No match (V2 was not tested)
07 [4df1b06f] (000/297) No match (V2 was not tested)
08 [c7e1dcca] (000/297) No match (V2 was not tested)
09 [e71f3b05] (000/292) No match (V2 was not tested)
10 [0c72fe31] (000/298) No match (V2 was not tested)
11 [e2f957ee] (000/290) No match (V2 was not tested)
12 [555ffd0a] (000/294) No match (V2 was not tested)
13 [6344226f] (000/291) No match (V2 was not tested)
14 [2d5ade8f] (000/289) No match (V2 was not tested)
Offsetted by 6:
01 [cb4e7c51] (000/295) No match (V2 was not tested)
02 [57f42885] (000/291) No match (V2 was not tested)
03 [efad851d] (000/295) No match (V2 was not tested)
04 [ede47b30] (000/291) No match (V2 was not tested)
05 [fb238191] (000/297) No match (V2 was not tested)
06 [8f604562] (000/291) No match (V2 was not tested)
07 [bc30c73b] (000/297) No match (V2 was not tested)
08 [86154d46] (000/297) No match (V2 was not tested)
09 [3ae6c2b9] (000/292) No match (V2 was not tested)
10 [634ee405] (000/298) No match (V2 was not tested)
11 [420dbb26] (000/290) No match (V2 was not tested)
12 [b5b8b52a] (000/294) No match (V2 was not tested)
13 [e5afebd7] (000/291) No match (V2 was not tested)
14 [8d83f67d] (000/289) No match (V2 was not tested)

Track Peak [ CRC32 ] [W/O NULL] [ LOG ]
– 97,7 [8AAF0C49] [529923B6] CRC32
01 87,0 [7427F9FC] [4165DA89]
02 97,7 [B8AEA0BE] [6A5B3344]
03 97,7 [D0763AD4] [30630B91]
04 97,7 [ECB8010A] [F5ADE55F]
05 97,6 [9C466D99] [AD22B0DB]
06 97,6 [417CB74F] [12CE8624]
07 97,7 [A4D8B0F5] [29D44747]
08 97,7 [A2E88719] [DAA3EC85]
09 97,7 [71359CD1] [896201AC]
10 97,7 [A7325DF4] [D37D4F84]
11 97,7 [A50809B5] [336531E2]
12 97,7 [3980071A] [A3C15EBF]
13 97,7 [1AD82F9D] [6C8BFD6D]
14 97,7 [101D898C] [E9DFB233]

John Lennon - Signature Box (2010) [11CD Box Set]

Tracklist CD09 - 1984 Milk And Honey:

01 I'm Stepping Out
02 Sleepless Night
03 I Don't Wanna Face It
04 Don't Be Scared
05 Nobody Told Me
06 O' Sanity
07 Borrowed Time
08 Your Hands
09 (Forgive Me) My Little Flower Princess
10 Let Me Count The Ways
11 Grow Old With Me
12 You're The One

Exact Audio Copy V1.1 from 23. June 2015

EAC extraction logfile from 24. August 2015, 19:43

John Lennon & Yoko Ono / Milk And Honey

Used drive : PLEXTOR BD-R PX-B950SA Adapter: 1 ID: 1

Read mode : Secure
Utilize accurate stream : Yes
Defeat audio cache : Yes
Make use of C2 pointers : No

Read offset correction : 6
Overread into Lead-In and Lead-Out : No
Fill up missing offset samples with silence : Yes
Delete leading and trailing silent blocks : No
Null samples used in CRC calculations : Yes
Used interface : Native Win32 interface for Win NT & 2000

Used output format : Internal WAV Routines
Sample format : 44.100 Hz; 16 Bit; Stereo


TOC of the extracted CD

Track | Start | Length | Start sector | End sector
––––––––––––––––––––––––––––-
1 | 0:00.13 | 4:06.58 | 13 | 18520
2 | 4:06.71 | 2:33.44 | 18521 | 30039
3 | 6:40.40 | 3:21.63 | 30040 | 45177
4 | 10:02.28 | 2:44.42 | 45178 | 57519
5 | 12:46.70 | 3:34.21 | 57520 | 73590
6 | 16:21.16 | 1:06.10 | 73591 | 78550
7 | 17:27.26 | 4:29.17 | 78551 | 98742
8 | 21:56.43 | 3:04.04 | 98743 | 112546
9 | 25:00.47 | 2:28.08 | 112547 | 123654
10 | 27:28.55 | 2:16.62 | 123655 | 133916
11 | 29:45.42 | 3:09.22 | 133917 | 148113
12 | 32:54.64 | 3:57.31 | 148114 | 165919


Range status and errors

Selected range

Filename C:\Users\Meijin\Desktop\ALLexxess\John Lennon\2010 Signature Box (11CD Box Set EMI Records)\1984 Milk And Honey\John Lennon & Yoko Ono - Milk And Honey.wav

Peak level 99.3 %
Extraction speed 6.8 X
Range quality 100.0 %
Test CRC 2D3DE7F0
Copy CRC 2D3DE7F0
Copy OK

No errors occurred


AccurateRip summary

Track 1 accurately ripped (confidence 40) [A2E6C908] (AR v2)
Track 2 accurately ripped (confidence 39) [65CA4168] (AR v2)
Track 3 accurately ripped (confidence 40) [066BFC75] (AR v2)
Track 4 accurately ripped (confidence 39) [51464AAD] (AR v2)
Track 5 accurately ripped (confidence 40) [9D4DA960] (AR v2)
Track 6 accurately ripped (confidence 39) [962E47F3] (AR v2)
Track 7 accurately ripped (confidence 40) [FE000F69] (AR v2)
Track 8 accurately ripped (confidence 39) [7ECFE3E4] (AR v2)
Track 9 accurately ripped (confidence 40) [5E09B81F] (AR v2)
Track 10 accurately ripped (confidence 40) [E9038E20] (AR v2)
Track 11 accurately ripped (confidence 39) [FAFFDE48] (AR v2)
Track 12 accurately ripped (confidence 40) [863702A7] (AR v2)

All tracks accurately ripped

End of status report

–– CUETools DB Plugin V2.1.6

[CTDB TOCID: ivadwZZBkNLKWn585roYuHhD3K4-] found
Submit result: ivadwZZBkNLKWn585roYuHhD3K4- has been confirmed
Track | CTDB Status
1 | (30/30) Accurately ripped
2 | (30/30) Accurately ripped
3 | (30/30) Accurately ripped
4 | (30/30) Accurately ripped
5 | (30/30) Accurately ripped
6 | (30/30) Accurately ripped
7 | (29/30) Accurately ripped, or (1/30) differs in 180 samples @03:24:16
8 | (30/30) Accurately ripped
9 | (30/30) Accurately ripped
10 | (30/30) Accurately ripped
11 | (30/30) Accurately ripped
12 | (30/30) Accurately ripped


==== Log checksum 4053589922E00834B3ABB007A9B730D32A9E282CF69968968DB2672905B8A947 ====

foobar2000 1.2.9 / Dynamic Range Meter 1.1.1
log date: 2015-08-29 19:28:18

––––––––––––––––––––––––––––––––––––––––
Analyzed: John Lennon & Yoko Ono / Milk And Honey
––––––––––––––––––––––––––––––––––––––––

DR Peak RMS Duration Track
––––––––––––––––––––––––––––––––––––––––
DR8 -0.05 dB -10.02 dB 4:07 01-I'm Stepping Out
DR11 -0.05 dB -12.53 dB 2:34 02-Sleepless Night
DR9 -0.05 dB -10.49 dB 3:22 03-I Don't Wanna Face It
DR11 -0.05 dB -13.24 dB 2:45 04-Don't Be Scared
DR9 -0.05 dB -10.20 dB 3:34 05-Nobody Told Me
DR10 -0.05 dB -12.07 dB 1:06 06-O' Sanity
DR9 -0.05 dB -11.45 dB 4:29 07-Borrowed Time
DR8 -0.05 dB -9.67 dB 3:04 08-Your Hands
DR10 -0.05 dB -11.30 dB 2:28 09-(Forgive Me) My Little Flower Princess
DR11 -0.05 dB -16.51 dB 2:17 10-Let Me Count The Ways
DR10 -0.05 dB -11.94 dB 3:09 11-Grow Old With Me
DR10 -0.05 dB -12.13 dB 3:57 12-You're The One
––––––––––––––––––––––––––––––––––––––––

Number of tracks: 12
Official DR value: DR10

Samplerate: 44100 Hz
Channels: 2
Bits per sample: 16
Bitrate: 883 kbps
Codec: FLAC

[CUETools log; Date: 29.08.2015 19:46:58; Version: 2.1.4]
Pregap length 00:00:13.
[CTDB TOCID: ivadwZZBkNLKWn585roYuHhD3K4-] found.
Track | CTDB Status
1 | (32/32) Accurately ripped
2 | (32/32) Accurately ripped
3 | (32/32) Accurately ripped
4 | (32/32) Accurately ripped
5 | (32/32) Accurately ripped
6 | (32/32) Accurately ripped
7 | (31/32) Accurately ripped, or (1/32) differs in 180 samples @03:24:16
8 | (32/32) Accurately ripped
9 | (32/32) Accurately ripped
10 | (32/32) Accurately ripped
11 | (32/32) Accurately ripped
12 | (32/32) Accurately ripped
[AccurateRip ID: 00109366-00991a3a-a608a40c] found.
Track [ CRC | V2 ] Status
01 [c6915bea|a2e6c908] (033+040/168) Accurately ripped
02 [d60b48a2|65ca4168] (032+039/165) Accurately ripped
03 [08f51bad|066bfc75] (033+040/167) Accurately ripped
04 [c7d3e9b5|51464aad] (032+039/164) Accurately ripped
05 [f1811750|9d4da960] (032+040/166) Accurately ripped
06 [333b638b|962e47f3] (032+039/164) Accurately ripped
07 [180e8384|fe000f69] (033+040/168) Accurately ripped
08 [abd568d6|7ecfe3e4] (032+039/164) Accurately ripped
09 [eaa17d0d|5e09b81f] (033+040/167) Accurately ripped
10 [16045421|e9038e20] (032+040/165) Accurately ripped
11 [8051ac75|faffde48] (032+039/165) Accurately ripped
12 [1486674b|863702a7] (031+040/163) Accurately ripped
Offsetted by 6:
01 [2099f865] (030/168) Accurately ripped
02 [ab56300b] (029/165) Accurately ripped
03 [18133ee7] (030/167) Accurately ripped
04 [8bba4105] (029/164) Accurately ripped
05 [558968c8] (030/166) Accurately ripped
06 [336f5b55] (029/164) Accurately ripped
07 [5af08468] (030/168) Accurately ripped
08 [db3bee5f] (029/164) Accurately ripped
09 [7844afba] (030/167) Accurately ripped
10 [12011b67] (029/165) Accurately ripped
11 [2ca5957d] (030/165) Accurately ripped
12 [1432c343] (029/163) Accurately ripped
Offsetted by 129:
01 [1d1e6a50] (003/168) Accurately ripped
02 [49b4aa32] (003/165) Accurately ripped
03 [cdfd110c] (003/167) Accurately ripped
04 [3bac3eed] (003/164) Accurately ripped
05 [5833eee4] (003/166) Accurately ripped
06 [3798b302] (003/164) Accurately ripped
07 [b60996aa] (003/168) Accurately ripped
08 [964ffee1] (003/164) Accurately ripped
09 [84db146b] (003/167) Accurately ripped
10 [b779ceb0] (003/165) Accurately ripped
11 [b25f7c1f] (003/165) Accurately ripped
12 [8d80209f] (003/163) Accurately ripped
Offsetted by -664:
01 [a179faaf] (000/168) No match (V2 was not tested)
02 [74c62817] (000/165) No match (V2 was not tested)
03 [8eeaf177] (000/167) No match (V2 was not tested)
04 [06a28075] (000/164) No match (V2 was not tested)
05 [b37edf70] (000/166) No match (V2 was not tested)
06 [72199ae3] (000/164) No match (V2 was not tested)
07 [d90620f4] (000/168) No match (V2 was not tested)
08 [2f9d4ad9] (000/164) No match (V2 was not tested)
09 [4f093312] (000/167) No match (V2 was not tested)
10 [a1d52236] (000/165) No match (V2 was not tested)
11 [5c5183c0] (000/165) No match (V2 was not tested)
12 [38aea56b] (000/163) No match (V2 was not tested)
Offsetted by -24:
01 [d98f4bc1] (000/168) No match (V2 was not tested)
02 [7ec0affb] (000/165) No match (V2 was not tested)
03 [cc7c8ec5] (000/167) No match (V2 was not tested)
04 [b83a8c75] (000/164) No match (V2 was not tested)
05 [615fd170] (000/166) No match (V2 was not tested)
06 [326b8463] (000/164) No match (V2 was not tested)
07 [0c867ff4] (000/168) No match (V2 was not tested)
08 [6699ee0f] (000/164) No match (V2 was not tested)
09 [5dc5799c] (000/167) No match (V2 was not tested)
10 [072b4ea2] (000/165) No match (V2 was not tested)
11 [f26a144c] (000/165) No match (V2 was not tested)
12 [15d4f76b] (000/163) No match (V2 was not tested)

Track Peak [ CRC32 ] [W/O NULL] [ LOG ]
– 99,3 [2D3DE7F0] [6F81EEA8] CRC32
01 99,3 [A9529061] [206EC6FE]
02 99,3 [E9C035BF] [76A32479]
03 99,3 [E94DC416] [887EA0DE]
04 99,3 [6877E2E4] [7B1E6713]
05 99,3 [F8033E0C] [056DCFFF]
06 99,3 [535E3760] [F9E99841]
07 99,3 [81BE4308] [23E7E45B]
08 99,3 [096449B8] [322A84A9]
09 99,3 [B15FE12F] [5C1E3D22]
10 99,3 [8A06B558] [7440B07F]
11 99,3 [CED149D9] [10CDA956]
12 99,3 [EB285914] [4B1E351D]

John Lennon - Signature Box (2010) [11CD Box Set]

Tracklist CD10 - 2010 Bonus Discs Singles & Home Tapes CD1 - Singles:

01 Power To The People
02 Happy Xmas (War Is Over)
03 Instant Karma! (We All Shine On)
04 Cold Turkey (Single Version)
05 Move Over Ms L
06 Give Peace A Chance

Exact Audio Copy V1.1 from 23. June 2015

EAC extraction logfile from 24. August 2015, 19:07

John Lennon / Bonus Disc CD1 Singles

Used drive : PLEXTOR BD-R PX-B950SA Adapter: 1 ID: 1

Read mode : Secure
Utilize accurate stream : Yes
Defeat audio cache : Yes
Make use of C2 pointers : No

Read offset correction : 6
Overread into Lead-In and Lead-Out : No
Fill up missing offset samples with silence : Yes
Delete leading and trailing silent blocks : No
Null samples used in CRC calculations : Yes
Used interface : Native Win32 interface for Win NT & 2000

Used output format : Internal WAV Routines
Sample format : 44.100 Hz; 16 Bit; Stereo


TOC of the extracted CD

Track | Start | Length | Start sector | End sector
––––––––––––––––––––––––––––-
1 | 0:00.00 | 3:24.39 | 0 | 15338
2 | 3:24.39 | 3:34.25 | 15339 | 31413
3 | 6:58.64 | 3:20.49 | 31414 | 46462
4 | 10:19.38 | 5:02.54 | 46463 | 69166
5 | 15:22.17 | 2:57.74 | 69167 | 82515
6 | 18:20.16 | 4:54.51 | 82516 | 104616


Range status and errors

Selected range

Filename C:\Users\Meijin\Desktop\ALLexxess\John Lennon\2010 Signature Box (11CD Box Set EMI Records)\2010 Bonus Discs\CD1 Singles\John Lennon - Bonus Disc CD1 Singles.wav

Peak level 99.8 %
Extraction speed 2.8 X
Range quality 100.0 %
Test CRC EB1E70A7
Copy CRC EB1E70A7
Copy OK

No errors occurred


AccurateRip summary

Track 1 accurately ripped (confidence 34) [6B2D3BA2] (AR v2)
Track 2 accurately ripped (confidence 34) [90ED6954] (AR v2)
Track 3 accurately ripped (confidence 34) [DAEF3FDB] (AR v2)
Track 4 accurately ripped (confidence 34) [A93D801A] (AR v2)
Track 5 accurately ripped (confidence 34) [0A356EF2] (AR v2)
Track 6 accurately ripped (confidence 34) [93E9E224] (AR v2)

All tracks accurately ripped

End of status report

–– CUETools DB Plugin V2.1.6

[CTDB TOCID: ySExLCTsVH9dCpx0o3E_mCJlZvI-] found
Submit result: ySExLCTsVH9dCpx0o3E_mCJlZvI- has been confirmed
Track | CTDB Status
1 | (62/63) Accurately ripped
2 | (62/63) Accurately ripped
3 | (61/63) Accurately ripped
4 | (61/63) Accurately ripped
5 | (60/63) Accurately ripped
6 | (60/63) Accurately ripped


==== Log checksum E704C6370F7917DD07D56C58543180EC58FAF8B7EE1B178C1B0CA4BED69CED2D ====

foobar2000 1.2.9 / Dynamic Range Meter 1.1.1
log date: 2015-08-29 19:28:30

––––––––––––––––––––––––––––––––––––––––
Analyzed: John Lennon / Bonus Disc CD1 Singles
––––––––––––––––––––––––––––––––––––––––

DR Peak RMS Duration Track
––––––––––––––––––––––––––––––––––––––––
DR10 -0.18 dB -12.20 dB 3:25 01-Power To The People
DR11 -0.24 dB -14.02 dB 3:34 02-Happy Xmas (War Is Over)
DR11 -0.01 dB -13.79 dB 3:21 03-Instant Karma! (We All Shine On)
DR11 -0.14 dB -12.94 dB 5:03 04-Cold Turkey (Single Version)
DR10 -0.16 dB -11.88 dB 2:58 05-Move Over Ms L
DR12 -0.18 dB -14.24 dB 4:55 06-Give Peace A Chance
––––––––––––––––––––––––––––––––––––––––

Number of tracks: 6
Official DR value: DR11

Samplerate: 44100 Hz
Channels: 2
Bits per sample: 16
Bitrate: 878 kbps
Codec: FLAC

[CUETools log; Date: 29.08.2015 12:13:52; Version: 2.1.4]
[CTDB TOCID: ySExLCTsVH9dCpx0o3E_mCJlZvI-] found.
Track | CTDB Status
1 | (63/64) Accurately ripped
2 | (63/64) Accurately ripped
3 | (62/64) Accurately ripped
4 | (62/64) Accurately ripped
5 | (61/64) Accurately ripped
6 | (61/64) Accurately ripped
[AccurateRip ID: 0005554c-001cbf77-2c057206] found.
Track [ CRC | V2 ] Status
01 [e4d0fd8c|6b2d3ba2] (033+034/138) Accurately ripped
02 [cdb38d1b|90ed6954] (033+034/138) Accurately ripped
03 [31c88cb9|daef3fdb] (033+034/137) Accurately ripped
04 [f02b35ba|a93d801a] (033+034/137) Accurately ripped
05 [d0c71465|0a356ef2] (033+034/138) Accurately ripped
06 [3beb2610|93e9e224] (033+034/138) Accurately ripped
Offsetted by 6:
01 [640a7795] (022/138) Accurately ripped
02 [304688ef] (022/138) Accurately ripped
03 [55df1bef] (022/137) Accurately ripped
04 [24edfc67] (022/137) Accurately ripped
05 [f59a3267] (022/138) Accurately ripped
06 [97e7d290] (022/138) Accurately ripped
Offsetted by 129:
01 [29212b90] (003/138) Accurately ripped
02 [a890f703] (003/138) Accurately ripped
03 [3b7feb10] (003/137) Accurately ripped
04 [00a97ae4] (003/137) Accurately ripped
05 [2e469323] (003/138) Accurately ripped
06 [770615c6] (003/138) Accurately ripped
Offsetted by -24:
01 [0f9232ec] (000/138) No match (V2 was not tested)
02 [f90c1d96] (000/138) No match (V2 was not tested)
03 [ad8d6039] (000/137) No match (V2 was not tested)
04 [e3323f75] (000/137) No match (V2 was not tested)
05 [8bcf131c] (000/138) No match (V2 was not tested)
06 [cc6f72cf] (000/138) No match (V2 was not tested)

Track Peak [ CRC32 ] [W/O NULL] [ LOG ]
– 99,8 [EB1E70A7] [D7C3815B] CRC32
01 97,9 [1E4B9041] [2EF21DDC]
02 97,2 [73EA888B] [61BEABAA]
03 99,8 [D7E69948] [75244357]
04 98,4 [3CE143D2] [61C14D53]
05 98,2 [F35C735A] [D180642A]
06 97,9 [1059B283] [4CEDC706]

Tracklist CD11 - 2010 Bonus Discs Singles & Home Tapes CD2 - Home Tapes:

01 Mother
02 Love
03 God
04 I Found Out
05 Nobody Told Me
06 Honey Don't
07 One Of The Boys
08 India, India
09 Serve Yourself
10 Isolation
11 Remember
12 Beautiful Boy (Darling Boy)
13 I Don't Wanna Be A Soldier Mama I Don't Wanna Die

Exact Audio Copy V1.1 from 23. June 2015

EAC extraction logfile from 24. August 2015, 16:43

John Lennon / Bonus Disc CD2 Home Tapes

Used drive : PLEXTOR BD-R PX-B950SA Adapter: 1 ID: 1

Read mode : Secure
Utilize accurate stream : Yes
Defeat audio cache : Yes
Make use of C2 pointers : No

Read offset correction : 6
Overread into Lead-In and Lead-Out : No
Fill up missing offset samples with silence : Yes
Delete leading and trailing silent blocks : No
Null samples used in CRC calculations : Yes
Used interface : Native Win32 interface for Win NT & 2000

Used output format : Internal WAV Routines
Sample format : 44.100 Hz; 16 Bit; Stereo


TOC of the extracted CD

Track | Start | Length | Start sector | End sector
––––––––––––––––––––––––––––-
1 | 0:00.00 | 4:24.74 | 0 | 19873
2 | 4:24.74 | 2:38.52 | 19874 | 31775
3 | 7:03.51 | 4:34.44 | 31776 | 52369
4 | 11:38.20 | 4:34.05 | 52370 | 72924
5 | 16:12.25 | 3:13.01 | 72925 | 87400
6 | 19:25.26 | 1:39.59 | 87401 | 94884
7 | 21:05.10 | 2:38.50 | 94885 | 106784
8 | 23:43.60 | 3:06.41 | 106785 | 120775
9 | 26:50.26 | 5:20.39 | 120776 | 144814
10 | 32:10.65 | 3:06.58 | 144815 | 158822
11 | 35:17.48 | 5:28.37 | 158823 | 183459
12 | 40:46.10 | 4:10.67 | 183460 | 202276
13 | 44:57.02 | 3:25.50 | 202277 | 217701


Range status and errors

Selected range

Filename C:\Users\Meijin\Desktop\ALLexxess\John Lennon\2010 Signature Box (11CD Box Set EMI Records)\2010 Bonus Discs\CD2 Home Tapes\John Lennon - Bonus Disc CD2 Home Tapes.wav

Peak level 98.9 %
Extraction speed 3.2 X
Range quality 99.9 %
Test CRC 1D7A5C49
Copy CRC 1D7A5C49
Copy OK

No errors occurred


AccurateRip summary

Track 1 accurately ripped (confidence 32) [41F07180] (AR v2)
Track 2 accurately ripped (confidence 32) [1D2CC914] (AR v2)
Track 3 accurately ripped (confidence 32) [6AFE07CC] (AR v2)
Track 4 accurately ripped (confidence 32) [BD720BB8] (AR v2)
Track 5 accurately ripped (confidence 32) [BC37B3A1] (AR v2)
Track 6 accurately ripped (confidence 32) [6881E375] (AR v2)
Track 7 accurately ripped (confidence 32) [1913E3E0] (AR v2)
Track 8 accurately ripped (confidence 32) [410B214D] (AR v2)
Track 9 accurately ripped (confidence 32) [94137773] (AR v2)
Track 10 accurately ripped (confidence 33) [C60C69BB] (AR v2)
Track 11 accurately ripped (confidence 33) [97B47E7E] (AR v2)
Track 12 accurately ripped (confidence 33) [1A55104B] (AR v2)
Track 13 accurately ripped (confidence 33) [1E770707] (AR v2)

All tracks accurately ripped

End of status report

–– CUETools DB Plugin V2.1.6

[CTDB TOCID: xoKzdbItaNQY4yY85H6XsHjglH0-] found
Submit result: xoKzdbItaNQY4yY85H6XsHjglH0- has been confirmed
Track | CTDB Status
1 | (57/57) Accurately ripped
2 | (57/57) Accurately ripped
3 | (57/57) Accurately ripped
4 | (57/57) Accurately ripped
5 | (56/57) Accurately ripped
6 | (57/57) Accurately ripped
7 | (57/57) Accurately ripped
8 | (57/57) Accurately ripped
9 | (57/57) Accurately ripped
10 | (56/57) Accurately ripped
11 | (56/57) Accurately ripped
12 | (56/57) Accurately ripped
13 | (57/57) Accurately ripped


==== Log checksum BF8F9C55B52625F92651F2E3FD91124620BA1FAFEEBE98760E314437568E1C5E ====

foobar2000 1.2.9 / Dynamic Range Meter 1.1.1
log date: 2015-08-29 19:28:47

––––––––––––––––––––––––––––––––––––––––
Analyzed: John Lennon / Bonus Disc CD2 Home Tapes
––––––––––––––––––––––––––––––––––––––––

DR Peak RMS Duration Track
––––––––––––––––––––––––––––––––––––––––
DR12 -0.15 dB -14.66 dB 4:25 01-Mother
DR12 -2.48 dB -17.71 dB 2:39 02-Love
DR13 -0.10 dB -16.62 dB 4:35 03-God
DR12 -0.16 dB -13.54 dB 4:34 04-I Found Out
DR16 -0.18 dB -17.59 dB 3:13 05-Nobody Told Me
DR14 -0.14 dB -15.42 dB 1:40 06-Honey Don't
DR11 -5.14 dB -17.81 dB 2:39 07-One Of The Boys
DR13 -3.61 dB -18.37 dB 3:07 08-India, India
DR10 -0.10 dB -12.13 dB 5:21 09-Serve Yourself
DR12 -4.08 dB -20.51 dB 3:07 10-Isolation
DR13 -1.77 dB -18.69 dB 5:28 11-Remember
DR13 -0.17 dB -16.72 dB 4:11 12-Beautiful Boy (Darling Boy)
DR13 -0.13 dB -15.93 dB 3:26 13-I Don't Wanna Be A Soldier Mama I Don't Wanna Die
––––––––––––––––––––––––––––––––––––––––

Number of tracks: 13
Official DR value: DR13

Samplerate: 44100 Hz
Channels: 2
Bits per sample: 16
Bitrate: 714 kbps
Codec: FLAC

[CUETools log; Date: 29.08.2015 12:15:59; Version: 2.1.4]
[CTDB TOCID: xoKzdbItaNQY4yY85H6XsHjglH0-] found.
Track | CTDB Status
1 | (58/58) Accurately ripped
2 | (58/58) Accurately ripped
3 | (58/58) Accurately ripped
4 | (58/58) Accurately ripped
5 | (57/58) Accurately ripped
6 | (58/58) Accurately ripped
7 | (58/58) Accurately ripped
8 | (58/58) Accurately ripped
9 | (58/58) Accurately ripped
10 | (57/58) Accurately ripped
11 | (57/58) Accurately ripped
12 | (57/58) Accurately ripped
13 | (58/58) Accurately ripped
[AccurateRip ID: 0016cb6d-00e38eaf-b30b560d] found.
Track [ CRC | V2 ] Status
01 [7b10384e|41f07180] (031+032/129) Accurately ripped
02 [0df6df57|1d2cc914] (031+032/130) Accurately ripped
03 [4f863ed7|6afe07cc] (031+032/129) Accurately ripped
04 [cdd40785|bd720bb8] (031+032/130) Accurately ripped
05 [fd1ebb1e|bc37b3a1] (031+032/130) Accurately ripped
06 [378523ff|6881e375] (031+032/130) Accurately ripped
07 [2bf031cc|1913e3e0] (031+032/130) Accurately ripped
08 [e3f8098c|410b214d] (031+032/131) Accurately ripped
09 [48f4d6b3|94137773] (031+032/130) Accurately ripped
10 [db8bdbef|c60c69bb] (031+033/131) Accurately ripped
11 [513c7c46|97b47e7e] (031+033/132) Accurately ripped
12 [6806a187|1a55104b] (031+033/133) Accurately ripped
13 [8529baef|1e770707] (031+033/131) Accurately ripped
Offsetted by 6:
01 [bfb90a24] (020/129) Accurately ripped
02 [265d12ed] (020/130) Accurately ripped
03 [3a1b24f7] (020/129) Accurately ripped
04 [af6f3d9b] (020/130) Accurately ripped
05 [a4aefa08] (020/130) Accurately ripped
06 [1fbca709] (020/130) Accurately ripped
07 [1ff889fc] (020/130) Accurately ripped
08 [b45718b0] (020/131) Accurately ripped
09 [7755c725] (020/130) Accurately ripped
10 [f76b6da2] (020/131) Accurately ripped
11 [76e7589d] (020/132) Accurately ripped
12 [90ae8f8b] (020/133) Accurately ripped
13 [1b666981] (020/131) Accurately ripped
Offsetted by 129:
01 [bf3dd7c7] (003/129) Accurately ripped
02 [1a8c3470] (003/130) Accurately ripped
03 [83079287] (003/129) Accurately ripped
04 [405d125e] (003/130) Accurately ripped
05 [8fbc03c5] (003/130) Accurately ripped
06 [382ea556] (003/130) Accurately ripped
07 [aaa399d4] (003/130) Accurately ripped
08 [63f3cf12] (003/131) Accurately ripped
09 [2e190846] (003/130) Accurately ripped
10 [86288d71] (003/131) Accurately ripped
11 [1b756686] (003/132) Accurately ripped
12 [7fb74bf0] (003/133) Accurately ripped
13 [a3426432] (003/131) Accurately ripped
Offsetted by -24:
01 [686cf0f6] (000/129) No match (V2 was not tested)
02 [ac5e10ff] (000/130) No match (V2 was not tested)
03 [a532a657] (000/129) No match (V2 was not tested)
04 [47672f2d] (000/130) No match (V2 was not tested)
05 [5eddbf76] (000/130) No match (V2 was not tested)
06 [96a717d7] (000/130) No match (V2 was not tested)
07 [5bced10c] (000/130) No match (V2 was not tested)
08 [a27bccfc] (000/131) No match (V2 was not tested)
09 [8f7114eb] (000/130) No match (V2 was not tested)
10 [e8f0ea41] (000/131) No match (V2 was not tested)
11 [77346147] (000/132) No match (V2 was not tested)
12 [c3b6e844] (000/133) No match (V2 was not tested)
13 [2c3700a7] (000/131) No match (V2 was not tested)

Track Peak [ CRC32 ] [W/O NULL] [ LOG ]
– 98,9 [1D7A5C49] [7277B8CA] CRC32
01 98,2 [6BBDFA37] [5CB69792]
02 75,2 [0733C9A5] [65F0DBF8]
03 98,8 [D6C733BA] [A026FCEC]
04 98,2 [3FCF19DE] [C9529F01]
05 98,0 [1A490315] [F4DD7BF0]
06 98,4 [0DA41391] [F1E9E61D]
07 55,3 [72E03D65] [21FDFC06]
08 65,9 [132F31B1] [06B6BED8]
09 98,9 [3DEFAFB9] [26A8178C]
10 62,5 [A547B0C5] [503C038F]
11 81,5 [6977763D] [4CA7803E]
12 98,0 [3332189B] [BC31E512]
13 98,4 [759276D2] [2FCDA998]

* * *

All thanks go to ALLexxess

John Lennon in my Blog

Download John Lennon - Signature Box (2010):