Tags
Language
Tags

Jon Hassell and Bluescreen - Dressing for Pleasure (1994)

Posted By: Designol
Jon Hassell and Bluescreen - Dressing for Pleasure (1994)

Jon Hassell and Bluescreen - Dressing for Pleasure (1994)
EAC | FLAC | Tracks (Cue&Log) ~ 370 Mb | Mp3 (CBR320) ~ 177 Mb
Label: Warner Bros. | # 9362-45523-2 | Time: 01:00:53 | Scans included
Experimental Electronic, Future Jazz, Acid Jazz, Trip-Hop

Two of the most memorable albums from the trip-hop and acid jazz era are by cornettist Graham Haynes (Transition) and trumpeter Ben Neill (Goldbug). Dressing for Pleasure preceeded them both. Usually, an adjective like "suave" doesn't sit easily on an ethnomusicologist whose knack for directness is grounded by his sense of beauty; neither does a label like "acid jazz." But this is Hassell's only album to fit its musical moment, following his appearance on the soundtrack of the crime film Trespass. The feel of a fully committed band is especially amazing – Hassell and drummer Brain work with an army of bassists (six, including Flea of the Red Hot Chili Peppers) and enough programmers (three) to field a dot com startup on a coffee break. Hassell's horn flits through a sexy blend of trip-hop's hard drum programs topped with soft, impassive electronic textures like a bird circling over a crowded intersection. Woodwind player Kenny Garrett and guitarist Gregg Arreguin provide thematic voices, too, but melody is rarely enough in this genre. As always, the real fun lies in how these instruments are broken up by the programmers, led by Jamie Muhoberec, a Hassell associate on Trespass and Fascinoma. Their work helps a trumpet melody, suave enough for Herb Alpert, sound like that artist playing through the blades of an electric fan. The sample of Duke Ellington's "Bakliff," laminated into "Destination: Bakliff"'s rhythms, prefigures the jazz covers on Fascinoma. And when that horn moans from between a camera shutter and Leslie Winn's coo-oohing in the sultry "Sex Goddess." Dressing for Pleasure is all that – an ethnomusicologist suavely dipping into a trip-hop trust fund. Old Morcheeba fans should duck into pawn shops to hunt for a copy.

Review by John Young, Allmusic.com

Jon Hassell and Bluescreen - Dressing for Pleasure (1994)



Tracklist:

01. G-Spot (05:04)
02. Villa Narco (04:33)
03. Kolo X (03:50)
04. Personals (04:14)
05. Club Zombie (03:30)
06. Zeitgeist (03:53)
07. Steppin' Thru Time (04:02)
08. Destination: Bakiff (04:17)
09. Sex Goddess (04:32)
10. Buzzword (04:32)
11. The Gods, They Must Be Crazy (05:43)
12. Mati (04:24)
13. Blue Night (07:45)


Exact Audio Copy V0.99 prebeta 4 from 23. January 2008

EAC extraction logfile from 31. July 2008, 21:29

Jon Hassell and Bluescreen / Dressing for Pleasure

Used drive : PLEXTOR DVDR PX-760A Adapter: 4 ID: 0

Read mode : Secure
Utilize accurate stream : Yes
Defeat audio cache : Yes
Make use of C2 pointers : No

Read offset correction : 30
Overread into Lead-In and Lead-Out : No
Fill up missing offset samples with silence : Yes
Delete leading and trailing silent blocks : No
Null samples used in CRC calculations : Yes
Used interface : Native Win32 interface for Win NT & 2000
Gap handling : Appended to previous track

Used output format : User Defined Encoder
Selected bitrate : 128 kBit/s
Quality : High
Add ID3 tag : No
Command line compressor : C:\Program Files\FLAC\flac.exe
Additional command line options : -8 -V -T "ARTIST=%a" -T "TITLE=%t" -T "ALBUM=%g" -T "DATE=%y" -T "TRACKNUMBER=%n" -T "GENRE=%m" -T "COMMENT=EAC FLAC -8" %s


TOC of the extracted CD

Track | Start | Length | Start sector | End sector
––––––––––––––––––––––––––––-
1 | 0:00.32 | 5:05.20 | 32 | 22926
2 | 5:05.52 | 4:33.35 | 22927 | 43436
3 | 9:39.12 | 3:50.73 | 43437 | 60759
4 | 13:30.10 | 4:15.05 | 60760 | 79889
5 | 17:45.15 | 3:30.60 | 79890 | 95699
6 | 21:16.00 | 3:56.45 | 95700 | 113444
7 | 25:12.45 | 4:05.50 | 113445 | 131869
8 | 29:18.20 | 4:18.42 | 131870 | 151261
9 | 33:36.62 | 4:32.58 | 151262 | 171719
10 | 38:09.45 | 4:34.52 | 171720 | 192321
11 | 42:44.22 | 5:45.08 | 192322 | 218204
12 | 48:29.30 | 4:38.60 | 218205 | 239114
13 | 53:08.15 | 7:45.05 | 239115 | 273994


Track 1

Filename H:\Jon Hassell and Bluescreen - Dressing for Pleasure\01 - G-Spot.wav

Pre-gap length 0:00:02.32

Peak level 98.8 %
Track quality 100.0 %
Test CRC 137DDE58
Copy CRC 137DDE58
Track not present in AccurateRip database
Copy OK

Track 2

Filename H:\Jon Hassell and Bluescreen - Dressing for Pleasure\02 - Villa Narco.wav

Pre-gap length 0:00:00.45

Peak level 99.5 %
Track quality 100.0 %
Test CRC A2E851E1
Copy CRC A2E851E1
Track not present in AccurateRip database
Copy OK

Track 3

Filename H:\Jon Hassell and Bluescreen - Dressing for Pleasure\03 - Kolo X.wav

Pre-gap length 0:00:00.30

Peak level 99.6 %
Track quality 100.0 %
Test CRC 389CA22B
Copy CRC 389CA22B
Track not present in AccurateRip database
Copy OK

Track 4

Filename H:\Jon Hassell and Bluescreen - Dressing for Pleasure\04 - Personals.wav

Pre-gap length 0:00:00.71

Peak level 99.7 %
Track quality 100.0 %
Test CRC CBC490F0
Copy CRC CBC490F0
Track not present in AccurateRip database
Copy OK

Track 5

Filename H:\Jon Hassell and Bluescreen - Dressing for Pleasure\05 - Club Zombie.wav

Pre-gap length 0:00:00.56

Peak level 98.6 %
Track quality 100.0 %
Test CRC C5C9C218
Copy CRC C5C9C218
Track not present in AccurateRip database
Copy OK

Track 6

Filename H:\Jon Hassell and Bluescreen - Dressing for Pleasure\06 - Zeitgeist.wav

Pre-gap length 0:00:00.08

Peak level 99.2 %
Track quality 100.0 %
Test CRC EF22F93B
Copy CRC EF22F93B
Track not present in AccurateRip database
Copy OK

Track 7

Filename H:\Jon Hassell and Bluescreen - Dressing for Pleasure\07 - Steppin' Thru Time.wav

Pre-gap length 0:00:03.11

Peak level 98.7 %
Track quality 100.0 %
Test CRC 90ACFD9E
Copy CRC 90ACFD9E
Track not present in AccurateRip database
Copy OK

Track 8

Filename H:\Jon Hassell and Bluescreen - Dressing for Pleasure\08 - Destination- Bakiff.wav

Pre-gap length 0:00:02.71

Peak level 98.8 %
Track quality 100.0 %
Test CRC 4B3E02D7
Copy CRC 4B3E02D7
Track not present in AccurateRip database
Copy OK

Track 9

Filename H:\Jon Hassell and Bluescreen - Dressing for Pleasure\09 - Sex Goddess.wav

Pre-gap length 0:00:01.03

Peak level 99.0 %
Track quality 100.0 %
Test CRC 8C8389CA
Copy CRC 8C8389CA
Track not present in AccurateRip database
Copy OK

Track 10

Filename H:\Jon Hassell and Bluescreen - Dressing for Pleasure\10 - Buzzword.wav

Pre-gap length 0:00:00.06

Peak level 80.5 %
Track quality 100.0 %
Test CRC 17DEE46E
Copy CRC 17DEE46E
Track not present in AccurateRip database
Copy OK

Track 11

Filename H:\Jon Hassell and Bluescreen - Dressing for Pleasure\11 - The Gods, They Must Be Crazy.wav

Pre-gap length 0:00:02.05

Peak level 99.0 %
Track quality 100.0 %
Test CRC 6B52FB12
Copy CRC 6B52FB12
Track not present in AccurateRip database
Copy OK

Track 12

Filename H:\Jon Hassell and Bluescreen - Dressing for Pleasure\12 - Mati.wav

Pre-gap length 0:00:01.16

Peak level 98.9 %
Track quality 100.0 %
Test CRC 3E3570FC
Copy CRC 3E3570FC
Track not present in AccurateRip database
Copy OK

Track 13

Filename H:\Jon Hassell and Bluescreen - Dressing for Pleasure\13 - Blue Night.wav

Pre-gap length 0:00:14.23

Peak level 98.7 %
Track quality 100.0 %
Test CRC E932FFCB
Copy CRC E932FFCB
Track not present in AccurateRip database
Copy OK


None of the tracks are present in the AccurateRip database

No errors occurred

End of status report

[CUETools log; Date: 28.07.2015 16:29:33; Version: 2.1.4]
Pregap length 00:00:32.
[CTDB TOCID: D3Y3WTwrI066J.esA7IbxTbgQxI-] found.
Track | CTDB Status
1 | (3/3) Accurately ripped
2 | (3/3) Accurately ripped
3 | (3/3) Accurately ripped
4 | (3/3) Accurately ripped
5 | (3/3) Accurately ripped
6 | (3/3) Accurately ripped
7 | (3/3) Accurately ripped
8 | (3/3) Accurately ripped
9 | (3/3) Accurately ripped
10 | (3/3) Accurately ripped
11 | (3/3) Accurately ripped
12 | (3/3) Accurately ripped
13 | (3/3) Accurately ripped
[AccurateRip ID: 001b6278-0112a463-a40e450d] found.
Track [ CRC | V2 ] Status
01 [b359c178|ce263964] (13+10/27) Accurately ripped
02 [9bdc7ac7|2acb4a72] (13+10/27) Accurately ripped
03 [fbcc453e|08abd68d] (13+10/27) Accurately ripped
04 [a153a182|a9a7a6c1] (13+10/27) Accurately ripped
05 [051f3d48|a2e672b5] (13+10/27) Accurately ripped
06 [fbc36aef|5357d03d] (13+10/27) Accurately ripped
07 [7a0df7eb|b1ee6d3f] (13+10/27) Accurately ripped
08 [f44f6fa3|676b7ecf] (13+10/27) Accurately ripped
09 [573edcf8|1fdf812d] (12+10/25) Accurately ripped
10 [7276751f|ae57c4b3] (13+10/27) Accurately ripped
11 [baf1e6e5|0567fd3a] (13+10/27) Accurately ripped
12 [2d1da1eb|ab135126] (12+10/26) Accurately ripped
13 [09cec30a|a3de0b2f] (02+00/23) Accurately ripped
Offsetted by -2048:
01 [dc59b978] (00/27) No match
02 [9bdc7ac7] (13/27) Accurately ripped
03 [33cc453e] (00/27) No match
04 [f953a182] (00/27) No match
05 [751f3d48] (00/27) No match
06 [93c35aef] (00/27) No match
07 [da0df7eb] (00/27) No match
08 [1c4f7fa3] (00/27) No match
09 [273edcf8] (00/25) No match
10 [3a76751f] (00/27) No match
11 [72f1e6e5] (00/27) No match
12 [bd1da1eb] (00/26) No match
13 [95f2928c] (00/23) No match
Offsetted by -1989:
01 [c24b59b3] (00/27) No match
02 [951c7ac7] (04/27) Accurately ripped
03 [6c0f453e] (00/27) No match
04 [ce8aa182] (00/27) No match
05 [bca53d48] (00/27) No match
06 [ffa25b65] (00/27) No match
07 [e569f7eb] (00/27) No match
08 [be487f2d] (00/27) No match
09 [dac0dcf8] (00/25) No match
10 [0d33751f] (00/27) No match
11 [0504e6e5] (00/27) No match
12 [5957a1eb] (00/26) No match
13 [598b1dd3] (00/23) No match
Offsetted by -1024:
01 [47d9bd78] (00/27) No match
02 [9bdc7ac7] (13/27) Accurately ripped
03 [97cc453e] (00/27) No match
04 [cd53a182] (00/27) No match
05 [3d1f3d48] (00/27) No match
06 [47c362ef] (00/27) No match
07 [2a0df7eb] (00/27) No match
08 [884f77a3] (00/27) No match
09 [bf3edcf8] (00/25) No match
10 [d676751f] (00/27) No match
11 [96f1e6e5] (00/27) No match
12 [f51da1eb] (00/26) No match
13 [a1bc5b0a] (00/23) No match
Offsetted by -965:
01 [2dcb5db3] (00/27) No match
02 [951c7ac7] (04/27) Accurately ripped
03 [d00f453e] (00/27) No match
04 [a28aa182] (00/27) No match
05 [84a53d48] (00/27) No match
06 [b3a26365] (00/27) No match
07 [3569f7eb] (00/27) No match
08 [2a48772d] (00/27) No match
09 [72c0dcf8] (00/25) No match
10 [a933751f] (00/27) No match
11 [2904e6e5] (00/27) No match
12 [9157a1eb] (00/26) No match
13 [293b6a88] (00/23) No match
Offsetted by 59:
01 [994b61b3] (04/27) Accurately ripped
02 [951c7ac7] (04/27) Accurately ripped
03 [340f453e] (04/27) Accurately ripped
04 [768aa182] (04/27) Accurately ripped
05 [4ca53d48] (04/27) Accurately ripped
06 [67a26b65] (04/27) Accurately ripped
07 [8569f7eb] (04/27) Accurately ripped
08 [96486f2d] (04/27) Accurately ripped
09 [0ac0dcf8] (03/25) Accurately ripped
10 [4533751f] (04/27) Accurately ripped
11 [4d04e6e5] (04/27) Accurately ripped
12 [c957a1eb] (04/26) Accurately ripped
13 [914dd288] (00/23) No match (V2 was not tested)
Offsetted by 1024:
01 [1ed9c578] (00/27) No match
02 [9bdc7ac7] (13/27) Accurately ripped
03 [5fcc453e] (00/27) No match
04 [7553a182] (00/27) No match
05 [cd1f3d48] (00/27) No match
06 [afc372ef] (00/27) No match
07 [ca0df7eb] (00/27) No match
08 [604f67a3] (00/27) No match
09 [ef3edcf8] (00/25) No match
10 [0e76751f] (00/27) No match
11 [def1e6e5] (00/27) No match
12 [651da1eb] (00/26) No match
13 [71e12b0a] (00/23) No match
Offsetted by 1083:
01 [04cb65b3] (00/27) No match
02 [951c7ac7] (04/27) Accurately ripped
03 [980f453e] (00/27) No match
04 [4a8aa182] (00/27) No match
05 [14a53d48] (00/27) No match
06 [1ba27365] (00/27) No match
07 [d569f7eb] (00/27) No match
08 [0248672d] (00/27) No match
09 [a2c0dcf8] (00/25) No match
10 [e133751f] (00/27) No match
11 [7104e6e5] (00/27) No match
12 [0157a1eb] (00/26) No match
13 [f9603a88] (00/23) No match
Offsetted by 2048:
01 [8a59c978] (00/27) No match
02 [9bdc7ac7] (13/27) Accurately ripped
03 [c3cc453e] (00/27) No match
04 [4953a182] (00/27) No match
05 [951f3d48] (00/27) No match
06 [63c37aef] (00/27) No match
07 [1a0df7eb] (00/27) No match
08 [cc4f5fa3] (00/27) No match
09 [873edcf8] (00/25) No match
10 [aa76751f] (00/27) No match
11 [02f1e6e5] (00/27) No match
12 [9d1da1eb] (00/26) No match
13 [d9f3930a] (00/23) No match
Offsetted by 2107:
01 [704b69b3] (00/27) No match
02 [951c7ac7] (04/27) Accurately ripped
03 [fc0f453e] (00/27) No match
04 [1e8aa182] (00/27) No match
05 [dca53d48] (00/27) No match
06 [cfa27b65] (00/27) No match
07 [2569f7eb] (00/27) No match
08 [6e485f2d] (00/27) No match
09 [3ac0dcf8] (00/25) No match
10 [7d33751f] (00/27) No match
11 [9504e6e5] (00/27) No match
12 [3957a1eb] (00/26) No match
13 [6172a288] (00/23) No match

Track Peak [ CRC32 ] [W/O NULL] [ LOG ]
– 99,7 [2994F2CC] [C8F39F88]
01 98,8 [137DDE58] [30D9263F] CRC32
02 99,5 [A2E851E1] [F55284DC] CRC32
03 99,6 [389CA22B] [7AD937F1] CRC32
04 99,7 [CBC490F0] [535F2A89] CRC32
05 98,6 [C5C9C218] [C1166336] CRC32
06 99,2 [EF22F93B] [BDE185E9] CRC32
07 98,7 [90ACFD9E] [3C13EA23] CRC32
08 98,8 [4B3E02D7] [6C0DD750] CRC32
09 99,0 [8C8389CA] [98F8A55A] CRC32
10 80,5 [17DEE46E] [4300C66B] CRC32
11 99,0 [6B52FB12] [97BAC5FE] CRC32
12 98,9 [3E3570FC] [9929D226] CRC32
13 98,7 [E932FFCB] [B96013D2] CRC32

foobar2000 1.2 / Dynamic Range Meter 1.1.1
log date: 2015-07-28 16:43:37

––––––––––––––––––––––––––––––––––––––––
Analyzed: Jon Hassell and Bluescreen / Dressing for Pleasure
––––––––––––––––––––––––––––––––––––––––

DR Peak RMS Duration Track
––––––––––––––––––––––––––––––––––––––––
DR12 -0.10 dB -13.65 dB 5:05 01-G-Spot
DR10 -0.04 dB -12.70 dB 4:33 02-Villa Narco
DR11 -0.03 dB -13.01 dB 3:51 03-Kolo X
DR12 -0.02 dB -13.89 dB 4:15 04-Personals
DR11 -0.12 dB -13.05 dB 3:31 05-Club Zombie
DR9 -0.06 dB -10.86 dB 3:57 06-Zeitgeist
DR10 -0.11 dB -12.77 dB 4:06 07-Steppin' Thru Time
DR11 -0.10 dB -12.51 dB 4:19 08-Destination: Bakiff
DR10 -0.09 dB -11.54 dB 4:33 09-Sex Goddess
DR11 -1.87 dB -14.21 dB 4:35 10-Buzzword
DR11 -0.09 dB -13.38 dB 5:45 11-The Gods, They Must Be Crazy
DR14 -0.09 dB -15.43 dB 4:39 12-Mati
DR11 -0.11 dB -12.91 dB 7:45 13-Blue Night
––––––––––––––––––––––––––––––––––––––––

Number of tracks: 13
Official DR value: DR11

Samplerate: 44100 Hz
Channels: 2
Bits per sample: 16
Bitrate: 682 kbps
Codec: FLAC
================================================================================

Jon Hassell and Bluescreen - Dressing for Pleasure (1994)

Jon Hassell and Bluescreen - Dressing for Pleasure (1994)

All thanks to original releaser - mediarare

More interesting music in My Blog