Tags
Language
Tags

KISS - Dressed To Kill (1975) [Japanese Ed. 1997]

Posted By: Andi_Deris
KISS - Dressed To Kill (1975) [Japanese Ed. 1997]

KISS - Dressed To Kill (1975) [Japanese Ed. 1997]
EAC Rip | FLAC: Image+Cue+Log | MP3 CBR 320 kbps | Scans
216 Mb | 70 Mb | 27 Mb | Time: 30:16
Mercury Music Entertainment Co., Ltd./PolyGram K.K. | PHCR-4317
Hard Rock, Heavy Metal, Glam

Dressed to Kill is the third studio album by American hard rock band KISS, released on March 19, 1975. It was produced by Casablanca Records president Neil Bogart, as the label's financial situation at the time did not permit the hiring of a professional producer. Dressed to Kill peaked at No. 32 on the Billboard 200 album chart in the US and was certified gold by the RIAA on February 28, 1977. "C'mon and Love Me" and "Rock and Roll All Nite" were released as singles but failed to rise up the charts. A live version of "Rock and Roll All Nite" from Alive!, issued as a single later that year, reached No. 12 on the Billboard Hot 100. Dressed to Kill was re-released in 1997 in a remastered version.

"Dressed To Kill," originally intended to be called "Kiss at Midnight" (Gooch, Suhs - KISS Alive Forever) which would have been an interesting title, since Paul was being given plenty of Gibson "Midnight Special" (1974 L6-S) guitars for smashing purposes at the time.

KISS - Dressed To Kill (1975) [Japanese Ed. 1997]




Track Listing

01. Room Service (03:00)
02. Two Timer (02:49)
03. Ladies In Waiting (02:33)
04. Getaway (02:44)
05. Rock Bottom (03:56)
06. C'mon And Love Me (02:58)
07. Anything For My Baby (02:36)
08. She (04:09)
09. Love Her All I Can (02:41)
10. Rock And Roll All Nite (02:49)

Produced by Neil Bogart and KISS

The Band

• Paul Stanley - vocals, rhythm guitar (intro guitar solo on "C'mon and Love Me")
• Ace Frehley - lead guitar (all guitars and bass on "Getaway", backing vocals on "Getaway" and "Rock Bottom")
• Gene Simmons - vocals, bass guitar, (rhythm guitar on "Ladies in Waiting")
• Peter Criss - drums, percussion, vocals

Exact Audio Copy V1.1 from 23. June 2015

EAC extraction logfile from 30. March 2016, 16:46

Kiss / Dressed To Kill (PHCR-4317)

Used drive : HL-DT-STDVDRAM GH20NS10 Adapter: 1 ID: 0

Read mode : Secure
Utilize accurate stream : Yes
Defeat audio cache : Yes
Make use of C2 pointers : No

Read offset correction : 667
Overread into Lead-In and Lead-Out : No
Fill up missing offset samples with silence : Yes
Delete leading and trailing silent blocks : No
Null samples used in CRC calculations : Yes
Used interface : Native Win32 interface for Win NT & 2000

Used output format : User Defined Encoder
Selected bitrate : 128 kBit/s
Quality : High
Add ID3 tag : No
Command line compressor : C:\Program Files (x86)\Exact Audio Copy\FLAC\FLAC.EXE
Additional command line options : -V -8 -T "Date=%year%" -T "Genre=%genre%" %source%


TOC of the extracted CD

Track | Start | Length | Start sector | End sector
––––––––––––––––––––––––––––-
1 | 0:00.00 | 3:00.13 | 0 | 13512
2 | 3:00.13 | 2:49.00 | 13513 | 26187
3 | 5:49.13 | 2:33.30 | 26188 | 37692
4 | 8:22.43 | 2:43.55 | 37693 | 49972
5 | 11:06.23 | 3:55.35 | 49973 | 67632
6 | 15:01.58 | 2:58.17 | 67633 | 80999
7 | 18:00.00 | 2:35.45 | 81000 | 92669
8 | 20:35.45 | 4:09.00 | 92670 | 111344
9 | 24:44.45 | 2:41.30 | 111345 | 123449
10 | 27:26.00 | 2:49.03 | 123450 | 136127


Range status and errors

Selected range

Filename F:\ЕАС\fan24\Kiss - Dressed To Kill (PHCR-4317).wav

Peak level 100.0 %
Extraction speed 6.6 X
Range quality 99.9 %
Test CRC 92FF4E10
Copy CRC 92FF4E10
Copy OK

No errors occurred


AccurateRip summary

Track 1 cannot be verified as accurate (confidence 4) [A074BA9B], AccurateRip returned [FA02BD97] (AR v2)
Track 2 cannot be verified as accurate (confidence 4) [42312843], AccurateRip returned [48F141E0] (AR v2)
Track 3 cannot be verified as accurate (confidence 4) [03968BE3], AccurateRip returned [8B5D9840] (AR v2)
Track 4 cannot be verified as accurate (confidence 4) [BFA3D072], AccurateRip returned [B80980D9] (AR v2)
Track 5 cannot be verified as accurate (confidence 4) [EE0908AF], AccurateRip returned [D6EA72FB] (AR v2)
Track 6 cannot be verified as accurate (confidence 4) [267165BD], AccurateRip returned [C2A03DDA] (AR v2)
Track 7 cannot be verified as accurate (confidence 4) [1E572FA4], AccurateRip returned [F99819DE] (AR v2)
Track 8 cannot be verified as accurate (confidence 4) [2034899A], AccurateRip returned [843B55F9] (AR v2)
Track 9 cannot be verified as accurate (confidence 4) [F4AB43FF], AccurateRip returned [DFA64F72] (AR v2)
Track 10 cannot be verified as accurate (confidence 4) [D7A7222A], AccurateRip returned [D7EDF010] (AR v2)

No tracks could be verified as accurate
You may have a different pressing from the one(s) in the database

End of status report

–– CUETools DB Plugin V2.1.6

[CTDB TOCID: kcG10k_KUOUpt3rmWkTD6aFYVp0-] found
Submit result: kcG10k_KUOUpt3rmWkTD6aFYVp0- has been confirmed
Track | CTDB Status
1 | (14/14) Accurately ripped
2 | (14/14) Accurately ripped
3 | (14/14) Accurately ripped
4 | (14/14) Accurately ripped
5 | (14/14) Accurately ripped
6 | (14/14) Accurately ripped
7 | (14/14) Accurately ripped
8 | (14/14) Accurately ripped
9 | (14/14) Accurately ripped
10 | (14/14) Accurately ripped


==== Log checksum B818A7CEAC450F27E2E0814CDC5BB4CF159EAADB3B9D3E367081862FD7E8720A ====


Many thanks to the original uploader: fan24





Password: pass