Tags
Language
Tags

KISS - Hotter Than Hell (1974) [Japanese Ed. 1997]

Posted By: Andi_Deris
KISS - Hotter Than Hell (1974) [Japanese Ed. 1997]

KISS - Hotter Than Hell (1974) [Japanese Ed. 1997]
EAC Rip | FLAC: Image+Cue+Log | MP3 CBR 320 kbps | Scans
216 Mb | 77 Mb | 29 Mb | Time: 33:18
Mercury Music Entertainment Co., Ltd./PolyGram K.K. | PHCR-4316
Hard Rock, Heavy Metal, Glam

Hotter Than Hell (This album was originally going to be titled, "The Harder They Come") is the second studio album by American rock band KISS, released on October 22, 1974 by Casablanca Records. It was certified gold on June 23, 1977, having shipped 500,000 copies. The album was re-released in 1997 in a remastered version. It peaked on the Billboard 200 charts at No. 100, without the benefit of a hit single.

KISS - Hotter Than Hell (1974) [Japanese Ed. 1997]




Track Listing

01. Got To Choose (03:55)
02. Parasite (03:05)
03. Goin' Blind (03:37)
04. Hotter Than Hell (03:32)
05. Let Me Go, Rock 'N' Roll (02:16)
06. All The Way (03:19)
07. Watchin' You (03:45)
08. Mainline (03:52)
09. Comin' Home (02:39)
10. Strange Ways (03:19)

Produced by Kenny Kerner and Richie Wise

The Band

• Paul Stanley - vocals, rhythm guitar
• Ace Frehley - lead guitar, bass guitar on "Parasite", backing vocals on "Parasite", "Comin' Home" and "Strange Ways"
• Gene Simmons - vocals, bass guitar
• Peter Criss - vocals, drums, percussion

Exact Audio Copy V1.1 from 23. June 2015

EAC extraction logfile from 16. March 2016, 19:57

Kiss / Hotter Than Hell (PHCR-4316)

Used drive : HL-DT-STDVDRAM GH20NS10 Adapter: 1 ID: 0

Read mode : Secure
Utilize accurate stream : Yes
Defeat audio cache : Yes
Make use of C2 pointers : No

Read offset correction : 667
Overread into Lead-In and Lead-Out : No
Fill up missing offset samples with silence : Yes
Delete leading and trailing silent blocks : No
Null samples used in CRC calculations : Yes
Used interface : Native Win32 interface for Win NT & 2000

Used output format : User Defined Encoder
Selected bitrate : 128 kBit/s
Quality : High
Add ID3 tag : No
Command line compressor : C:\Program Files (x86)\Exact Audio Copy\FLAC\FLAC.EXE
Additional command line options : -V -8 -T "Date=%year%" -T "Genre=%genre%" %source%


TOC of the extracted CD

Track | Start | Length | Start sector | End sector
––––––––––––––––––––––––––––-
1 | 0:00.00 | 3:54.43 | 0 | 17592
2 | 3:54.43 | 3:04.32 | 17593 | 31424
3 | 6:59.00 | 3:36.38 | 31425 | 47662
4 | 10:35.38 | 3:31.57 | 47663 | 63544
5 | 14:07.20 | 2:15.60 | 63545 | 73729
6 | 16:23.05 | 3:18.48 | 73730 | 88627
7 | 19:41.53 | 3:45.30 | 88628 | 105532
8 | 23:27.08 | 3:52.12 | 105533 | 122944
9 | 27:19.20 | 2:39.25 | 122945 | 134894
10 | 29:58.45 | 3:18.55 | 134895 | 149799


Range status and errors

Selected range

Filename F:\ЕАС\fan24\Kiss - Hotter Than Hell (PHCR-4316).wav

Peak level 100.0 %
Extraction speed 5.5 X
Range quality 99.9 %
Test CRC A77E0DCD
Copy CRC A77E0DCD
Copy OK

No errors occurred


AccurateRip summary

Track 1 cannot be verified as accurate (confidence 3) [DE1FE178], AccurateRip returned [A3436D72] (AR v2)
Track 2 cannot be verified as accurate (confidence 3) [E1D6C077], AccurateRip returned [EE4B9D5E] (AR v2)
Track 3 cannot be verified as accurate (confidence 3) [0CA5B6E3], AccurateRip returned [7244A444] (AR v2)
Track 4 cannot be verified as accurate (confidence 3) [414D6B3F], AccurateRip returned [AE80E0A1] (AR v2)
Track 5 cannot be verified as accurate (confidence 3) [4B7DDA2C], AccurateRip returned [C2B7DD83] (AR v2)
Track 6 cannot be verified as accurate (confidence 3) [938D6856], AccurateRip returned [888EA252] (AR v2)
Track 7 cannot be verified as accurate (confidence 3) [832BCDD6], AccurateRip returned [518ACF81] (AR v2)
Track 8 cannot be verified as accurate (confidence 3) [DC3BBC93], AccurateRip returned [4E29036E] (AR v2)
Track 9 cannot be verified as accurate (confidence 3) [FC601DBF], AccurateRip returned [D0064CA3] (AR v2)
Track 10 cannot be verified as accurate (confidence 3) [7CED1F97], AccurateRip returned [A57F837C] (AR v2)

No tracks could be verified as accurate
You may have a different pressing from the one(s) in the database

End of status report

–– CUETools DB Plugin V2.1.6

[CTDB TOCID: Ff8EaQ63LN52ql49b6pzxO65GA0-] found
Submit result: Ff8EaQ63LN52ql49b6pzxO65GA0- has been confirmed
Track | CTDB Status
1 | (6/6) Accurately ripped
2 | (6/6) Accurately ripped
3 | (6/6) Accurately ripped
4 | (6/6) Accurately ripped
5 | (5/6) Accurately ripped
6 | (6/6) Accurately ripped
7 | (6/6) Accurately ripped
8 | (6/6) Accurately ripped
9 | (6/6) Accurately ripped
10 | (5/6) Accurately ripped


==== Log checksum 3E0B76DF3182CA1C5E5656259DB4AA4704C110D83E84350AB453ABB98FD2BD83 ====


Many thanks to the original uploader: fan24





Password: pass