Tags
Language
Tags

Manntra - Monster Mind Consuming (2021)

Posted By: popsakov
Manntra - Monster Mind Consuming (2021)

Manntra - Monster Mind Consuming (2021)
EAC Rip | FLAC (Img) + Cue + Log ~ 270 Mb | MP3 CBR320 ~ 100 Mb
Full Scans | 00:34:53 | RAR 5% Recovery
Folk Metal / Industrial Metal / Folk Rock / Alternative Rock
NoCut / SPV #SPV264802

Mysterious. Powerful. Magical. On March 26th, 2021 the new cracker album "Monster Mind Consuming" by the mystical folk-rock sensation Manntra will finally be released. It is already the band's second English-language album. Even the first single "Ori Ori" is a real thunderstorm of sound. Croatian folk influences merge with metal and industrial to create a perfectly staged, highly independent musical symbiosis. The songs all have what it takes to reach a new dimension in the dark circus.

"It's a war album. A battle cry for life. It covers topics like fear, war, being strong and going through a difficult time or heartbreak, being a slave to your fears and being set free in the end. It's a war against your own insecurities; a war against yourself - and we want you to win this fight! It's about every single fan and listener of the album. It's an album by people for people. ", Describes Manntra the new, very emotional and at the same time epic masterpiece of the new folk-rock heroes and adds:" We gave everything on the album. We created different songs, tried things in production and wrote the most intense and darkest songs ever. For me, this is the real face of Manntra. A dark journey through folk, industrial and gothic."

***************

Track List:

01. Invocation [1:42]
02. Heathens [3:40]
03. Ori Ori [3:11]
04. Slave [2:53]
05. Voices Of The Sea [3:18]
06. Barren King [2:34]
07. Monster Mind Consuming [3:31]
08. I Want To Eat You [3:10]
09. In Your Eyes [3:25]
10. Let's Invite The Storm [3:11]
11. Lipa [4:23]

Exact Audio Copy V1.5 from 20. February 2020

EAC extraction logfile from 5. April 2021, 20:16

Manntra / Monster Mind Consuming (SPV264802)

Used drive : TSSTcorpDVDWBD SH-B123L Adapter: 1 ID: 1

Read mode : Secure
Utilize accurate stream : Yes
Defeat audio cache : Yes
Make use of C2 pointers : No

Read offset correction : 6
Overread into Lead-In and Lead-Out : No
Fill up missing offset samples with silence : Yes
Delete leading and trailing silent blocks : No
Null samples used in CRC calculations : Yes
Used interface : Native Win32 interface for Win NT & 2000

Used output format : User Defined Encoder
Selected bitrate : 896 kBit/s
Quality : High
Add ID3 tag : No
Command line compressor : C:\Program Files (x86)\Exact Audio Copy\FLAC\FLAC.EXE
Additional command line options : -6 -V -T "ARTIST=%artist%" -T "TITLE=%title%" -T "ALBUM=%albumtitle%" -T "DATE=%year%" -T "TRACKNUMBER=%tracknr%" -T "GENRE=%genre%" -T "COMMENT=%comment%" -T "BAND=%albuminterpret%" -T "ALBUMARTIST=%albuminterpret%" -T "COMPOSER=%composer%" %haslyrics%–tag-from-file=LYRICS="%lyricsfile%"%haslyrics% -T "DISCNUMBER=%cdnumber%" -T "TOTALDISCS=%totalcds%" -T "TOTALTRACKS=%numtracks%" %hascover%–picture="%coverfile%"%hascover% %source% -o %dest%


TOC of the extracted CD

Track | Start | Length | Start sector | End sector
––––––––––––––––––––––––––––-
1 | 0:00.00 | 1:41.45 | 0 | 7619
2 | 1:41.45 | 3:39.01 | 7620 | 24045
3 | 5:20.46 | 3:10.60 | 24046 | 38355
4 | 8:31.31 | 2:53.00 | 38356 | 51330
5 | 11:24.31 | 3:17.40 | 51331 | 66145
6 | 14:41.71 | 2:33.35 | 66146 | 77655
7 | 17:15.31 | 3:30.45 | 77656 | 93450
8 | 20:46.01 | 3:09.74 | 93451 | 107699
9 | 23:56.00 | 3:24.23 | 107700 | 123022
10 | 27:20.23 | 3:10.29 | 123023 | 137301
11 | 30:30.52 | 4:22.17 | 137302 | 156968


Range status and errors

Selected range

Filename E:\MUSIC\Manntra - Monster Mind Consuming (SPV264802).wav

Peak level 100.0 %
Extraction speed 5.0 X
Range quality 99.9 %
Test CRC F0854552
Copy CRC F0854552
Copy OK

No errors occurred


AccurateRip summary

Track 1 not present in database
Track 2 not present in database
Track 3 not present in database
Track 4 not present in database
Track 5 not present in database
Track 6 not present in database
Track 7 not present in database
Track 8 not present in database
Track 9 not present in database
Track 10 not present in database
Track 11 not present in database

None of the tracks are present in the AccurateRip database

End of status report

–– CUETools DB Plugin V2.1.6

[CTDB TOCID: FveHBqXAn4rwjyxGf4qIb.5uutU-] disk not present in database
Submit result: FveHBqXAn4rwjyxGf4qIb.5uutU- has been uploaded


==== Log checksum F8A0BF8FD6D59200732A2483C5F1C109598D6731DFCCE1772AADC43189A91B7E ====

All thanks go to HaRD

>>> My Blog <<<

DOWNLOAD: