Tags
Language
Tags

Marvin Gaye - Live At The London Palladium (1977) [1999, Remastered Reissue]

Posted By: BlondStyle
Marvin Gaye - Live At The London Palladium (1977) [1999, Remastered Reissue]

Marvin Gaye - Live At The London Palladium (1977) [1999, Remastered Reissue]
R&B, Soul/Funk, Smooth Soul, Live | EAC Rip | FLAC, Img+CUE+LOG+Scans (PNG) | 01:18:07 h. | 560,28 Mb
Label: Motown (USA) | Cat.# 314549518-2 | Released: 1999-08-24 (1977-03-15)
Marvin Gaye - Live At The London Palladium (1977) [1999, Remastered Reissue]

"Live at the London Palladium" is a live double album by soul musician Marvin Gaye, released March 15, 1977, on Tamla Records. Recording sessions took place live at several concerts at the London Palladium in London, England, in October 1976, with the exception of the hit single "Got to Give It Up", which was recorded at Gaye's Los Angeles studio Marvin's Room on January 31, 1977. Live at the London Palladium features intimate performances by Gaye of many of his career highlights, including early hits for Motown and recent material from his previous three studio albums. As with his previous live album, Marvin Gaye Live!, production of the record was handled entirely by Gaye, except for the studio portion, "Got to Give It Up", which was managed by Art Stewart. "Live at the London Palladium" received a surprising and significant amount of critical recognition for a live album following its initial release. Critical reviews of the album were positive compared to the mild receptiveness Gaye's previous studio album I Want You received. As Gaye's most successful live release, the album also became one of his most commercially successful albums during his tenure at Motown's Tamla label, as well as a Billboard chart hit. Following digital remastering, "Live at the London Palladium" was reissued on August 24, 1999, by Motown on compact disc.
~Wikipedia
A nearly 80-minute live album from 1977, Live at the London Palladium effectively compresses most of Marvin Gaye's numerous career highlights, making it a wonderful retrospective of the justly mythologized soul singer's accomplishments. Almost everything is here that could be: his '60s hits, his duets, the best moments from What's Going On, a trio of highlights each from Let's Get It On and I Want You, and even a bonus studio track, the magnificent 12-minute disco-funk epic "Got to Give It Up." Gaye performs with a sense of exuberance no doubt fueled by the large, appreciative audience. Furthermore, his rapport with the audience becomes well apparent and welcome during "Come Get to This" and "Let's Get It On"; during this pair of back-to-back odes to sex, you can feel the sultry passion in his voice as his singing drifts close to moaning and his ad libbing approaches tasteful, amorous aural lovemaking. Yet as intimate as Gaye is while singing, he's undeniably uncomfortable when talking: just before beginning his medley of '60s hits, he stumbles over his mumbled words, confessing, "I'll tell you, I don't do this so good so, you know, I might just stop and go right into the song. I'm really nuts," before halting mid-sentence rather than rambling any longer. Another revealing moment comes just before the duet medley, when Marvin speaks pensively of Tammi Terrell after the audience applauds her name, he wistfully whispers, "Oh, she'd like that...for her I thank you." These subtle between-song moments prove revealing in retrospect, illustrating just how shaken Gaye is at this troubled point in his career. Listen carefully and you can sense the struggling instability that would erupt cathartically a year later with Hear, My Dear. In addition to being historically noteworthy, Live at the London Palladium also stands as the best and most readily available portrait of Gaye's live performances a far different and more intimate experience than his studio releases and one that every fan should experience.
~Review by Jason Birchmeier

Marvin Gaye - Live At The London Palladium (1977) [1999, Remastered Reissue]

Marvin Gaye - Live At The London Palladium (1977) [1999, Remastered Reissue]




Release of the album: 1977, March, 15 [2xLPs Tamla, Cat.# T7-352R2, USA]
Release of this CD: 1999, August, 24 [CD Motown (USA), Cat.# 314549518-2 /UPC: 731454951821]
℗ 1977, 1999 © 1999 Motown Record Company, L.P.
Distributed by Universal Music & Video Distribution, Inc.
Manufactured by Sony DADC
Made in U.S.A.


Credits:

Artwork By [Graphic Design And Concept] – Marvin Gaye
Backing Vocals – Frankie Gaye, Jan Hunter
Drums – Bugsy Wilcox
Guitar – Johnny McGhee
Keyboards – Marvin Gaye
Photography – Hiro Ito, Richard Young
Producer – Marvin Gaye (tracks: 1 to 12)
Tambourine, Other [Hotel Sheet] – Jack Ashford


Tracklist:

01. Intro Theme (02:34)
02. All The Way 'Round (03:50)
03. Since I Had You (05:00)
04. Come Get To This (02:24)
05. Let's Get It On (06:22)
06. Trouble Man (06:31)
07. Medley I (08:49)
08. Medley II (09:49)
09. Medley III (10:25)
10. Thanks (01:07)
11. Distant Lover (05:31)
12. Closing Theme / I Want You (03:51)
13. Got To Give It Up (11:53)

Exact Audio Copy V1.0 beta 2 from 29. April 2011

EAC extraction logfile from 26. February 2012, 11:54

Marvin Gaye / Live At The London Palladium

Used drive : Memorex 52MAXX 3252AJ1 Adapter: 1 ID: 0

Read mode : Secure
Utilize accurate stream : Yes
Defeat audio cache : Yes
Make use of C2 pointers : No

Read offset correction : 6
Overread into Lead-In and Lead-Out : No
Fill up missing offset samples with silence : Yes
Delete leading and trailing silent blocks : No
Null samples used in CRC calculations : Yes
Used interface : Native Win32 interface for Win NT & 2000

Used output format : User Defined Encoder
Selected bitrate : 1024 kBit/s
Quality : High
Add ID3 tag : No
Command line compressor : C:\Program Files (x86)\Exact Audio Copy\wavpack.exe
Additional command line options : -w "Artist=%artist%" -w "Title=%title%" -w "Album=%albumtitle%" -w "Year=%year%" -w "Track=%tracknr%" -w "Genre=%genre%" -h %source% %dest%


TOC of the extracted CD

Track | Start | Length | Start sector | End sector
––––––––––––––––––––––––––––-
1 | 0:00.00 | 2:34.22 | 0 | 11571
2 | 2:34.22 | 3:50.20 | 11572 | 28841
3 | 6:24.42 | 4:59.50 | 28842 | 51316
4 | 11:24.17 | 2:24.25 | 51317 | 62141
5 | 13:48.42 | 6:21.48 | 62142 | 90764
6 | 20:10.15 | 6:31.32 | 90765 | 120121
7 | 26:41.47 | 8:49.25 | 120122 | 159821
8 | 35:30.72 | 9:48.58 | 159822 | 203979
9 | 45:19.55 | 10:25.10 | 203980 | 250864
10 | 55:44.65 | 1:07.10 | 250865 | 255899
11 | 56:52.00 | 5:30.57 | 255900 | 280706
12 | 62:22.57 | 3:51.30 | 280707 | 298061
13 | 66:14.12 | 11:52.50 | 298062 | 351511


Range status and errors

Selected range

Filename C:\Users\M@ce\Music\Archives\Rips\Marvin Gaye - Live At The London Palladium.wav

Peak level 100.0 %
Extraction speed 6.9 X
Range quality 99.9 %
Test CRC 5A845E62
Copy CRC 5A845E62
Copy OK

No errors occurred


AccurateRip summary

Track 1 accurately ripped (confidence 4) [EE01AAB6] (AR v1)
Track 2 accurately ripped (confidence 4) [277E7C8B] (AR v1)
Track 3 accurately ripped (confidence 3) [A825B496] (AR v1)
Track 4 accurately ripped (confidence 3) [289B5942] (AR v1)
Track 5 accurately ripped (confidence 3) [969616C0] (AR v1)
Track 6 accurately ripped (confidence 3) [89D2FBB3] (AR v1)
Track 7 accurately ripped (confidence 3) [4F285CF3] (AR v1)
Track 8 accurately ripped (confidence 3) [315CABC7] (AR v1)
Track 9 accurately ripped (confidence 3) [1844F500] (AR v1)
Track 10 accurately ripped (confidence 3) [711B53B2] (AR v1)
Track 11 accurately ripped (confidence 3) [83877A38] (AR v1)
Track 12 accurately ripped (confidence 3) [807BE218] (AR v1)
Track 13 accurately ripped (confidence 3) [9EA430E0] (AR v1)

All tracks accurately ripped

End of status report

–– CUETools DB Plugin V2.1.2

[CTDB TOCID: ipzqQ8ITNxeavfyFEUWpPwd2AB4-] found, Submit result: ipzqQ8ITNxeavfyFEUWpPwd2AB4- has been confirmed
[5ec9b9d2] (5/5) Accurately ripped


==== Log checksum B92F2BF748E8F1A047E7450EA73D5AEA48C7FBBF8A51D5025EA18A93B85EBC97 ====

––––––––––––––––––––––––––––––––––––––––
Analyzed: Marvin Gaye / Live At The London Palladium
––––––––––––––––––––––––––––––––––––––––

DR Peak RMS Duration Track
––––––––––––––––––––––––––––––––––––––––
DR9 0.00 dB -12.17 dB 2:34 01-Intro Theme
DR8 0.00 dB -9.41 dB 3:50 02-All The Way 'Round
DR9 0.00 dB -12.30 dB 5:00 03-Since I Had You
DR9 0.00 dB -13.24 dB 2:24 04-Come Get To This
DR9 0.00 dB -12.91 dB 6:22 05-Let's Get It On
DR8 0.00 dB -11.24 dB 6:31 06-Trouble Man
DR10 0.00 dB -12.00 dB 8:49 07-Medley I
DR10 0.00 dB -13.14 dB 9:49 08-Medley II
DR10 0.00 dB -14.36 dB 10:25 09-Medley III
DR15 -2.79 dB -23.41 dB 1:07 10-Thanks
DR10 0.00 dB -13.58 dB 5:31 11-Distant Lover
DR10 0.00 dB -12.84 dB 3:51 12-Closing Theme/I Want You
DR12 -0.04 dB -12.94 dB 11:53 13-Got To Give It Up
––––––––––––––––––––––––––––––––––––––––

Number of tracks: 13
Official DR value: DR10

Samplerate: 44100 Hz
Channels: 2
Bits per sample: 16
Bitrate: 892 kbps
Codec: FLAC
================================================================================

All thanks to M@ce

See also:


password: BlondStyle