Tags
Language
Tags

Me And My Kites - Natt O Dag (2018)

Posted By: popsakov
Me And My Kites - Natt O Dag (2018)

Me And My Kites - Natt O Dag (2018)
EAC Rip | FLAC (Img) + Cue + Log ~ 347 Mb | MP3 CBR320 ~ 169 Mb
Full Scans | 00:42:00 | RAR 5% Recovery
Progressive Rock / Psychedelic Rock / Progressive Folk / Canterbury Scene
Sound Effect Records #SERC 045

Sound Effect Records presents "Natt o Dag", Me and My Kites brand new studio album! Out on March 16th, on limited edition vinyl, CD and Digital download,"Natt o Dag" is possibly the Swedish collective's best so far. Darker, moodier and filled with some irresistible pop-hooks, "Nat o Dag" is destined to become a modern psychedelic classic. Natt o Dag is a flower common in the Swedish forests. Its purple and yellow flowers represent night and day and the idea of this two sided record took place in a huge patch of these flowers on a lonesome bike trip on remote paths some two Summers ago.

Me and My Kites is a Swedish hippie pop group, heavily influenced by the flourishing psychedelic movement of the sixties, with a touch of folk music. It’s a bit of a collective, with a solid core of eight people that has been the live band in the last years. Since the start in 2012 they’ve released two albums, this being the third one. Natt o Dag takes you on an adventure a bit darker than the earlier Me and My Kites’ records. Keyboard instruments like the Mellotron, piano and electric harpsichord are allowed more space. The arrangements are dynamic and full, with ten people's voices adding their colours. The songs vary between short melancholic instrumentals and longer, fairytale-like compositions. The final track may be the heaviest from the band so far, a long repetitive journey that builds up and resolves. The main parts of the drums, the piano and the vocals were again recorded at the Brottby cottage, in the countryside north of Stockholm, in the cold, dark Winter. The flowery colours were added the following Summer, in a caravan in the garden of the band's collective Summer cottage. Yet another night and day. For those who might wonder, here’s the English translation to the two tracks given Swedish titles: track five “A Very Special Sea Party” and track ten “You Can take Everything Out of the Earth and Use it, but it won’t Come Back” - from there it’s up to your imagination.
***************

Me And My Kites - Natt O Dag (2018)

Track List:

01. Natt: Natt o Dag [2:30]
02. Natt: Fingers Of Senja [5:00]
03. Natt: What If We Were Flowers? [4:27]
04. Natt: Another, A Lover [4:03]
05. Natt: En Valdigt Speciell Havsfest [3:36]
06. Dag: Sister’s Gonna Have A Baby [2:39]
07. Dag: Dull Sky (for Cm, on a Perfect Day) [8:11]
08. Dag: AC/DC [2:23]
09. Dag: All Colours, Come Back! [1:10]
10. Dag: Man kan ta allt ur jorden och anvanda det, men det kommer inte tillbaka [8:03]

Personnel:
Lisa Isaksson - vocals, flute
David Svedmyr - 12-string/electric guitars, bass, piano, electric harpsichord, mellotron, cithers, vibraphone, vocals
Simon Svedmyr - electric/upright basses, vocals
Mikael Lennholm - electric guitar, vocals
Karin Engquist - piano, organs, vocals
Johan Svedmyr - drums, percussion
Joel Öhlund - acoustic guitar, oud, vocals
Agnes Nykäsenoja - violin, vocals
Anna Myrsten - vocals
Andreas Stellan - vocals
Jennie Ståbis - vocals
Hanna Pauser Lindgren - voice
Zeke Isendahl - clarinet
Azusa - percussion

Exact Audio Copy V1.3 from 2. September 2016

Отчёт EAC об извлечении, выполненном 25. апреля 2018, 15:10

ME AND MY KITES / Natt o Dag

Дисковод: TSSTcorpCDDVDW SH-224DB Adapter: 1 ID: 0

Режим чтения : Достоверность
Использование точного потока : Да
Отключение кэша аудио : Да
Использование указателей C2 : Нет

Коррекция смещения при чтении : 6
Способность читать области Lead-in и Lead-out : Нет
Заполнение пропущенных сэмплов тишиной : Да
Удаление блоков с тишиной в начале и конце : Нет
При вычислениях CRC использовались нулевые сэмплы : Да
Интерфейс : Встроенный Win32-интерфейс для Win NT/2000

Выходной формат : Внутренние WAV-операции
Формат сэмплов : 44.100 Гц; 16 бит; стерео


TOC извлечённого CD

Трек | Старт | Длительность | Начальный сектор | Конечный сектор
––––––––––––––––––––––––––––––––––-
1 | 0:00.00 | 2:29.57 | 0 | 11231
2 | 2:29.57 | 5:00.36 | 11232 | 33767
3 | 7:30.18 | 4:26.43 | 33768 | 53760
4 | 11:56.61 | 4:02.38 | 53761 | 71948
5 | 15:59.24 | 3:35.60 | 71949 | 88133
6 | 19:35.09 | 2:38.41 | 88134 | 100024
7 | 22:13.50 | 8:11.11 | 100025 | 136860
8 | 30:24.61 | 2:22.58 | 136861 | 147568
9 | 32:47.44 | 1:10.06 | 147569 | 152824
10 | 33:57.50 | 8:02.46 | 152825 | 189020


Характеристики диапазона извлечения и сообщения об ошибках

Выбранный диапазон

Имя файла D:\TEMP\ME AND MY KITES - 2018 - Natt o Dag [2018 Sound Effect Records, SERC 045].wav

Пиковый уровень 99.2 %
Скорость извлечения 6.8 X
Качество диапазона 100.0 %
CRC теста D7EBCA1C
CRC копии D7EBCA1C
Копирование… OK

Ошибок не произошло


AccurateRip: сводка

Трек 1 отсутствует в базе данных
Трек 2 отсутствует в базе данных
Трек 3 отсутствует в базе данных
Трек 4 отсутствует в базе данных
Трек 5 отсутствует в базе данных
Трек 6 отсутствует в базе данных
Трек 7 отсутствует в базе данных
Трек 8 отсутствует в базе данных
Трек 9 отсутствует в базе данных
Трек 10 отсутствует в базе данных

Ни одного трека нет в базе AccurateRip

Конец отчёта

==== Контрольная сумма отчёта EBADCB72BB61857E8955089AB6B3832C9E3C376086C1DC32C8E6FBCEBB6012A7 ====

foobar2000 1.3.16 / Dynamic Range Meter 1.1.1
log date: 2018-04-26 22:56:32

––––––––––––––––––––––––––––––––––––––––
Analyzed: ME AND MY KITES / Natt o Dag
––––––––––––––––––––––––––––––––––––––––

DR Peak RMS Duration Track
––––––––––––––––––––––––––––––––––––––––
DR10 -0.16 dB -12.71 dB 2:30 01-Natt: Natt o Dag
DR8 -0.10 dB -9.78 dB 5:00 02-Natt: Fingers Of Senja
DR10 -0.20 dB -12.45 dB 4:27 03-Natt: What If We Were Flowers?
DR10 -0.15 dB -12.31 dB 4:03 04-Natt: Another, A Lover
DR8 -0.09 dB -10.58 dB 3:36 05-Natt: En Väldigt Speciell Havsfest
DR11 -0.17 dB -13.54 dB 2:39 06-Dag: Sister’s Gonna Have A Baby
DR9 -0.16 dB -12.90 dB 8:11 07-Dag: Dull Sky (for Cm, on a Perfect Day)
DR10 -0.07 dB -11.40 dB 2:23 08-Dag: AC/DC
DR10 -4.13 dB -19.54 dB 1:10 09-Dag: All Colours, Come Back!
DR8 -0.11 dB -11.67 dB 8:03 10-Dag: Man kan ta allt ur jorden och använda det, men det kommer inte tillbaka
––––––––––––––––––––––––––––––––––––––––

Number of tracks: 10
Official DR value: DR9

Samplerate: 44100 Hz
Channels: 2
Bits per sample: 16
Bitrate: 884 kbps
Codec: FLAC
================================================================================

Me And My Kites - Natt O Dag (2018)


All thanks go to spAceLover

>>> My Blog <<<

DOWNLOAD: