Subcategories

Mr. Bungle - Albums Collection 1991-1999 (3CD) [Re-Up]

Posted By: Designol
Mr. Bungle - Albums Collection 1991-1999 (3CD) [Re-Up]

Mr. Bungle - Albums Collection 1991-1999 (3CD)
EAC | FLAC | Tracks (Cue&Log) ~ 1.11 Gb | Mp3 (CBR320) ~ 481 Mb | Scans included | 03:06:22
Experimental Rock, Avantgarde Rock, Alternative Metal, Funk Rock, Hardcore
Avantgarde Jazz, Lounge, Art Rock, Noise, Ska, etc…

Mr. Bungle was an American experimental rock band from Eureka, California. The band was formed in 1985 while the members were still in high school, and was named after a 1950s children's educational film regarding bad habits which was later featured in a 1981 Pee-wee Herman HBO special. Mr. Bungle was known for its highly eclectic style, often cycling through several musical genres within the course of a single song. Many of its songs had an unconventional structure and utilized a wide array of instruments and samples. Live shows often featured members dressing up (usually in masks earlier in the band's career) and an array of cover songs.

Mr. Bungle's sound and approach is a unique mix of the experimental, the abstract, and the absurd (in other words, the finer things in life). It all began in 1985, in a small California town named Eureka. The group (bassist Trevor Dunn, drummer Danny Heifetz, alto saxophonist Theo Lengyel, tenor saxophonist/clarinetist Clinton McKinnon, vocalist Mike Patton, and guitarist Trey Spruance) met while in high school and took their moniker from an extremely corny children's educational film regarding bad habits (it was featured in a Pee Wee Herman HBO special back in the early '80s). The group's first demo, The Raging Wrath of the Easter Bunny, was recorded around this time, and soon others followed: Bowl of Chiley, Goddammit I Love America!, and OU818. With each one, their sound became progressively more mutated, until musical boundaries began to melt (metal, funk, experimental, jazz, ska, techno, etc.). Mike Patton landed the lead vocalist slot with Faith No More in 1988 (it was in fact a Mr. Bungle demo that got Patton the job), and instead of breaking up Mr. Bungle, Patton decided to keep both bands going simultaneously. Due to FNM's success (1989's The Real Thing), Mr. Bungle was signed to Warner Bros., who released their self-titled debut in 1991 (with almost all the members going by obscure aliases). The band built a large and loyal cult following on the subsequent tour, as they performed in masks to hide their identities, and played unlikely covers during their set (Billy Squier's "The Stroke," "The Star Wars Theme," John Sebastian's "Welcome Back," etc.). When the tour wrapped up in 1992, Patton returned to Faith No More while the rest of the group focused on side projects (Spruance – Faxed Head; Heifetz – Dieselhed and Zip Code Rapists; and Spruance, Dunn, and Heifetz all in the Secret Chiefs 3), with Spruance briefly joining Patton in FNM for the recording of 1995's King for a Day. It took the band four long years to follow up its debut with the superb Disco Volante (1995). A long and extensive world tour followed, with the group widening its fan base. Mr. Bungle quickly regrouped in early 1997 to record an album of their eclectic cover songs, which was eventually put on hold before completion as Patton began a tour with Faith No More and as the others returned to their additional projects. The group reconvened in 1999 for the release of California. Patton would continue working with his myriad projects without paying much particular attention to Mr. Bungle through 2001. Interestingly, the Fantômas album The Director's Cut (2001) felt more like a healthy mix of Disco Volante and California than the thrashing and cut-up theatrics of Fantômas' self-titled debut and thereby left some to wonder about the future of Bungle as its own entity. To that end, it should be noted that the only thing certain with Patton is, in fact, uncertainty.

Greg Prato, Allmusic.com

Mr. Bungle - Albums Collection 1991-1999 (3CD) [Re-Up]

Mr. Bungle - Albums Collection 1991-1999 (3CD) [Re-Up]






Mr. Bungle - Albums Collection 1991-1999 (3CD) [Re-Up]

Mr. Bungle - Mr. Bungle (1991)
EAC | FLAC | Tracks (Cue&Log) ~ 446 Mb | Mp3 (CBR320) ~ 170 Mb
Label: Warner Bros. | # 9 26640-2 | 01:13:20 | Scans included

To say that Mr. Bungle is unfocused is like criticizing a rapper for not being able to sing – it may be true, but it misses the point of the music. Mr. Bungle is a dizzying, disconcerting, schizophrenic tour through just about any rock style the group can think of, hopping from genre to genre without any apparent rhyme or reason, and sometimes doing so several times in the same song. Mike Patton's lyrics are even more bizarrely humorous than those he used in Faith No More, and they're also less self-censored, as titles like "Squeeze Me Macaroni," "My Ass Is on Fire," and "The Girls of Porn" indicate. It's a difficult, not very accessible record, and the band wouldn't have it any other way.

Steve Huey, Allmusic.com

Tracklist:

01. Quote Unquote (6:57)
02. Slowly Growing Deaf (6:59)
03. Squeeze Me Macaroni (5:38)
04. Carousel (5:14)
05. Egg (10:40)
06. Stubb (A Dub) (7:19)
07. My Ass Is On Fire (7:47)
08. The Girls Of Porn (6:42)
09. Love Is A Fist (6:01)
10. Dead Goon (10:02)


Exact Audio Copy V1.3 from 2. September 2016

EAC extraction logfile from 10. March 2017, 13:23

Mr. Bungle / Mr. Bungle

Used drive : HL-DT-STDVD-RAM GHC0N Adapter: 1 ID: 0

Read mode : Secure
Utilize accurate stream : Yes
Defeat audio cache : Yes
Make use of C2 pointers : No

Read offset correction : 6
Overread into Lead-In and Lead-Out : No
Fill up missing offset samples with silence : Yes
Delete leading and trailing silent blocks : No
Null samples used in CRC calculations : Yes
Used interface : Native Win32 interface for Win NT & 2000
Gap handling : Appended to previous track

Used output format : User Defined Encoder
Selected bitrate : 1024 kBit/s
Quality : High
Add ID3 tag : No
Command line compressor : C:\Program Files (x86)\Exact Audio Copy\Flac\flac.exe
Additional command line options : -8 -e -p -V -T "ARTIST=%artist%" -T "TITLE=%title%" -T "ALBUM=%albumtitle%" -T "DATE=%year%" -T "TRACKNUMBER=%tracknr%" -T "GENRE=%genre%" -T "PERFORMER=%albuminterpret%" -T "COMPOSER=%composer%" %haslyrics%–tag-from-file=LYRICS="%lyricsfile%"%haslyrics% -T "ALBUMARTIST=%albumartist%" -T "DISCNUMBER=%cdnumber%" -T "TOTALDISCS=%totalcds%" -T "TOTALTRACKS=%numtracks%" -T "COMMENT=%comment%" %source% -o %dest%


TOC of the extracted CD

Track | Start | Length | Start sector | End sector
––––––––––––––––––––––––––––-
1 | 0:00.32 | 6:56.43 | 32 | 31274
2 | 6:57.00 | 6:59.00 | 31275 | 62699
3 | 13:56.00 | 5:38.25 | 62700 | 88074
4 | 19:34.25 | 5:13.47 | 88075 | 111596
5 | 24:47.72 | 10:39.73 | 111597 | 159594
6 | 35:27.70 | 7:19.35 | 159595 | 192554
7 | 42:47.30 | 7:47.22 | 192555 | 227601
8 | 50:34.52 | 6:42.35 | 227602 | 257786
9 | 57:17.12 | 6:00.58 | 257787 | 284844
10 | 63:17.70 | 10:02.25 | 284845 | 330019


Track 1

Filename C:\Users\Neil\Documents\what.cd\NEW\Mr. Bungle - Mr. Bungle [FLAC]\01 Quote Unquote.wav

Pre-gap length 0:00:02.32

Peak level 97.2 %
Extraction speed 1.3 X
Track quality 100.0 %
Test CRC CB90AFA6
Copy CRC CB90AFA6
Accurately ripped (confidence 31) [E1D2F790] (AR v2)
Copy OK

Track 2

Filename C:\Users\Neil\Documents\what.cd\NEW\Mr. Bungle - Mr. Bungle [FLAC]\02 Slowly Growing Deaf.wav

Peak level 97.2 %
Extraction speed 1.5 X
Track quality 100.0 %
Test CRC BA521FA1
Copy CRC BA521FA1
Accurately ripped (confidence 31) [C6E33669] (AR v2)
Copy OK

Track 3

Filename C:\Users\Neil\Documents\what.cd\NEW\Mr. Bungle - Mr. Bungle [FLAC]\03 Squeeze Me Macaroni.wav

Peak level 97.2 %
Extraction speed 1.5 X
Track quality 99.9 %
Test CRC 137F6421
Copy CRC 137F6421
Accurately ripped (confidence 31) [66044D0E] (AR v2)
Copy OK

Track 4

Filename C:\Users\Neil\Documents\what.cd\NEW\Mr. Bungle - Mr. Bungle [FLAC]\04 Carousel.wav

Peak level 97.2 %
Extraction speed 1.7 X
Track quality 100.0 %
Test CRC 52FE8C2A
Copy CRC 52FE8C2A
Accurately ripped (confidence 32) [BE532618] (AR v2)
Copy OK

Track 5

Filename C:\Users\Neil\Documents\what.cd\NEW\Mr. Bungle - Mr. Bungle [FLAC]\05 Egg.wav

Peak level 97.2 %
Extraction speed 2.0 X
Track quality 100.0 %
Test CRC E960AA4E
Copy CRC E960AA4E
Accurately ripped (confidence 32) [222887DB] (AR v2)
Copy OK

Track 6

Filename C:\Users\Neil\Documents\what.cd\NEW\Mr. Bungle - Mr. Bungle [FLAC]\06 Stubb (A Dub).wav

Peak level 97.2 %
Extraction speed 2.1 X
Track quality 100.0 %
Test CRC 6F37613B
Copy CRC 6F37613B
Accurately ripped (confidence 32) [9CC4BBBE] (AR v2)
Copy OK

Track 7

Filename C:\Users\Neil\Documents\what.cd\NEW\Mr. Bungle - Mr. Bungle [FLAC]\07 My Ass Is on Fire.wav

Peak level 97.2 %
Extraction speed 2.2 X
Track quality 100.0 %
Test CRC F41154CF
Copy CRC F41154CF
Accurately ripped (confidence 32) [8FC7D14F] (AR v2)
Copy OK

Track 8

Filename C:\Users\Neil\Documents\what.cd\NEW\Mr. Bungle - Mr. Bungle [FLAC]\08 The Girls of Porn.wav

Peak level 97.2 %
Extraction speed 2.3 X
Track quality 100.0 %
Test CRC 19B41774
Copy CRC 19B41774
Accurately ripped (confidence 32) [027E7590] (AR v2)
Copy OK

Track 9

Filename C:\Users\Neil\Documents\what.cd\NEW\Mr. Bungle - Mr. Bungle [FLAC]\09 Love Is a Fist.wav

Peak level 97.2 %
Extraction speed 2.4 X
Track quality 100.0 %
Test CRC 2462500C
Copy CRC 2462500C
Accurately ripped (confidence 32) [1D951218] (AR v2)
Copy OK

Track 10

Filename C:\Users\Neil\Documents\what.cd\NEW\Mr. Bungle - Mr. Bungle [FLAC]\10 Dead Goon.wav

Peak level 97.2 %
Extraction speed 2.6 X
Track quality 100.0 %
Test CRC 3D60851E
Copy CRC 3D60851E
Accurately ripped (confidence 32) [2296BC85] (AR v2)
Copy OK


All tracks accurately ripped

No errors occurred

End of status report

–– CUETools DB Plugin V2.1.6

[CTDB TOCID: N.zQxgDuYHAj.Wt1g.tpm.ntbvQ-] found
Submit result: N.zQxgDuYHAj.Wt1g.tpm.ntbvQ- has been confirmed
Track | CTDB Status
1 | (123/124) Accurately ripped
2 | (122/124) Accurately ripped
3 | (122/124) Accurately ripped
4 | (123/124) Accurately ripped
5 | (121/124) Accurately ripped
6 | (121/124) Accurately ripped
7 | (120/124) Accurately ripped
8 | (121/124) Accurately ripped
9 | (122/124) Accurately ripped
10 | (118/124) Accurately ripped


==== Log checksum 9FCC862FE7BCC8B66A7452336BBBEC1D76A5B6E2DF57392A92B711487F599AB7 ====

foobar2000 1.2 / Dynamic Range Meter 1.1.1
log date: 2017-04-07 21:53:41

––––––––––––––––––––––––––––––––––––––––
Analyzed: Mr. Bungle / Mr. Bungle
––––––––––––––––––––––––––––––––––––––––

DR Peak RMS Duration Track
––––––––––––––––––––––––––––––––––––––––
DR12 -0.24 dB -15.09 dB 6:57 01-Quote Unquote
DR10 -0.24 dB -14.74 dB 6:59 02-Slowly Growing Deaf
DR12 -0.24 dB -15.10 dB 5:38 03-Squeeze Me Macaroni
DR11 -0.24 dB -13.92 dB 5:14 04-Carousel
DR11 -0.24 dB -15.05 dB 10:40 05-Egg
DR11 -0.24 dB -13.87 dB 7:19 06-Stubb (A Dub)
DR11 -0.24 dB -13.79 dB 7:47 07-My Ass Is On Fire
DR12 -0.24 dB -15.52 dB 6:42 08-The Girls Of Porn
DR12 -0.24 dB -15.19 dB 6:01 09-Love Is A Fist
DR13 -0.24 dB -17.53 dB 10:02 10-Dead Goon
––––––––––––––––––––––––––––––––––––––––

Number of tracks: 10
Official DR value: DR12

Samplerate: 44100 Hz
Channels: 2
Bits per sample: 16
Bitrate: 778 kbps
Codec: FLAC
================================================================================




Mr. Bungle - Albums Collection 1991-1999 (3CD) [Re-Up]

Mr. Bungle - Disco Volante (1995)
EAC | FLAC | Tracks (Cue&Log) ~ 417 Mb | Mp3 (CBR320) ~ 208 Mb
Label: Warner Bros. | # 9 45963-2 | 01:08:45 | Scans included

Mr. Bungle is the musical equivalent of a David Lynch movie. On its uncompromising second release, Disco Volante, the group focuses its sound a bit more than on its 1991 self-titled debut but still keeps things unruly and completely unpredictable. This is a band whose sole purpose is to break all the pre-existing rules of music and doesn't think twice about taking chances. What they've created in the process is a totally original and new musical style and an album that sounds like nothing that currently exists. The group, whose members go by aliases, may be the most talented rock instrumentalists today, as they skip musical genres effortlessly, while Mike Patton illustrates why many consider him to be the best singer in rock. The group tackles plodding death metal ("Everyone I Went to High School With Is Dead"), deranged children's songs ("After School Special"), and a Middle Eastern techno number that has to be heard to be believed ("Desert Search for Techno Allah"). Many of the songs radically change genres mid-song, encompassing the sounds of Ennio Morricone, John Zorn, Frank Zappa, and other heretofore unthought-of musical mutations. Not music to unwind to after a hard day, but it will challenge your mind when the right mood hits.

Greg Prato, Allmusic.com

Tracklist:

01. Everyone I Went To High School With Is Dead (2:45)
02. Chemical Marriage (3:10)
03. Carry Stress In The Jaw (9:00)
04. Desert Search For Techno Allah (5:24)
05. Violenza Domestica (5:14)
06. After School Special (2:48)
07. Phlegmatics (3:17)
08. Ma Meeshka Mow Skwoz (6:07)
09. The Bends (10:29)
10. Backstrokin’ (2:28)
11. Platypus (5:08)
12. Merry Go Bye Bye (12:58)


Exact Audio Copy V1.1 from 23. June 2015

EAC extraction logfile from 20. December 2016, 20:20

Mr. Bungle / Disco Volante

Used drive : ASUS DRW-24F1ST a Adapter: 1 ID: 0

Read mode : Secure
Utilize accurate stream : Yes
Defeat audio cache : Yes
Make use of C2 pointers : No

Read offset correction : 6
Overread into Lead-In and Lead-Out : No
Fill up missing offset samples with silence : Yes
Delete leading and trailing silent blocks : No
Null samples used in CRC calculations : Yes
Used interface : Native Win32 interface for Win NT & 2000
Gap handling : Appended to previous track

Used output format : User Defined Encoder
Selected bitrate : 1024 kBit/s
Quality : High
Add ID3 tag : No
Command line compressor : D:\Apps\Exact Audio Copy\Flac\flac.exe
Additional command line options : -8 -V -T "ARTIST=%artist%" -T "TITLE=%title%" -T "ALBUM=%albumtitle%" -T "DATE=%year%" -T "TRACKNUMBER=%tracknr%" -T "GENRE=%genre%" -T "PERFORMER=%albuminterpret%" -T "COMPOSER=%composer%" %haslyrics%–tag-from-file=LYRICS="%lyricsfile%"%haslyrics% -T "ALBUMARTIST=%albumartist%" -T "DISCNUMBER=%cdnumber%" -T "TOTALDISCS=%totalcds%" -T "TOTALTRACKS=%numtracks%" -T "COMMENT=%comment%" %source% -o %dest%


TOC of the extracted CD

Track | Start | Length | Start sector | End sector
––––––––––––––––––––––––––––-
1 | 0:00.32 | 2:45.00 | 32 | 12406
2 | 2:45.32 | 3:09.60 | 12407 | 26641
3 | 5:55.17 | 8:59.38 | 26642 | 67104
4 | 14:54.55 | 5:24.02 | 67105 | 91406
5 | 20:18.57 | 5:14.03 | 91407 | 114959
6 | 25:32.60 | 2:47.50 | 114960 | 127534
7 | 28:20.35 | 3:16.45 | 127535 | 142279
8 | 31:37.05 | 6:06.42 | 142280 | 169771
9 | 37:43.47 | 10:28.53 | 169772 | 216924
10 | 48:12.25 | 2:27.62 | 216925 | 228011
11 | 50:40.12 | 5:07.38 | 228012 | 251074
12 | 55:47.50 | 12:58.05 | 251075 | 309429


Track 1

Filename E:\EAC Rips\Rip\Mr. Bungle - Disco Volante (1995) [FLAC]\01 - Everyone I Went to High School with is Dead.wav

Pre-gap length 0:00:02.42

Peak level 84.3 %
Extraction speed 1.6 X
Track quality 99.9 %
Test CRC A1CC5CDB
Copy CRC A1CC5CDB
Accurately ripped (confidence 42) [4589A2C9] (AR v2)
Copy OK

Track 2

Filename E:\EAC Rips\Rip\Mr. Bungle - Disco Volante (1995) [FLAC]\02 - Chemical Marriage.wav

Pre-gap length 0:00:00.02

Peak level 89.4 %
Extraction speed 1.9 X
Track quality 100.0 %
Test CRC 4EC4D79A
Copy CRC 4EC4D79A
Accurately ripped (confidence 43) [48E40CE4] (AR v2)
Copy OK

Track 3

Filename E:\EAC Rips\Rip\Mr. Bungle - Disco Volante (1995) [FLAC]\03 - Carry Stress in the Jaw.wav

Pre-gap length 0:00:00.02

Peak level 92.2 %
Extraction speed 2.1 X
Track quality 99.9 %
Test CRC A122A2B3
Copy CRC A122A2B3
Accurately ripped (confidence 42) [661D1AC0] (AR v2)
Copy OK

Track 4

Filename E:\EAC Rips\Rip\Mr. Bungle - Disco Volante (1995) [FLAC]\04 - Desert Search for Techno Allah.wav

Pre-gap length 0:00:00.04

Peak level 95.4 %
Extraction speed 1.9 X
Track quality 99.9 %
Test CRC 86EAF2EF
Copy CRC 86EAF2EF
Accurately ripped (confidence 41) [E4766702] (AR v2)
Copy OK

Track 5

Filename E:\EAC Rips\Rip\Mr. Bungle - Disco Volante (1995) [FLAC]\05 - Violenza domestica.wav

Pre-gap length 0:00:00.62

Peak level 91.2 %
Extraction speed 1.9 X
Track quality 99.9 %
Test CRC 84BE7BED
Copy CRC 84BE7BED
Accurately ripped (confidence 41) [BA8CBBD7] (AR v2)
Copy OK

Track 6

Filename E:\EAC Rips\Rip\Mr. Bungle - Disco Volante (1995) [FLAC]\06 - After School Special.wav

Pre-gap length 0:00:01.00

Peak level 85.1 %
Extraction speed 1.6 X
Track quality 99.9 %
Test CRC 7F5110CC
Copy CRC 7F5110CC
Accurately ripped (confidence 41) [5578BD9C] (AR v2)
Copy OK

Track 7

Filename E:\EAC Rips\Rip\Mr. Bungle - Disco Volante (1995) [FLAC]\07 - Phlegmatics.wav

Pre-gap length 0:00:00.16

Peak level 96.8 %
Extraction speed 2.0 X
Track quality 100.0 %
Test CRC 9ADEAEAB
Copy CRC 9ADEAEAB
Accurately ripped (confidence 41) [4342FBE0] (AR v2)
Copy OK

Track 8

Filename E:\EAC Rips\Rip\Mr. Bungle - Disco Volante (1995) [FLAC]\08 - Ma Meeshka Mow Skwoz.wav

Pre-gap length 0:00:00.33

Peak level 99.9 %
Extraction speed 2.2 X
Track quality 100.0 %
Test CRC F5DC44EB
Copy CRC F5DC44EB
Accurately ripped (confidence 42) [DF81ED53] (AR v2)
Copy OK

Track 9

Filename E:\EAC Rips\Rip\Mr. Bungle - Disco Volante (1995) [FLAC]\09 - The Bends.wav

Pre-gap length 0:00:00.02

Peak level 99.5 %
Extraction speed 2.2 X
Track quality 100.0 %
Test CRC D7DA88A9
Copy CRC D7DA88A9
Accurately ripped (confidence 41) [83C40C33] (AR v2)
Copy OK

Track 10

Filename E:\EAC Rips\Rip\Mr. Bungle - Disco Volante (1995) [FLAC]\10 - Backstrokin’.wav

Pre-gap length 0:00:03.30

Peak level 88.6 %
Extraction speed 1.9 X
Track quality 100.0 %
Test CRC E3417C4E
Copy CRC E3417C4E
Accurately ripped (confidence 42) [8CE5C594] (AR v2)
Copy OK

Track 11

Filename E:\EAC Rips\Rip\Mr. Bungle - Disco Volante (1995) [FLAC]\11 - Platypus.wav

Pre-gap length 0:00:00.26

Peak level 91.6 %
Extraction speed 2.1 X
Track quality 100.0 %
Test CRC D5088F71
Copy CRC D5088F71
Accurately ripped (confidence 41) [D640C4AE] (AR v2)
Copy OK

Track 12

Filename E:\EAC Rips\Rip\Mr. Bungle - Disco Volante (1995) [FLAC]\12 - Merry Go Bye Bye.wav

Pre-gap length 0:00:00.04

Peak level 99.9 %
Extraction speed 2.3 X
Track quality 100.0 %
Test CRC 453C18FE
Copy CRC 453C18FE
Accurately ripped (confidence 39) [1FCD61AA] (AR v2)
Copy OK


All tracks accurately ripped

No errors occurred

End of status report

–– CUETools DB Plugin V2.1.6

[CTDB TOCID: EwTTyWXCEPkZEQSrQ9rOt.emyro-] found
Submit result: EwTTyWXCEPkZEQSrQ9rOt.emyro- has been confirmed
Track | CTDB Status
1 | (71/73) Accurately ripped
2 | (71/73) Accurately ripped
3 | (71/73) Accurately ripped
4 | (71/73) Accurately ripped
5 | (70/73) Accurately ripped
6 | (71/73) Accurately ripped
7 | (70/73) Accurately ripped
8 | (70/73) Accurately ripped
9 | (70/73) Accurately ripped
10 | (70/73) Accurately ripped
11 | (70/73) Accurately ripped
12 | (68/73) Accurately ripped


==== Log checksum 8A75980BC67E3912A782D248450226A7AD663B6DEEC067701E5FD8394D3F2F1B ====

foobar2000 1.2 / Dynamic Range Meter 1.1.1
log date: 2017-04-07 21:54:06

––––––––––––––––––––––––––––––––––––––––
Analyzed: Mr. Bungle / Disco Volante
––––––––––––––––––––––––––––––––––––––––

DR Peak RMS Duration Track
––––––––––––––––––––––––––––––––––––––––
DR12 -1.48 dB -17.45 dB 2:45 01-Everyone I Went To High School With Is Dead
DR11 -0.97 dB -17.28 dB 3:10 02-Chemical Marriage
DR10 -0.70 dB -14.16 dB 9:00 03-Carry Stress In The Jaw
DR7 -0.40 dB -11.74 dB 5:24 04-Desert Search For Techno Allah
DR9 -0.79 dB -15.32 dB 5:14 05-Violenza Domestica
DR12 -1.40 dB -20.37 dB 2:48 06-After School Special
DR9 -0.28 dB -14.02 dB 3:17 07-Phlegmatics
DR7 0.00 dB -11.06 dB 6:07 08-Ma Meeshka Mow Skwoz
DR8 -0.04 dB -13.79 dB 10:29 09-The Bends
DR9 -1.05 dB -13.64 dB 2:28 10-Backstrokin’
DR9 -0.76 dB -13.76 dB 5:08 11-Platypus
DR8 0.00 dB -13.63 dB 12:58 12-Merry Go Bye Bye
––––––––––––––––––––––––––––––––––––––––

Number of tracks: 12
Official DR value: DR9

Samplerate: 44100 Hz
Channels: 2
Bits per sample: 16
Bitrate: 764 kbps
Codec: FLAC
================================================================================




Mr. Bungle - Albums Collection 1991-1999 (3CD) [Re-Up]

Mr. Bungle - California (1999)
EAC | FLAC | Tracks (Cue&Log) ~ 273 Mb | Mp3 (CBR320) ~ 103 Mb
Label: Warner Bros. | # 9 47447-2 | 00:44:17 | Scans included

Four years after Disco Volante, Mr. Bungle returns with California, which immediately distinguishes itself from its predecessors – it's probably their most heavily orchestrated record to date and their most melodic overall, as well as the least dependent on rock styles. That's certainly not to imply that this is a tame or immediately accessible record, nor that Mr. Bungle has suddenly gone sane. There is a stronger lounge-music orientation to the group's trademark rapid-fire genre-hopping; we hear more pop, swing, rockabilly, country & western, bossa nova, Hawaiian and Middle Eastern music, jazz, Zappa-esque doo wop, arty funk, post-rock, space-age pop, spaghetti-Western music, warped circus melodies, and even dramatic pseudo-new age, plus just a smidgen of heavy metal. Sure, some of those sounds have appeared on Mr. Bungle records past, but the difference this time is the focus with which the band deploys its arsenal. California is their most concise album to date, clocking in at around 45 minutes; plus, while the song structures are far from traditional, they're edging more in that direction and that greatly helps the listener in making sense of the often random-sounding juxtapositions of musical genres (assuming, of course, that you're supposed to even try to make sense of them). As with any Mr. Bungle album, California requires at least a few listens to pull together, but its particular brand of schizophrenia isn't nearly as impenetrable as that of Disco Volante, even if it will still make you marvel at the fact that such a defiantly odd, uncommercial band recorded for Warner Bros.

Steve Huey, Allmusic.com

Tracklist:

01. Sweet Charity (5:06)
02. None Of Them Knew They Were Robots (6:04)
03. Retrovertigo (5:00)
04. The Air-Conditioned Nightmare (3:55)
05. Ars Moriendi (4:10)
06. Pink Cigarette (4:56)
07. Golem II: The Bionic Vapour Boy (3:34)
08. The Holy Filament (4:04)
09. Vanity Fair (2:58)
10. Goodbye Sober Day (4:30)


Exact Audio Copy V1.3 from 2. September 2016

EAC extraction logfile from 28. February 2017, 0:46

Mr. Bungle / California

Used drive : PLEXTOR CD-R PX-230A Adapter: 1 ID: 0

Read mode : Secure
Utilize accurate stream : Yes
Defeat audio cache : Yes
Make use of C2 pointers : No

Read offset correction : 738
Overread into Lead-In and Lead-Out : No
Fill up missing offset samples with silence : Yes
Delete leading and trailing silent blocks : No
Null samples used in CRC calculations : Yes
Used interface : Native Win32 interface for Win NT & 2000
Gap handling : Appended to previous track

Used output format : User Defined Encoder
Selected bitrate : 1024 kBit/s
Quality : High
Add ID3 tag : No
Command line compressor : C:\Program Files\flac-1.3.2-win\win64\flac.exe
Additional command line options : -8 -e -p -V -T "ARTIST=%artist%" -T "TITLE=%title%" -T "ALBUM=%albumtitle%" -T "DATE=%year%" -T "TRACKNUMBER=%tracknr1%" -T "GENRE=%genre%" -T "PERFORMER=%albuminterpret%" -T "COMPOSER=%composer%" %haslyrics%–tag-from-file=LYRICS="%lyricsfile%"%haslyrics% -T "DISCNUMBER=%cdnumber%" -T "TOTALDISCS=%totalcds%" -T "TOTALTRACKS=%numtracks%" -T "COMMENT=%comment%" %source% -o %dest%


TOC of the extracted CD

Track | Start | Length | Start sector | End sector
––––––––––––––––––––––––––––-
1 | 0:00.32 | 5:05.73 | 32 | 22979
2 | 5:06.30 | 6:03.70 | 22980 | 50274
3 | 11:10.25 | 4:59.62 | 50275 | 72761
4 | 16:10.12 | 3:55.23 | 72762 | 90409
5 | 20:05.35 | 4:10.10 | 90410 | 109169
6 | 24:15.45 | 4:55.47 | 109170 | 131341
7 | 29:11.17 | 3:34.23 | 131342 | 147414
8 | 32:45.40 | 4:04.05 | 147415 | 165719
9 | 36:49.45 | 2:58.02 | 165720 | 179071
10 | 39:47.47 | 4:29.55 | 179072 | 199301


Track 1

Filename O:\Music\Mr. Bungle - 1999 - California (9 47447-2)\01 - Sweet Charity.wav

Pre-gap length 0:00:02.42

Peak level 100.0 %
Extraction speed 3.9 X
Track quality 100.0 %
Test CRC 938A3BAE
Copy CRC 938A3BAE
Accurately ripped (confidence 61) [B33A15D7] (AR v2)
Copy OK

Track 2

Filename O:\Music\Mr. Bungle - 1999 - California (9 47447-2)\02 - None of Them Knew They Were Robots.wav

Peak level 100.0 %
Extraction speed 4.5 X
Track quality 100.0 %
Test CRC 18C4C03E
Copy CRC 18C4C03E
Accurately ripped (confidence 61) [24289590] (AR v2)
Copy OK

Track 3

Filename O:\Music\Mr. Bungle - 1999 - California (9 47447-2)\03 - Retrovertigo.wav

Peak level 100.0 %
Extraction speed 5.1 X
Track quality 100.0 %
Test CRC 905D0484
Copy CRC 905D0484
Accurately ripped (confidence 61) [D1731FDE] (AR v2)
Copy OK

Track 4

Filename O:\Music\Mr. Bungle - 1999 - California (9 47447-2)\04 - The Air-Conditioned Nightmare.wav

Pre-gap length 0:00:01.96

Peak level 100.0 %
Extraction speed 5.5 X
Track quality 100.0 %
Test CRC 33164A83
Copy CRC 33164A83
Accurately ripped (confidence 62) [82D5BD6C] (AR v2)
Copy OK

Track 5

Filename O:\Music\Mr. Bungle - 1999 - California (9 47447-2)\05 - Ars Moriendi.wav

Peak level 100.0 %
Extraction speed 4.5 X
Track quality 100.0 %
Test CRC C4A76F41
Copy CRC C4A76F41
Accurately ripped (confidence 62) [D0B35042] (AR v2)
Copy OK

Track 6

Filename O:\Music\Mr. Bungle - 1999 - California (9 47447-2)\06 - Pink Cigarette.wav

Pre-gap length 0:00:01.06

Peak level 100.0 %
Extraction speed 5.2 X
Track quality 100.0 %
Test CRC 467D12E6
Copy CRC 467D12E6
Accurately ripped (confidence 62) [58BED93A] (AR v2)
Copy OK

Track 7

Filename O:\Music\Mr. Bungle - 1999 - California (9 47447-2)\07 - Golem II- The Bionic Vapour Boy.wav

Peak level 100.0 %
Extraction speed 5.1 X
Track quality 100.0 %
Test CRC DA00A27C
Copy CRC DA00A27C
Accurately ripped (confidence 61) [2C6AA662] (AR v2)
Copy OK

Track 8

Filename O:\Music\Mr. Bungle - 1999 - California (9 47447-2)\08 - The Holy Filament.wav

Peak level 100.0 %
Extraction speed 4.7 X
Track quality 100.0 %
Test CRC 3B1F4DE0
Copy CRC 3B1F4DE0
Accurately ripped (confidence 61) [F565632F] (AR v2)
Copy OK

Track 9

Filename O:\Music\Mr. Bungle - 1999 - California (9 47447-2)\09 - Vanity Fair.wav

Peak level 100.0 %
Extraction speed 5.2 X
Track quality 100.0 %
Test CRC 42770EE5
Copy CRC 42770EE5
Accurately ripped (confidence 59) [0D0C7EAA] (AR v2)
Copy OK

Track 10

Filename O:\Music\Mr. Bungle - 1999 - California (9 47447-2)\10 - Goodbye Sober Day.wav

Peak level 100.0 %
Extraction speed 5.2 X
Track quality 100.0 %
Test CRC AD4ACB25
Copy CRC AD4ACB25
Accurately ripped (confidence 61) [DAC3DBA2] (AR v2)
Copy OK


All tracks accurately ripped

No errors occurred

End of status report

–– CUETools DB Plugin V2.1.6

[CTDB TOCID: .0d_oBJia06oMf1pFF7AV.q4r2g-] found
Submit result: .0d_oBJia06oMf1pFF7AV.q4r2g- has been confirmed
Track | CTDB Status
1 | (92/95) Accurately ripped
2 | (93/95) Accurately ripped
3 | (93/95) Accurately ripped
4 | (93/95) Accurately ripped
5 | (93/95) Accurately ripped
6 | (93/95) Accurately ripped
7 | (93/95) Accurately ripped
8 | (93/95) Accurately ripped
9 | (92/95) Accurately ripped
10 | (92/95) Accurately ripped


==== Log checksum E2FA0E1550EFA64746751908959B5953E35B74B8F26478211337940A50C23F7F ====

foobar2000 1.2 / Dynamic Range Meter 1.1.1
log date: 2017-04-07 21:54:24

––––––––––––––––––––––––––––––––––––––––
Analyzed: Mr. Bungle / California
––––––––––––––––––––––––––––––––––––––––

DR Peak RMS Duration Track
––––––––––––––––––––––––––––––––––––––––
DR9 0.00 dB -11.31 dB 5:06 01-Sweet Charity
DR7 0.00 dB -9.50 dB 6:04 02-None Of Them Knew They Were Robots
DR7 0.00 dB -10.99 dB 5:00 03-Retrovertigo
DR7 0.00 dB -9.70 dB 3:55 04-The Air-Conditioned Nightmare
DR7 0.00 dB -9.88 dB 4:10 05-Ars Moriendi
DR9 0.00 dB -11.42 dB 4:56 06-Pink Cigarette
DR8 0.00 dB -10.39 dB 3:34 07-Golem II: The Bionic Vapour Boy
DR9 0.00 dB -11.24 dB 4:04 08-The Holy Filament
DR8 0.00 dB -8.95 dB 2:58 09-Vanity Fair
DR6 0.00 dB -9.46 dB 4:30 10-Goodbye Sober Day
––––––––––––––––––––––––––––––––––––––––

Number of tracks: 10
Official DR value: DR8

Samplerate: 44100 Hz
Channels: 2
Bits per sample: 16
Bitrate: 928 kbps
Codec: FLAC
================================================================================





All thanks to original releaser

More interesting music in My Blog