Subcategories
Tags
Language
Tags

Nat "King" Cole - 1947 Vol. 3 (2000)

Posted By: gribovar
Nat "King" Cole - 1947 Vol. 3 (2000)

Nat "King" Cole - 1947 Vol. 3 (2000)
EAC Rip | FLAC (tracks+.cue+log) - 135 MB | Covers (4 MB) included
Genre: Vocal Jazz | RAR 3% Rec. | Label: Classics Records (CLASSICS1135)

Boasting incredible sound quality and an impressive track listing, 1947, Vol. 3 is a wonderful collection of some of Nat King Cole's finest recordings from the late '40s. Despite his amazing piano playing, Cole's charming voice is the real star of this album. His smooth croon makes overplayed standards like "Dream a Little Dream of Me" feel fresh again. With minimal accompaniment and only one self-penned track (the humorous piano showcase "The Geek"), the arrangements had a lot of potential for failure. But instead these are some excellent renditions of songs that have mostly fallen out of the American public's interest. Anyone looking for a quality collection of Cole's performances, or even a good collection of classic vocal jazz, should definitely try to give this album a listen, as it really is quite good.
Tracklist:
01. Love Nest
02. Dream a Little Dream of Me
03. Then I'll Be Tired of You
04. Money Is Honey
05. Little Girl
06. Who's Telling You Lies
07. No Moon at All
08. I Feel So Smoochie
09. A Boy from Texas - A Girl from Tennessee
10. When You Walked Out with Shoes On
11. That's the Kind of Girl I Dream Of
12. It's the Sentimental Thing to Do
13. I've Only Myself to Blame
14. It's Like Taking Candy from a Baby
15. You've Changed
16. The Geek
17. Confess
18. If I Had You
19. Flo and Joe
20. If You Stub Your Toe on the Moon
21. I'm Gonna Spank My Heart
22. I See by the Papers
23. Return Trip
24. A Woman Always Understands

Total time: 01:09:29

Exact Audio Copy V1.3 from 2. September 2016

EAC extraction logfile from 20. August 2017, 18:28

Nat "King" Cole / 1947 Vol. 3 (The Chronological Classics 1135)

Used drive : HL-DT-STDVDRAM GH24NS95 Adapter: 1 ID: 0

Read mode : Secure
Utilize accurate stream : Yes
Defeat audio cache : Yes
Make use of C2 pointers : No

Read offset correction : 6
Overread into Lead-In and Lead-Out : No
Fill up missing offset samples with silence : Yes
Delete leading and trailing silent blocks : No
Null samples used in CRC calculations : Yes
Used interface : Native Win32 interface for Win NT & 2000
Gap handling : Appended to previous track

Used output format : User Defined Encoder
Selected bitrate : 128 kBit/s
Quality : High
Add ID3 tag : No
Command line compressor : C:\Program Files (x86)\Exact Audio Copy\Flac\flac.exe
Additional command line options : -8 -e -p -V -T "ARTIST=%artist%" -T "TITLE=%title%" -T "ALBUM=%albumtitle%" -T "DATE=%year%" -T "TRACKNUMBER=%tracknr%" -T "GENRE=%genre%" -T "PERFORMER=%albuminterpret%" -T "COMPOSER=%composer%" %haslyrics%–tag-from-file=LYRICS="%lyricsfile%"%haslyrics% -T "ALBUMARTIST=%albumartist%" -T "DISCNUMBER=%cdnumber%" -T "TOTALDISCS=%totalcds%" -T "TOTALTRACKS=%numtracks%" -T "COMMENT=%comment%" %source% -o %dest%


TOC of the extracted CD

Track | Start | Length | Start sector | End sector
––––––––––––––––––––––––––––-
1 | 0:00.32 | 2:35.23 | 32 | 11679
2 | 2:35.55 | 2:51.33 | 11680 | 24537
3 | 5:27.13 | 3:11.06 | 24538 | 38868
4 | 8:38.19 | 2:53.09 | 38869 | 51852
5 | 11:31.28 | 2:25.61 | 51853 | 62788
6 | 13:57.14 | 3:03.14 | 62789 | 76527
7 | 17:00.28 | 2:58.52 | 76528 | 89929
8 | 19:59.05 | 2:40.30 | 89930 | 101959
9 | 22:39.35 | 2:41.27 | 101960 | 114061
10 | 25:20.62 | 2:37.13 | 114062 | 125849
11 | 27:58.00 | 2:24.15 | 125850 | 136664
12 | 30:22.15 | 3:07.42 | 136665 | 150731
13 | 33:29.57 | 3:02.09 | 150732 | 164390
14 | 36:31.66 | 2:47.34 | 164391 | 176949
15 | 39:19.25 | 3:05.16 | 176950 | 190840
16 | 42:24.41 | 3:13.35 | 190841 | 205350
17 | 45:38.01 | 2:58.29 | 205351 | 218729
18 | 48:36.30 | 3:02.71 | 218730 | 232450
19 | 51:39.26 | 2:42.41 | 232451 | 244641
20 | 54:21.67 | 3:22.02 | 244642 | 259793
21 | 57:43.69 | 2:53.61 | 259794 | 272829
22 | 60:37.55 | 2:47.26 | 272830 | 285380
23 | 63:25.06 | 3:01.52 | 285381 | 299007
24 | 66:26.58 | 3:02.46 | 299008 | 312703


Track 1

Filename C:\1947 Vol. 3 (The Chronological Classics 1135)\01 - Love Nest.wav

Pre-gap length 0:00:02.42

Peak level 63.6 %
Extraction speed 0.9 X
Track quality 100.0 %
Test CRC 458EDFFB
Copy CRC 458EDFFB
Accurately ripped (confidence 2) [FD7C6AA6] (AR v2)
Copy OK

Track 2

Filename C:\1947 Vol. 3 (The Chronological Classics 1135)\02 - Dream A Little Dream Of Me.wav

Peak level 67.8 %
Extraction speed 1.0 X
Track quality 100.0 %
Test CRC 3BDBD95C
Copy CRC 3BDBD95C
Accurately ripped (confidence 2) [CB0DCC30] (AR v2)
Copy OK

Track 3

Filename C:\1947 Vol. 3 (The Chronological Classics 1135)\03 - Then I'll Be Tired Of You.wav

Peak level 66.2 %
Extraction speed 1.1 X
Track quality 100.0 %
Test CRC 64D7BD81
Copy CRC 64D7BD81
Accurately ripped (confidence 2) [7B7C095D] (AR v2)
Copy OK

Track 4

Filename C:\1947 Vol. 3 (The Chronological Classics 1135)\04 - Money Is Honey.wav

Peak level 67.9 %
Extraction speed 1.2 X
Track quality 100.0 %
Test CRC DB609CCE
Copy CRC DB609CCE
Accurately ripped (confidence 2) [80C9D96C] (AR v2)
Copy OK

Track 5

Filename C:\1947 Vol. 3 (The Chronological Classics 1135)\05 - Little Girl.wav

Peak level 68.5 %
Extraction speed 1.2 X
Track quality 100.0 %
Test CRC 146A6EE3
Copy CRC 146A6EE3
Accurately ripped (confidence 2) [0087B0F3] (AR v2)
Copy OK

Track 6

Filename C:\1947 Vol. 3 (The Chronological Classics 1135)\06 - Who's Telling You Lies.wav

Peak level 64.5 %
Extraction speed 1.3 X
Track quality 100.0 %
Test CRC F02A25A5
Copy CRC F02A25A5
Accurately ripped (confidence 2) [225A4FD1] (AR v2)
Copy OK

Track 7

Filename C:\1947 Vol. 3 (The Chronological Classics 1135)\07 - No Moon At All.wav

Peak level 66.4 %
Extraction speed 1.4 X
Track quality 100.0 %
Test CRC 65E19889
Copy CRC 65E19889
Accurately ripped (confidence 2) [3736E194] (AR v2)
Copy OK

Track 8

Filename C:\1947 Vol. 3 (The Chronological Classics 1135)\08 - I Feel So Smoochie.wav

Peak level 67.7 %
Extraction speed 1.4 X
Track quality 100.0 %
Test CRC FA950AF1
Copy CRC FA950AF1
Accurately ripped (confidence 2) [9F457C55] (AR v2)
Copy OK

Track 9

Filename C:\1947 Vol. 3 (The Chronological Classics 1135)\09 - A Boy From Texas - A Girl From Tennessee.wav

Peak level 64.7 %
Extraction speed 1.2 X
Track quality 99.9 %
Test CRC 79BA7E8F
Copy CRC 79BA7E8F
Accurately ripped (confidence 2) [01C48723] (AR v2)
Copy OK

Track 10

Filename C:\1947 Vol. 3 (The Chronological Classics 1135)\10 - When You Walked Out With Shoes On.wav

Peak level 68.0 %
Extraction speed 1.5 X
Track quality 100.0 %
Test CRC 03B7D200
Copy CRC 03B7D200
Accurately ripped (confidence 2) [FA63D189] (AR v2)
Copy OK

Track 11

Filename C:\1947 Vol. 3 (The Chronological Classics 1135)\11 - That's The Kind Of Girl I Dream Of.wav

Peak level 68.3 %
Extraction speed 1.5 X
Track quality 100.0 %
Test CRC 5F4BE1C9
Copy CRC 5F4BE1C9
Accurately ripped (confidence 1) [D7D7EE8D] (AR v2)
Copy OK

Track 12

Filename C:\1947 Vol. 3 (The Chronological Classics 1135)\12 - It's The Sentimental Thing To Do.wav

Peak level 67.0 %
Extraction speed 1.4 X
Track quality 99.9 %
Test CRC 58A261B2
Copy CRC 58A261B2
Accurately ripped (confidence 1) [5F9129A0] (AR v2)
Copy OK

Track 13

Filename C:\1947 Vol. 3 (The Chronological Classics 1135)\13 - I've Only Myself To Blame.wav

Peak level 68.1 %
Extraction speed 1.7 X
Track quality 100.0 %
Test CRC 149DF7D8
Copy CRC 149DF7D8
Accurately ripped (confidence 2) [01316343] (AR v2)
Copy OK

Track 14

Filename C:\1947 Vol. 3 (The Chronological Classics 1135)\14 - It's Like Taking Candy From A Baby.wav

Peak level 68.4 %
Extraction speed 1.7 X
Track quality 100.0 %
Test CRC 047BB6B1
Copy CRC 047BB6B1
Accurately ripped (confidence 2) [F6112FB4] (AR v2)
Copy OK

Track 15

Filename C:\1947 Vol. 3 (The Chronological Classics 1135)\15 - You've Changed.wav

Peak level 62.6 %
Extraction speed 1.8 X
Track quality 100.0 %
Test CRC 58A33A77
Copy CRC 58A33A77
Accurately ripped (confidence 2) [A47C5B49] (AR v2)
Copy OK

Track 16

Filename C:\1947 Vol. 3 (The Chronological Classics 1135)\16 - The Geek.wav

Peak level 58.9 %
Extraction speed 1.8 X
Track quality 100.0 %
Test CRC 288AF6F5
Copy CRC 288AF6F5
Accurately ripped (confidence 2) [A03A3773] (AR v2)
Copy OK

Track 17

Filename C:\1947 Vol. 3 (The Chronological Classics 1135)\17 - Confess.wav

Peak level 73.6 %
Extraction speed 1.9 X
Track quality 100.0 %
Test CRC 8B9C8BBA
Copy CRC 8B9C8BBA
Accurately ripped (confidence 2) [62D7314C] (AR v2)
Copy OK

Track 18

Filename C:\1947 Vol. 3 (The Chronological Classics 1135)\18 - If I Had You.wav

Peak level 85.8 %
Extraction speed 1.6 X
Track quality 99.9 %
Test CRC E097A513
Copy CRC E097A513
Accurately ripped (confidence 2) [980BC9E4] (AR v2)
Copy OK

Track 19

Filename C:\1947 Vol. 3 (The Chronological Classics 1135)\19 - Flo And Joe.wav

Peak level 86.9 %
Extraction speed 1.9 X
Track quality 100.0 %
Test CRC B83E5B52
Copy CRC B83E5B52
Accurately ripped (confidence 2) [858C4673] (AR v2)
Copy OK

Track 20

Filename C:\1947 Vol. 3 (The Chronological Classics 1135)\20 - If You Stub Your Toe On The Moon.wav

Peak level 88.2 %
Extraction speed 2.0 X
Track quality 100.0 %
Test CRC EFAEFE22
Copy CRC EFAEFE22
Accurately ripped (confidence 2) [9BE8943A] (AR v2)
Copy OK

Track 21

Filename C:\1947 Vol. 3 (The Chronological Classics 1135)\21 - I'm Gonna Spank My Heart.wav

Peak level 85.9 %
Extraction speed 2.0 X
Track quality 100.0 %
Test CRC 87754872
Copy CRC 87754872
Accurately ripped (confidence 2) [67BB5D87] (AR v2)
Copy OK

Track 22

Filename C:\1947 Vol. 3 (The Chronological Classics 1135)\22 - I See By The Papers.wav

Peak level 75.2 %
Extraction speed 2.0 X
Track quality 100.0 %
Test CRC 5E0A8B20
Copy CRC 5E0A8B20
Accurately ripped (confidence 2) [3C0D9263] (AR v2)
Copy OK

Track 23

Filename C:\1947 Vol. 3 (The Chronological Classics 1135)\23 - Return Trip.wav

Peak level 79.3 %
Extraction speed 2.1 X
Track quality 100.0 %
Test CRC 597AD908
Copy CRC 597AD908
Accurately ripped (confidence 2) [48AFF9EC] (AR v2)
Copy OK

Track 24

Filename C:\1947 Vol. 3 (The Chronological Classics 1135)\24 - A Woman Always Understands.wav

Peak level 95.6 %
Extraction speed 1.8 X
Track quality 99.9 %
Test CRC DE222F1E
Copy CRC DE222F1E
Accurately ripped (confidence 2) [D29C0BE4] (AR v2)
Copy OK


All tracks accurately ripped

No errors occurred

End of status report

–– CUETools DB Plugin V2.1.6

[CTDB TOCID: _eQLUHD8nn63UJDkJ_QS6PhOjCE-] found
Submit result: already submitted
Track | CTDB Status
1 | (2/2) Accurately ripped
2 | (2/2) Accurately ripped
3 | (2/2) Accurately ripped
4 | (2/2) Accurately ripped
5 | (2/2) Accurately ripped
6 | (2/2) Accurately ripped
7 | (2/2) Accurately ripped
8 | (2/2) Accurately ripped
9 | (2/2) Accurately ripped
10 | (2/2) Accurately ripped
11 | (2/2) Accurately ripped
12 | (2/2) Accurately ripped
13 | (2/2) Accurately ripped
14 | (2/2) Accurately ripped
15 | (2/2) Accurately ripped
16 | (2/2) Accurately ripped
17 | (2/2) Accurately ripped
18 | (2/2) Accurately ripped
19 | (2/2) Accurately ripped
20 | (2/2) Accurately ripped
21 | (2/2) Accurately ripped
22 | (2/2) Accurately ripped
23 | (2/2) Accurately ripped
24 | (2/2) Accurately ripped


==== Log checksum D687D7322A6CD630ECC402BF9FEA2174510CA42E2FB3A86AEA49A654595C9B80 ====

[CUETools log; Date: 18.02.2021 17:58:53; Version: 2.1.4]
Pregap length 00:00:32.
[CTDB TOCID: _eQLUHD8nn63UJDkJ_QS6PhOjCE-] found.
Track | CTDB Status
1 | (2/2) Accurately ripped
2 | (2/2) Accurately ripped
3 | (2/2) Accurately ripped
4 | (2/2) Accurately ripped
5 | (2/2) Accurately ripped
6 | (2/2) Accurately ripped
7 | (2/2) Accurately ripped
8 | (2/2) Accurately ripped
9 | (2/2) Accurately ripped
10 | (2/2) Accurately ripped
11 | (2/2) Accurately ripped
12 | (2/2) Accurately ripped
13 | (2/2) Accurately ripped
14 | (2/2) Accurately ripped
15 | (2/2) Accurately ripped
16 | (2/2) Accurately ripped
17 | (2/2) Accurately ripped
18 | (2/2) Accurately ripped
19 | (2/2) Accurately ripped
20 | (2/2) Accurately ripped
21 | (2/2) Accurately ripped
22 | (2/2) Accurately ripped
23 | (2/2) Accurately ripped
24 | (2/2) Accurately ripped
[AccurateRip ID: 003ab971-03fd8b44-40104918] found.
Track [ CRC | V2 ] Status
01 [26131b58|fd7c6aa6] (0+2/2) Accurately ripped
02 [41c0a739|cb0dcc30] (0+2/2) Accurately ripped
03 [e000acf2|7b7c095d] (0+2/2) Accurately ripped
04 [1b2bd0b9|80c9d96c] (0+2/2) Accurately ripped
05 [8e075c27|0087b0f3] (0+2/2) Accurately ripped
06 [dee295ea|225a4fd1] (0+2/2) Accurately ripped
07 [a929c2c9|3736e194] (0+2/2) Accurately ripped
08 [66ebacf3|9f457c55] (0+2/2) Accurately ripped
09 [5f3ac7d0|01c48723] (0+2/2) Accurately ripped
10 [7b7bef49|fa63d189] (0+2/2) Accurately ripped
11 [c73308a3|d7d7ee8d] (0+1/2) Accurately ripped
12 [577dd03f|5f9129a0] (0+1/2) Accurately ripped
13 [c97262db|01316343] (0+2/2) Accurately ripped
14 [e7fc6ea7|f6112fb4] (0+2/2) Accurately ripped
15 [94c11647|a47c5b49] (0+2/2) Accurately ripped
16 [191a7434|a03a3773] (0+2/2) Accurately ripped
17 [2768df26|62d7314c] (0+2/2) Accurately ripped
18 [2eec3014|980bc9e4] (0+2/2) Accurately ripped
19 [3a9f7d0c|858c4673] (0+2/2) Accurately ripped
20 [f34f9de8|9be8943a] (0+2/2) Accurately ripped
21 [c1e238d4|67bb5d87] (0+2/2) Accurately ripped
22 [e8f54bd9|3c0d9263] (0+2/2) Accurately ripped
23 [90981341|48aff9ec] (0+2/2) Accurately ripped
24 [cffa9831|d29c0be4] (0+2/2) Accurately ripped

Track Peak [ CRC32 ] [W/O NULL] [ LOG ]
– 95,6 [6DC4A7FF] [56157E24]
01 63,6 [458EDFFB] [3F3D48BC] CRC32
02 67,8 [3BDBD95C] [55E66736] CRC32
03 66,2 [64D7BD81] [60E1A8E4] CRC32
04 67,9 [DB609CCE] [5FDB9E5E] CRC32
05 68,5 [146A6EE3] [B399632D] CRC32
06 64,5 [F02A25A5] [37831DFF] CRC32
07 66,4 [65E19889] [46D0BB8A] CRC32
08 67,7 [FA950AF1] [17C52AA7] CRC32
09 64,7 [79BA7E8F] [99F329B1] CRC32
10 68,0 [03B7D200] [C401E7EB] CRC32
11 68,3 [5F4BE1C9] [0AF376D9] CRC32
12 67,0 [58A261B2] [9504A8C5] CRC32
13 68,1 [149DF7D8] [345969CB] CRC32
14 68,4 [047BB6B1] [C4EAF2EA] CRC32
15 62,6 [58A33A77] [E13913B8] CRC32
16 58,9 [288AF6F5] [94879D1A] CRC32
17 73,6 [8B9C8BBA] [A5BB4459] CRC32
18 85,8 [E097A513] [4C6E0CC9] CRC32
19 86,9 [B83E5B52] [F72A816B] CRC32
20 88,2 [EFAEFE22] [C9574097] CRC32
21 85,9 [87754872] [C01A6F13] CRC32
22 75,2 [5E0A8B20] [039902D2] CRC32
23 79,3 [597AD908] [ED77DDD2] CRC32
24 95,6 [DE222F1E] [FBAC6812] CRC32

Thanks to sushi

See also: