Tags
Language
Tags

Various Composers - Psycho: The Essential Alfred Hitchcock (1999) [Re-Up]

Posted By: Designol
Various Composers - Psycho: The Essential Alfred Hitchcock (1999) [Re-Up]

Various Composers - Psycho: The Essential Alfred Hitchcock (1999)
The City Of Prague Philharmonic Orchestra, conducted by Paul Bateman

EAC | FLAC | Tracks (Cue&Log) ~ 775 Mb | Mp3 (CBR320) ~ 318 Mb | Scans ~ 74 Mb
Soundtracks, Score, Classical | Label: Silva Screen | # FILMXCD 320 | Time: 02:12:47

Silva Screen Records present earlier composers who were masters of music on Hitchcock films, and later films with Bernard Herrmann on the second CD. The "CONCERTO FOR ORCHESTRA" is Miklos Rozsa's haunting theme which lasts over nine minutes is something from heaven. "STRANGERS ON THE TRAIN" the Dimitri Tiomkin contribution is also an outstanding track which can move the unmoveable with the heart-racing pounding sounds that the two composers generate. Both composers Rozsa and Tiomkin have a list of accomplishments a mile long, but to hear their music on a Hitchcock film is pure geneious in film making and scoring.

The second CD is missing Herrmann's score of the "WRONG MAN". None the less it is nice to see what group of Herrmann's material is here and very well performed. We have some lively music from "TO CATCH A THIEF" and Hitchcock's final films - "TOPAZ", "FRENZY" and "FAMILY PLOT".

I realize Silva couldn't have Tiomkin's "I CONFESS" and Webb's "NOTORIOUS", this collection is very good with what you could fit on two CD's. The album has the fantastic surround sound with quality and creativity. After listening to this collection, you realize you're hearing some of the old masters of film scoring - Waxman, Friedhofer, Rozsa, Poulenc, Addinsell, Tiomkin, Herrmann, Addison, Jarre, Goodwin and John Williams. If you don't know much about the old masters, this would be an excellent place to start.

In closing, this is the kind of album you can fall in love with right from the start. As always, The City Of Prague Philharmonic conducted by Paul Bateman is impeccably performed with brilliant digital sound. The liner notes in a sixteen page booklet, detailing each selection is excellent.

Review by J. Lovins

Various Composers - Psycho: The Essential Alfred Hitchcock (1999) [Re-Up]

Various Composers - Psycho: The Essential Alfred Hitchcock (1999) [Re-Up]




Tracklist:

CD1:

01. Charles Gounod - The Alfred Hitchcock Theme - Funeral March of the Marionette (04:18)
02. Jack Beaver / Louis Levy - 39 Steps - Suite (04:06)
03. Louis Levy / Charles Williams - The Lady Vanishes - Prelude (03:06)
04. Franz Waxman - Rebecca - Suite (07:09)
05. Franz Waxman - Suspicion Prelude/Sunday Morning (04:41)
06. Hugo Friedhofer - Lifeboat - Disaster (incl. 20th Cent. Fox Fanfare) (03:06)
07. Miklos Rozsa - Spellbound - Concerto for Orchestra (09:33)
08. Francis Poulenc / David Buttolph - Rope - Main Titles (02:11)
09. Richard Addinsell - Under Capricorn - Suite (07:06)
10. Leighton Lucas / Philip Lane - Stage Fright - Rhapsody (05:01)
11. Dimitri Tiomkin - Strangers on a Train - Suite (07:48)
12. Dimitri Tiomkin - Dial M for Murder - Suite (07:20)
13. Franz Waxman - Rear Window - Lisa (03:51)

CD2:

01. Lyn Murray (Paramount Vista Vision Fanfare by Nathan Van Cleave) - To Catch a Thief - Suite (Incl. Paramount Vista Vision Fanfare) (05:54)
02. Bernard Herrmann - The Trouble With Harry - Portrait Of Hitch (08:49)
03. Bernard Herrmann - The Man Who Knew Too Much - Prelude (02:17)
04. Bernard Herrmann - Vertigo - Prelude (05:01)
05. Bernard Herrmann - Vertigo - Scene d'Amour (05:11)
06. Bernard Herrmann - North By Northwest - Prelude (03:21)
07. Bernard Herrmann - North By Northwest - Conversation Piece (04:43)
08. Bernard Herrmann - Psycho - Suite for String Orchestra (07:26)
09. Bernard Herrmann - Marnie - Prelude (03:01)
10. Bernard Herrmann - Torn Curtain - Suite from the unused score (06:08)
11. John Addison - Torn Curtain - Main Title (02:21)
12. Maurice Jarre - March from Topaz (02:36)
13. Ron Goodwin - Frenzy - The London Theme (02:30)
14. John Williams - Family Plot - Finale (04:00)


Exact Audio Copy V1.0 beta 3 from 29. August 2011

EAC extraction logfile from 2. October 2013, 13:55

Various / Psycho - The Essential Hitchcock CD1

Used drive : PLEXTOR DVDR PX-L890SA Adapter: 0 ID: 1

Read mode : Secure
Utilize accurate stream : Yes
Defeat audio cache : Yes
Make use of C2 pointers : No

Read offset correction : 6
Overread into Lead-In and Lead-Out : No
Fill up missing offset samples with silence : Yes
Delete leading and trailing silent blocks : No
Null samples used in CRC calculations : Yes
Used interface : Native Win32 interface for Win NT & 2000
Gap handling : Appended to previous track

Used output format : User Defined Encoder
Selected bitrate : 768 kBit/s
Quality : High
Add ID3 tag : No
Command line compressor : C:\Program Files\Exact Audio Copy\FLAC\FLAC.EXE
Additional command line options : -V -8 -T "Genre=%genre%" -T "Artist=%artist%" -T "Title=%title%" -T "Album=%albumtitle%" -T "Date=%year%" -T "Tracknumber=%tracknr%" -T "Comment=%comment%" %source%


TOC of the extracted CD

Track | Start | Length | Start sector | End sector
––––––––––––––––––––––––––––-
1 | 0:00.00 | 4:18.51 | 0 | 19400
2 | 4:18.51 | 4:06.13 | 19401 | 37863
3 | 8:24.64 | 3:06.13 | 37864 | 51826
4 | 11:31.02 | 7:09.68 | 51827 | 84069
5 | 18:40.70 | 4:41.39 | 84070 | 105183
6 | 23:22.34 | 3:06.40 | 105184 | 119173
7 | 26:28.74 | 9:32.72 | 119174 | 162145
8 | 36:01.71 | 2:11.36 | 162146 | 172006
9 | 38:13.32 | 7:06.33 | 172007 | 203989
10 | 45:19.65 | 5:01.10 | 203990 | 226574
11 | 50:21.00 | 7:48.45 | 226575 | 261719
12 | 58:09.45 | 7:20.30 | 261720 | 294749
13 | 65:30.00 | 3:51.48 | 294750 | 312122


Track 1

Filename F:\torrent\Psycho_The Essential Hitchcock\CD 1\01 - Charles Gounod - The Alfred Hitchcock Theme - Funeral March of the Marionette.wav

Pre-gap length 0:00:02.00

Peak level 97.1 %
Extraction speed 5.4 X
Track quality 100.0 %
Test CRC 5D296438
Copy CRC 5D296438
Cannot be verified as accurate (confidence 3) [A3515E44], AccurateRip returned [7A9AD4F6] (AR v2)
Copy OK

Track 2

Filename F:\torrent\Psycho_The Essential Hitchcock\CD 1\02 - Jack Beaver , Louis Levy - 39 Steps - Suite.wav

Peak level 97.2 %
Extraction speed 5.9 X
Track quality 100.0 %
Test CRC 306CD20C
Copy CRC 306CD20C
Cannot be verified as accurate (confidence 3) [621E4695], AccurateRip returned [DB901A18] (AR v2)
Copy OK

Track 3

Filename F:\torrent\Psycho_The Essential Hitchcock\CD 1\03 - Louis Levy , Charles Williams - The Lady Vanishes - Prelude.wav

Peak level 96.9 %
Extraction speed 6.0 X
Track quality 100.0 %
Test CRC 270A0D82
Copy CRC 270A0D82
Cannot be verified as accurate (confidence 2) [C8ED78BD], AccurateRip returned [06DE9B91] (AR v2)
Copy OK

Track 4

Filename F:\torrent\Psycho_The Essential Hitchcock\CD 1\04 - Franz Waxman - Rebecca - Suite.wav

Peak level 96.8 %
Extraction speed 6.8 X
Track quality 99.9 %
Test CRC 6980CDF7
Copy CRC 6980CDF7
Cannot be verified as accurate (confidence 2) [AFB0C9A3], AccurateRip returned [B1B90A54] (AR v2)
Copy OK

Track 5

Filename F:\torrent\Psycho_The Essential Hitchcock\CD 1\05 - Franz Waxman - Suspicion Prelude,Sunday Morning.wav

Peak level 95.7 %
Extraction speed 6.8 X
Track quality 99.9 %
Test CRC C22CA720
Copy CRC C22CA720
Cannot be verified as accurate (confidence 3) [1337246D], AccurateRip returned [6A8B1B3E] (AR v2)
Copy OK

Track 6

Filename F:\torrent\Psycho_The Essential Hitchcock\CD 1\06 - Hugo Friedhofer - Lifeboat - Disaster (incl. 20th Cent. Fox Fanfare).wav

Peak level 98.2 %
Extraction speed 6.4 X
Track quality 99.9 %
Test CRC 96624580
Copy CRC 96624580
Cannot be verified as accurate (confidence 3) [D3EEA175], AccurateRip returned [766FDEC4] (AR v2)
Copy OK

Track 7

Filename F:\torrent\Psycho_The Essential Hitchcock\CD 1\07 - Miklos Rozsa - Spellbound - Concerto for Orchestra.wav

Peak level 96.9 %
Extraction speed 9.1 X
Track quality 100.0 %
Test CRC 833A977E
Copy CRC 833A977E
Cannot be verified as accurate (confidence 3) [6438E32E], AccurateRip returned [E49A75B7] (AR v2)
Copy OK

Track 8

Filename F:\torrent\Psycho_The Essential Hitchcock\CD 1\08 - Francis Poulenc , David Buttolph - Rope - Main Titles.wav

Peak level 96.8 %
Extraction speed 6.5 X
Track quality 99.9 %
Test CRC 1DC9E0D5
Copy CRC 1DC9E0D5
Cannot be verified as accurate (confidence 3) [EB0DAE22], AccurateRip returned [A01DDA29] (AR v2)
Copy OK

Track 9

Filename F:\torrent\Psycho_The Essential Hitchcock\CD 1\09 - Richard Addinsell - Under Capricorn - Suite.wav

Peak level 96.9 %
Extraction speed 9.7 X
Track quality 100.0 %
Test CRC 11B9A2A1
Copy CRC 11B9A2A1
Cannot be verified as accurate (confidence 3) [46020ABC], AccurateRip returned [8DEDABF0] (AR v2)
Copy OK

Track 10

Filename F:\torrent\Psycho_The Essential Hitchcock\CD 1\10 - Leighton Lucas , Philip Lane - Stage Fright - Rhapsody.wav

Peak level 96.6 %
Extraction speed 8.9 X
Track quality 99.9 %
Test CRC AE3FAA53
Copy CRC AE3FAA53
Cannot be verified as accurate (confidence 3) [A9E15451], AccurateRip returned [F0638624] (AR v2)
Copy OK

Track 11

Filename F:\torrent\Psycho_The Essential Hitchcock\CD 1\11 - Dimitri Tiomkin - Strangers on a Train - Suite.wav

Peak level 97.0 %
Extraction speed 10.8 X
Track quality 100.0 %
Test CRC 5D169131
Copy CRC 5D169131
Cannot be verified as accurate (confidence 3) [195E0281], AccurateRip returned [B038FDD7] (AR v2)
Copy OK

Track 12

Filename F:\torrent\Psycho_The Essential Hitchcock\CD 1\12 - Dimitri Tiomkin - Dial M for Murder - Suite.wav

Peak level 96.9 %
Extraction speed 11.3 X
Track quality 100.0 %
Test CRC 22748D97
Copy CRC 22748D97
Cannot be verified as accurate (confidence 3) [AB5AA173], AccurateRip returned [5B2F3119] (AR v2)
Copy OK

Track 13

Filename F:\torrent\Psycho_The Essential Hitchcock\CD 1\13 - Franz Waxman - Rear Window - Lisa.wav

Peak level 63.5 %
Extraction speed 10.8 X
Track quality 100.0 %
Test CRC 9F3F4422
Copy CRC 9F3F4422
Cannot be verified as accurate (confidence 3) [12560216], AccurateRip returned [ADAC515D] (AR v2)
Copy OK


No tracks could be verified as accurate
You may have a different pressing from the one(s) in the database

No errors occurred

End of status report

==== Log checksum 06E538A05BBD27E8C5E08BB0BDBD05C1162ADEFEF127D2D4456023BAFB86D5B8 ====

foobar2000 1.2 / Dynamic Range Meter 1.1.1
log date: 2013-11-09 20:35:19

––––––––––––––––––––––––––––––––––––––––
Analyzed: Charles Gounod / Psycho - The Essential Hitchcock CD1 (1)
Dimitri Tiomkin / Psycho - The Essential Hitchcock CD1 (2-3)
Francis Poulenc / David Buttolph / Psycho - The Essential Hitchcock CD1 (4)
Franz Waxman / Psycho - The Essential Hitchcock CD1 (5-7)
Hugo Friedhofer / Psycho - The Essential Hitchcock CD1 (8)
Jack Beaver / Louis Levy / Psycho - The Essential Hitchcock CD1 (9)
Leighton Lucas / Philip Lane / Psycho - The Essential Hitchcock CD1 (10)
Louis Levy / Charles Williams / Psycho - The Essential Hitchcock CD1 (11)
Miklos Rozsa / Psycho - The Essential Hitchcock CD1 (12)
Richard Addinsell / Psycho - The Essential Hitchcock CD1 (13)
––––––––––––––––––––––––––––––––––––––––

DR Peak RMS Duration Track
––––––––––––––––––––––––––––––––––––––––
DR14 -0.25 dB -18.80 dB 4:19 01-The Alfred Hitchcock Theme - Funeral March of the Marionette
DR9 -0.26 dB -13.37 dB 7:49 11-Strangers on a Train - Suite
DR9 -0.27 dB -13.41 dB 7:20 12-Dial M for Murder - Suite
DR10 -0.28 dB -15.00 dB 2:11 08-Rope - Main Titles
DR8 -0.28 dB -12.01 dB 7:10 04-Rebecca - Suite
DR10 -0.38 dB -15.49 dB 4:42 05-Suspicion Prelude/Sunday Morning
DR11 -3.94 dB -19.96 dB 3:52 13-Rear Window - Lisa
DR9 -0.15 dB -12.65 dB 3:07 06-Lifeboat - Disaster (incl. 20th Cent. Fox Fanfare)
DR7 -0.24 dB -12.12 dB 4:06 02-39 Steps - Suite
DR11 -0.29 dB -15.95 dB 5:01 10-Stage Fright - Rhapsody
DR9 -0.27 dB -12.81 dB 3:06 03-The Lady Vanishes - Prelude
DR8 -0.27 dB -11.64 dB 9:33 07-Spellbound - Concerto for Orchestra
DR9 -0.27 dB -13.11 dB 7:06 09-Under Capricorn - Suite
––––––––––––––––––––––––––––––––––––––––

Number of tracks: 13
Official DR value: DR9

Samplerate: 44100 Hz
Channels: 2
Bits per sample: 16
Bitrate: 810 kbps
Codec: FLAC
================================================================================


Exact Audio Copy V1.0 beta 3 from 29. August 2011

EAC extraction logfile from 2. October 2013, 15:54

Various / Psycho - The Essential Hitchcock CD2

Used drive : PLEXTOR DVDR PX-L890SA Adapter: 0 ID: 1

Read mode : Secure
Utilize accurate stream : Yes
Defeat audio cache : Yes
Make use of C2 pointers : No

Read offset correction : 6
Overread into Lead-In and Lead-Out : No
Fill up missing offset samples with silence : Yes
Delete leading and trailing silent blocks : No
Null samples used in CRC calculations : Yes
Used interface : Native Win32 interface for Win NT & 2000
Gap handling : Appended to previous track

Used output format : User Defined Encoder
Selected bitrate : 768 kBit/s
Quality : High
Add ID3 tag : No
Command line compressor : C:\Program Files\Exact Audio Copy\FLAC\FLAC.EXE
Additional command line options : -V -8 -T "Genre=%genre%" -T "Artist=%artist%" -T "Title=%title%" -T "Album=%albumtitle%" -T "Date=%year%" -T "Tracknumber=%tracknr%" -T "Comment=%comment%" %source%


TOC of the extracted CD

Track | Start | Length | Start sector | End sector
––––––––––––––––––––––––––––-
1 | 0:00.00 | 5:54.29 | 0 | 26578
2 | 5:54.29 | 8:49.22 | 26579 | 66275
3 | 14:43.51 | 2:17.51 | 66276 | 76601
4 | 17:01.27 | 5:01.18 | 76602 | 99194
5 | 22:02.45 | 5:11.29 | 99195 | 122548
6 | 27:13.74 | 3:21.52 | 122549 | 137675
7 | 30:35.51 | 4:43.25 | 137676 | 158925
8 | 35:19.01 | 7:26.26 | 158926 | 192401
9 | 42:45.27 | 3:01.38 | 192402 | 206014
10 | 45:46.65 | 6:08.37 | 206015 | 233651
11 | 51:55.27 | 2:21.40 | 233652 | 244266
12 | 54:16.67 | 2:36.53 | 244267 | 256019
13 | 56:53.45 | 2:30.27 | 256020 | 267296
14 | 59:23.72 | 4:00.03 | 267297 | 285299


Track 1

Filename F:\torrent\Psycho_The Essential Hitchcock\CD 2\01 - Lyn Murray (Paramount Vista Vision Fanfare by Nathan Van Cleave) - To Catch a Thief - Suite (Incl. Paramount Vista Vision Fanfare).wav

Pre-gap length 0:00:02.00

Peak level 96.1 %
Extraction speed 5.4 X
Track quality 100.0 %
Test CRC 0A1C99E0
Copy CRC 0A1C99E0
Cannot be verified as accurate (confidence 3) [5E2C99B3], AccurateRip returned [ADF9678F] (AR v2)
Copy OK

Track 2

Filename F:\torrent\Psycho_The Essential Hitchcock\CD 2\02 - Bernard Herrmann - The Trouble With Harry - Portrait Of Hitch.wav

Peak level 97.2 %
Extraction speed 6.6 X
Track quality 100.0 %
Test CRC B04AC354
Copy CRC B04AC354
Cannot be verified as accurate (confidence 3) [E5B0F3A2], AccurateRip returned [95D8AE44] (AR v2)
Copy OK

Track 3

Filename F:\torrent\Psycho_The Essential Hitchcock\CD 2\03 - Bernard Herrmann - The Man Who Knew Too Much - Prelude.wav

Peak level 97.2 %
Extraction speed 6.0 X
Track quality 100.0 %
Test CRC B93267D3
Copy CRC B93267D3
Cannot be verified as accurate (confidence 3) [B44A59BA], AccurateRip returned [6A8D36F2] (AR v2)
Copy OK

Track 4

Filename F:\torrent\Psycho_The Essential Hitchcock\CD 2\04 - Bernard Herrmann - Vertigo - Prelude.wav

Peak level 97.1 %
Extraction speed 7.2 X
Track quality 100.0 %
Test CRC FB63C8AC
Copy CRC FB63C8AC
Cannot be verified as accurate (confidence 3) [54616951], AccurateRip returned [6C1F2D64] (AR v2)
Copy OK

Track 5

Filename F:\torrent\Psycho_The Essential Hitchcock\CD 2\05 - Bernard Herrmann - Vertigo - Scene d'Amour.wav

Peak level 97.2 %
Extraction speed 7.0 X
Track quality 99.9 %
Test CRC 3C23A865
Copy CRC 3C23A865
Cannot be verified as accurate (confidence 3) [00C0A514], AccurateRip returned [9FB85642] (AR v2)
Copy OK

Track 6

Filename F:\torrent\Psycho_The Essential Hitchcock\CD 2\06 - Bernard Herrmann - North By Northwest - Prelude.wav

Peak level 97.2 %
Extraction speed 7.6 X
Track quality 100.0 %
Test CRC 57C573B0
Copy CRC 57C573B0
Cannot be verified as accurate (confidence 3) [AAE01D14], AccurateRip returned [3BDCD529] (AR v2)
Copy OK

Track 7

Filename F:\torrent\Psycho_The Essential Hitchcock\CD 2\07 - Bernard Herrmann - North By Northwest - Conversation Piece.wav

Peak level 76.3 %
Extraction speed 8.3 X
Track quality 100.0 %
Test CRC BA9B8531
Copy CRC BA9B8531
Cannot be verified as accurate (confidence 2) [A9B9A656], AccurateRip returned [ED7C7FEF] (AR v2)
Copy OK

Track 8

Filename F:\torrent\Psycho_The Essential Hitchcock\CD 2\08 - Bernard Herrmann - Psycho - Suite for String Orchestra.wav

Peak level 96.5 %
Extraction speed 9.1 X
Track quality 100.0 %
Test CRC FA131E0A
Copy CRC FA131E0A
Cannot be verified as accurate (confidence 2) [46D42262], AccurateRip returned [A0367EAE] (AR v2)
Copy OK

Track 9

Filename F:\torrent\Psycho_The Essential Hitchcock\CD 2\09 - Bernard Herrmann - Marnie - Prelude.wav

Peak level 96.5 %
Extraction speed 8.5 X
Track quality 100.0 %
Test CRC 94FDB14E
Copy CRC 94FDB14E
Cannot be verified as accurate (confidence 3) [197A0CC6], AccurateRip returned [092D328B] (AR v2)
Copy OK

Track 10

Filename F:\torrent\Psycho_The Essential Hitchcock\CD 2\10 - Bernard Herrmann - Torn Curtain - Suite from the unused score.wav

Peak level 97.4 %
Extraction speed 8.9 X
Track quality 99.9 %
Test CRC E1ECAE5C
Copy CRC E1ECAE5C
Cannot be verified as accurate (confidence 3) [37EC0EDF], AccurateRip returned [AA36A341] (AR v2)
Copy OK

Track 11

Filename F:\torrent\Psycho_The Essential Hitchcock\CD 2\11 - John Addison - Torn Curtain - Main Title.wav

Peak level 95.8 %
Extraction speed 8.7 X
Track quality 100.0 %
Test CRC 0EB295D6
Copy CRC 0EB295D6
Cannot be verified as accurate (confidence 3) [1CE56EBC], AccurateRip returned [AD4AEBA5] (AR v2)
Copy OK

Track 12

Filename F:\torrent\Psycho_The Essential Hitchcock\CD 2\12 - Maurice Jarre - March from Topaz.wav

Peak level 96.5 %
Extraction speed 7.6 X
Track quality 99.9 %
Test CRC 7732C8C0
Copy CRC 7732C8C0
Cannot be verified as accurate (confidence 3) [1E824A9A], AccurateRip returned [94D9FE0D] (AR v2)
Copy OK

Track 13

Filename F:\torrent\Psycho_The Essential Hitchcock\CD 2\13 - Ron Goodwin - Frenzy - The London Theme.wav

Peak level 96.9 %
Extraction speed 7.7 X
Track quality 99.9 %
Test CRC A09B1FDD
Copy CRC A09B1FDD
Cannot be verified as accurate (confidence 3) [F5F7BE6D], AccurateRip returned [42053EC2] (AR v2)
Copy OK

Track 14

Filename F:\torrent\Psycho_The Essential Hitchcock\CD 2\14 - John Williams - Family Plot - Finale.wav

Peak level 95.9 %
Extraction speed 8.8 X
Track quality 99.9 %
Test CRC 19C2BD7D
Copy CRC 19C2BD7D
Cannot be verified as accurate (confidence 3) [9CDF3268], AccurateRip returned [71569AB5] (AR v2)
Copy OK


No tracks could be verified as accurate
You may have a different pressing from the one(s) in the database

No errors occurred

End of status report

==== Log checksum 8B40119443BD81C6DEBDFD2DFABE0ACD6EF470B3897979D7979D8FBE4220EB1D ====

foobar2000 1.2 / Dynamic Range Meter 1.1.1
log date: 2013-11-09 20:35:36

––––––––––––––––––––––––––––––––––––––––
Analyzed: Bernard Herrmann / Psycho - The Essential Hitchcock CD2 (1-9)
John Addison / Psycho - The Essential Hitchcock CD2 (10)
John Williams / Psycho - The Essential Hitchcock CD2 (11)
Lyn Murray (Paramount Vista Vision Fanfare by Nathan Van Cleave) / Psycho - The Essential Hitchcock CD2 (12)
Maurice Jarre / Psycho - The Essential Hitchcock CD2 (13)
Ron Goodwin / Psycho - The Essential Hitchcock CD2 (14)
––––––––––––––––––––––––––––––––––––––––

DR Peak RMS Duration Track
––––––––––––––––––––––––––––––––––––––––
DR15 -0.24 dB -20.57 dB 8:49 02-The Trouble With Harry - Portrait Of Hitch
DR7 -0.24 dB -10.20 dB 2:18 03-The Man Who Knew Too Much - Prelude
DR9 -0.25 dB -14.02 dB 5:01 04-Vertigo - Prelude
DR8 -0.24 dB -13.21 dB 5:11 05-Vertigo - Scene d'Amour
DR8 -0.24 dB -10.91 dB 3:22 06-North By Northwest - Prelude
DR13 -2.34 dB -20.54 dB 4:43 07-North By Northwest - Conversation Piece
DR13 -0.30 dB -17.52 dB 7:26 08-Psycho - Suite for String Orchestra
DR10 -0.30 dB -13.18 dB 3:02 09-Marnie - Prelude
DR9 -0.23 dB -12.88 dB 6:08 10-Torn Curtain - Suite from the unused score
DR8 -0.37 dB -10.86 dB 2:22 11-Torn Curtain - Main Title
DR12 -0.36 dB -16.30 dB 4:00 14-Family Plot - Finale
DR10 -0.34 dB -14.65 dB 5:54 01-To Catch a Thief - Suite (Incl. Paramount Vista Vision Fanfare)
DR9 -0.31 dB -11.69 dB 2:37 12-March from Topaz
DR8 -0.27 dB -11.07 dB 2:30 13-Frenzy - The London Theme
––––––––––––––––––––––––––––––––––––––––

Number of tracks: 14
Official DR value: DR10

Samplerate: 44100 Hz
Channels: 2
Bits per sample: 16
Bitrate: 868 kbps
Codec: FLAC
================================================================================

Various Composers - Psycho: The Essential Alfred Hitchcock (1999) [Re-Up]

Various Composers - Psycho: The Essential Alfred Hitchcock (1999) [Re-Up]

All thanks to original releaser - Sarant

More interesting music in My Blog