Subcategories
Tags
Language
Tags

Ryuichi Sakamoto - Sweet Revenge (1994) Japanese Edition [Re-Up]

Posted By: Designol
Ryuichi Sakamoto - Sweet Revenge (1994) Japanese Edition [Re-Up]

Ryuichi Sakamoto - Sweet Revenge (1994) Japanese Edition
EAC | FLAC | Tracks (Cue&Log) ~ 333 Mb | Mp3 (CBR320) ~ 138 Mb | Scans ~ 122 Mb
Label: ForLife Music | # FLCG-3128 | Time: 01:00:18
Experimental Pop, Electronic, World Fusion

Sweet Revenge is an amazingly sophisticated album in which Sakamoto sets the distinctive and heart-rending chordal and harmonic ideas of his soundtrack work to trip-hop and neo-bossa-nova beats. The songs are fronted by a succession of guest vocalists who each contribute lyrics which add up to an amazingly coherent whole–a mature meditation on love, longing, conflict, revenge and regret. As usual, Sakamoto was ahead of his time. By spotlighting the deep poetry of J-ME and Latasha Natasha Diggs, this 1994 album anticipated by years the introspective hip-hop diva trend popularized by Lauryn Hill.

This is a moody album, by turns dark and sublime. It seems to age better than his equally brilliant 80s pop efforts like Neo-Geo, which can sound pretty dated in spots. With this in mind, I'll venture that this is Sakamoto's best pop album since YMO.

Review by Mactra, Amazon.com

Ryuichi Sakamoto at Allmusic
Ryuichi Sakamoto Wiki

Tracklist:

01. Tokyo Story (01:17)
02. Moving On (05:41)
03. Sentimental (05:56)
04. Regret (05:39)
05. Pounding at My Heart (05:30)
06. Love and Hate (05:29)
07. Sweet Revenge (04:09)
08. 7 Seconds (03:33)
09. Anna (04:46)
10. Same Dream, Same Destination (04:04)
11. Psychedelic Afternoon (04:10)
12. Interruptions (04:47)
13. Water's Edge (05:12)


Exact Audio Copy V0.99 prebeta 4 from 23. January 2008

EAC extraction logfile from 1. May 2009, 2:04

Ryuichi Sakamoto / Sweet Revenge

Used drive : HL-DT-STDVDRAM GSA-T20N Adapter: 1 ID: 0

Read mode : Secure
Utilize accurate stream : Yes
Defeat audio cache : Yes
Make use of C2 pointers : No

Read offset correction : 667
Overread into Lead-In and Lead-Out : No
Fill up missing offset samples with silence : Yes
Delete leading and trailing silent blocks : No
Null samples used in CRC calculations : Yes
Used interface : Native Win32 interface for Win NT & 2000
Gap handling : Appended to previous track

Used output format : User Defined Encoder
Selected bitrate : 1024 kBit/s
Quality : High
Add ID3 tag : No
Command line compressor : C:\Program Files\FLAC\flac.exe
Additional command line options : -8 -V -T "ARTIST=%a" -T "TITLE=%t" -T "ALBUM=%g" -T "DATE=%y" -T "TRACKNUMBER=%n" -T "GENRE=%m" -T "COMMENT=EAC FLAC -8" %s


TOC of the extracted CD

Track | Start | Length | Start sector | End sector
––––––––––––––––––––––––––––-
1 | 0:00.00 | 1:16.70 | 0 | 5769
2 | 1:16.70 | 5:41.22 | 5770 | 31366
3 | 6:58.17 | 5:56.55 | 31367 | 58121
4 | 12:54.72 | 5:39.23 | 58122 | 83569
5 | 18:34.20 | 5:30.00 | 83570 | 108319
6 | 24:04.20 | 5:29.12 | 108320 | 133006
7 | 29:33.32 | 4:09.48 | 133007 | 151729
8 | 33:43.05 | 3:33.50 | 151730 | 167754
9 | 37:16.55 | 4:46.45 | 167755 | 189249
10 | 42:03.25 | 4:04.42 | 189250 | 207591
11 | 46:07.67 | 4:10.25 | 207592 | 226366
12 | 50:18.17 | 4:47.08 | 226367 | 247899
13 | 55:05.25 | 5:12.27 | 247900 | 271326


Track 1

Filename C:\Ryuichi Sakamoto - Sweet Revenge (Japan Edition) (1994) [FLAC] {ForLife Music Entertainment, FLCG-3128}\01 - Tokyo Story.wav

Pre-gap length 0:00:02.00

Peak level 98.8 %
Track quality 100.0 %
Test CRC A4F6E3C6
Copy CRC A4F6E3C6
Track not present in AccurateRip database
Copy OK

Track 2

Filename C:\Ryuichi Sakamoto - Sweet Revenge (Japan Edition) (1994) [FLAC] {ForLife Music Entertainment, FLCG-3128}\02 - Moving On.wav

Peak level 98.8 %
Track quality 100.0 %
Test CRC EE4F6B69
Copy CRC EE4F6B69
Track not present in AccurateRip database
Copy OK

Track 3

Filename C:\Ryuichi Sakamoto - Sweet Revenge (Japan Edition) (1994) [FLAC] {ForLife Music Entertainment, FLCG-3128}\03 - Sentimental.wav

Peak level 98.8 %
Track quality 100.0 %
Test CRC 8BDA0AFF
Copy CRC 8BDA0AFF
Track not present in AccurateRip database
Copy OK

Track 4

Filename C:\Ryuichi Sakamoto - Sweet Revenge (Japan Edition) (1994) [FLAC] {ForLife Music Entertainment, FLCG-3128}\04 - Regret.wav

Peak level 98.8 %
Track quality 100.0 %
Test CRC 50EDAD83
Copy CRC 50EDAD83
Track not present in AccurateRip database
Copy OK

Track 5

Filename C:\Ryuichi Sakamoto - Sweet Revenge (Japan Edition) (1994) [FLAC] {ForLife Music Entertainment, FLCG-3128}\05 - Pounding at My Heart.wav

Peak level 94.3 %
Track quality 100.0 %
Test CRC C6EDC1DC
Copy CRC C6EDC1DC
Track not present in AccurateRip database
Copy OK

Track 6

Filename C:\Ryuichi Sakamoto - Sweet Revenge (Japan Edition) (1994) [FLAC] {ForLife Music Entertainment, FLCG-3128}\06 - Love and Hate.wav

Peak level 98.8 %
Track quality 100.0 %
Test CRC 4F2E9CE1
Copy CRC 4F2E9CE1
Track not present in AccurateRip database
Copy OK

Track 7

Filename C:\Ryuichi Sakamoto - Sweet Revenge (Japan Edition) (1994) [FLAC] {ForLife Music Entertainment, FLCG-3128}\07 - Sweet Revenge.wav

Peak level 98.3 %
Track quality 100.0 %
Test CRC A540BE5E
Copy CRC A540BE5E
Track not present in AccurateRip database
Copy OK

Track 8

Filename C:\Ryuichi Sakamoto - Sweet Revenge (Japan Edition) (1994) [FLAC] {ForLife Music Entertainment, FLCG-3128}\08 - 7 Seconds.wav

Peak level 98.8 %
Track quality 100.0 %
Test CRC F77F3127
Copy CRC F77F3127
Track not present in AccurateRip database
Copy OK

Track 9

Filename C:\Ryuichi Sakamoto - Sweet Revenge (Japan Edition) (1994) [FLAC] {ForLife Music Entertainment, FLCG-3128}\09 - Anna.wav

Peak level 98.8 %
Track quality 100.0 %
Test CRC C55B09AF
Copy CRC C55B09AF
Track not present in AccurateRip database
Copy OK

Track 10

Filename C:\Ryuichi Sakamoto - Sweet Revenge (Japan Edition) (1994) [FLAC] {ForLife Music Entertainment, FLCG-3128}\10 - Same Dream, Same Destination.wav

Peak level 98.8 %
Track quality 100.0 %
Test CRC A0CD98D9
Copy CRC A0CD98D9
Track not present in AccurateRip database
Copy OK

Track 11

Filename C:\Ryuichi Sakamoto - Sweet Revenge (Japan Edition) (1994) [FLAC] {ForLife Music Entertainment, FLCG-3128}\11 - Psychedelic Afternoon.wav

Peak level 98.8 %
Track quality 100.0 %
Test CRC A7C51030
Copy CRC A7C51030
Track not present in AccurateRip database
Copy OK

Track 12

Filename C:\Ryuichi Sakamoto - Sweet Revenge (Japan Edition) (1994) [FLAC] {ForLife Music Entertainment, FLCG-3128}\12 - Interruptions.wav

Peak level 95.7 %
Track quality 100.0 %
Test CRC 1B763624
Copy CRC 1B763624
Track not present in AccurateRip database
Copy OK

Track 13

Filename C:\Ryuichi Sakamoto - Sweet Revenge (Japan Edition) (1994) [FLAC] {ForLife Music Entertainment, FLCG-3128}\13 - Water's Edge.wav

Peak level 98.8 %
Track quality 100.0 %
Test CRC A10342A2
Copy CRC A10342A2
Track not present in AccurateRip database
Copy OK


None of the tracks are present in the AccurateRip database

No errors occurred

End of status report

foobar2000 1.2 / Dynamic Range Meter 1.1.1
log date: 2013-03-31 13:00:52

––––––––––––––––––––––––––––––––––––––––
Analyzed: Ryuichi Sakamoto / Sweet Revenge
––––––––––––––––––––––––––––––––––––––––

DR Peak RMS Duration Track
––––––––––––––––––––––––––––––––––––––––
DR13 -0.10 dB -16.35 dB 1:17 01-Tokyo Story
DR12 -0.10 dB -12.72 dB 5:41 02-Moving On
DR10 -0.10 dB -11.82 dB 5:57 03-Sentimental
DR9 -0.10 dB -11.37 dB 5:39 04-Regret
DR12 -0.51 dB -15.60 dB 5:30 05-Pounding at My Heart
DR14 -0.10 dB -16.15 dB 5:29 06-Love and Hate
DR12 -0.15 dB -16.40 dB 4:10 07-Sweet Revenge
DR14 -0.10 dB -15.75 dB 3:34 08-7 Seconds
DR12 -0.10 dB -14.32 dB 4:47 09-Anna
DR10 -0.10 dB -11.56 dB 4:05 10-Same Dream, Same Destination
DR10 -0.10 dB -11.94 dB 4:10 11-Psychedelic Afternoon
DR11 -0.38 dB -14.31 dB 4:47 12-Interruptions
DR8 -0.10 dB -11.27 dB 5:12 13-Water's Edge
––––––––––––––––––––––––––––––––––––––––

Number of tracks: 13
Official DR value: DR11

Samplerate: 44100 Hz
Channels: 2
Bits per sample: 16
Bitrate: 721 kbps
Codec: FLAC
================================================================================

Ryuichi Sakamoto - Sweet Revenge (1994) Japanese Edition [Re-Up]

Ryuichi Sakamoto - Sweet Revenge (1994) Japanese Edition [Re-Up]

All thanks to original releaser - yorrik90

More interesting music in My Blog