Subcategories
Tags
Language
Tags

Sade - Stronger Than Pride (1988)

Posted By: v3122
Sade - Stronger Than Pride (1988)

Sade - Stronger Than Pride (1988)
EAC | Flac(Image) + Cue + Log & MP3 CBR 320Kbps
2000 | Epic EK 85242 | USA for Mexico | ~ 274 or 113 Mb | Artwork(jpg) -> 41 Mb
Downtempo, Smooth Jazz, Soul, Synth-pop

After two LPs with little or no energy, Sade demonstrated some intensity and fire on her third release. Whether that was just an attempt to change the pace a bit or a genuine new direction, she had more animation in her delivery on such songs as "Haunt Me," "Give It Up," and the hit "Paradise." Not that she was suddenly singing in a soulful or bluesy manner; rather, Sade's dry and introspective tone now had a little more edge, and the lyrics were ironic as well as reflective. This was her third consecutive multi-platinum album, and it matched the two-million-plus sales level of her debut.

by Ron Wynn, allmusic
Sade - Stronger Than Pride (1988):

Sade - Stronger Than Pride (1988)

Tracklist:

01. Love Is Stronger Than Pride 4:20
02. Paradise 4:05
03. Nothing Can Come Between Us 4:26
04. Haunt Me 5:53
05. Turn My Back On You 6:09
06. Keep Looking 5:24
07. Clean Heart 4:04
08. Give It Up 3:53
09. I Never Thought I'd See The Day 4:16
10. Siempre Hay Esperanza 5:16

Exact Audio Copy V1.6 from 23. October 2020

EAC extraction logfile from 15. March 2021, 17:46

Sade / Stronger Than Pride (EK 85242)

Used drive : ASUS DRW-24D5MT Adapter: 1 ID: 0

Read mode : Secure
Utilize accurate stream : Yes
Defeat audio cache : Yes
Make use of C2 pointers : No

Read offset correction : 6
Overread into Lead-In and Lead-Out : No
Fill up missing offset samples with silence : Yes
Delete leading and trailing silent blocks : No
Null samples used in CRC calculations : Yes
Used interface : Native Win32 interface for Win NT & 2000

Used output format : User Defined Encoder
Selected bitrate : 768 kBit/s
Quality : High
Add ID3 tag : No
Command line compressor : C:\Program Files (x86)\Exact Audio Copy\Flac\flac.exe
Additional command line options : -V -8 -T "Genre=%genre%" -T "Artist=%artist%" -T "Title=%title%" -T "Album=%albumtitle%" -T "Date=%year%" -T "Tracknumber=%tracknr%" -T "Comment=%comment%" %source%


TOC of the extracted CD

Track | Start | Length | Start sector | End sector
––––––––––––––––––––––––––––-
1 | 0:00.00 | 4:20.17 | 0 | 19516
2 | 4:20.17 | 4:05.05 | 19517 | 37896
3 | 8:25.22 | 4:25.53 | 37897 | 57824
4 | 12:51.00 | 5:53.30 | 57825 | 84329
5 | 18:44.30 | 6:09.17 | 84330 | 112021
6 | 24:53.47 | 5:24.23 | 112022 | 136344
7 | 30:17.70 | 4:04.17 | 136345 | 154661
8 | 34:22.12 | 3:52.55 | 154662 | 172116
9 | 38:14.67 | 4:16.05 | 172117 | 191321
10 | 42:30.72 | 5:15.73 | 191322 | 215019


Range status and errors

Selected range

Filename I:\dafnaplus\Sade - Stronger Than Pride\Sade - Stronger Than Pride (EK 85242).wav

Peak level 99.8 %
Extraction speed 6.7 X
Range quality 100.0 %
Test CRC 9ABEA584
Copy CRC 9ABEA584
Copy OK

No errors occurred


AccurateRip summary

Track 1 accurately ripped (confidence 38) [CCC67DC4] (AR v2)
Track 2 accurately ripped (confidence 38) [3F6FF6FF] (AR v2)
Track 3 accurately ripped (confidence 37) [68095D65] (AR v2)
Track 4 accurately ripped (confidence 38) [E04C0249] (AR v2)
Track 5 accurately ripped (confidence 38) [F1E2CD72] (AR v2)
Track 6 accurately ripped (confidence 38) [085473B8] (AR v2)
Track 7 accurately ripped (confidence 37) [289389B2] (AR v2)
Track 8 accurately ripped (confidence 38) [19CD5D5D] (AR v2)
Track 9 accurately ripped (confidence 38) [F6141E41] (AR v2)
Track 10 accurately ripped (confidence 38) [3FCB8BF2] (AR v2)

All tracks accurately ripped

End of status report

–– CUETools DB Plugin V2.1.6

[CTDB TOCID: BoQdKzfGXQQfOxZuhRrmB.j4ulc-] found
Submit result: already submitted
Track | CTDB Status
1 | (548/550) Accurately ripped
2 | (547/550) Accurately ripped
3 | (546/550) Accurately ripped
4 | (548/550) Accurately ripped
5 | (541/550) Accurately ripped, or (4/550) differs in 4 samples @00:00:28,06:06:12-06:06:16,06:06:25
6 | (546/550) Accurately ripped
7 | (544/550) Accurately ripped
8 | (543/550) Accurately ripped, or (4/550) differs in 1 samples @03:50:10
9 | (546/550) Accurately ripped
10 | (543/550) Accurately ripped, or (4/550) differs in 3 samples @05:14:59-05:14:62


==== Log checksum AAA5C935CEDFBF787489D9501A59B62946D81408515405105FEBFEDB498B64BF ====


[CUETools log; Date: 11.06.2021 9:02:22; Version: 2.1.4]
[AccurateRip ID: 00120581-0090e9b4-860b320a] found.
Track [ CRC | V2 ] Status
01 [9ad85582|ccc67dc4] (011+040/358) Accurately ripped
02 [10e1992d|3f6ff6ff] (011+039/357) Accurately ripped
03 [23167f20|68095d65] (011+038/357) Accurately ripped
04 [fa720dd5|e04c0249] (011+040/357) Accurately ripped
05 [8d290477|f1e2cd72] (011+040/355) Accurately ripped
06 [2e821f42|085473b8] (011+040/356) Accurately ripped
07 [7e39aff9|289389b2] (011+039/355) Accurately ripped
08 [4ae0f432|19cd5d5d] (011+040/356) Accurately ripped
09 [21056c9a|f6141e41] (011+040/356) Accurately ripped
10 [5f7dfd72|3fcb8bf2] (011+040/356) Accurately ripped
Offsetted by -610:
01 [1fdd673a] (004/358) Accurately ripped
02 [0dd60e57] (004/357) Accurately ripped
03 [7b98b50c] (004/357) Accurately ripped
04 [622ce21b] (004/357) Accurately ripped
05 [530c83d7] (004/355) Accurately ripped
06 [b26bc068] (004/356) Accurately ripped
07 [716715b1] (004/355) Accurately ripped
08 [cff33da2] (004/356) Accurately ripped
09 [5d366e62] (004/356) Accurately ripped
10 [0c00aaf4] (004/356) Accurately ripped
Offsetted by -544:
01 [bf378102] (083/358) Accurately ripped
02 [67f9b7cd] (084/357) Accurately ripped
03 [e42bc5e0] (084/357) Accurately ripped
04 [b9fea635] (083/357) Accurately ripped
05 [10503a77] (082/355) Accurately ripped
06 [0807c5a2] (083/356) Accurately ripped
07 [0ab61b79] (083/355) Accurately ripped
08 [91b5ab32] (084/356) Accurately ripped
09 [7c78791a] (083/356) Accurately ripped
10 [cb2c7192] (082/356) Accurately ripped
Offsetted by 617:
01 [f82e4686] (009/358) Accurately ripped
02 [8255c580] (009/357) Accurately ripped
03 [08183f5a] (009/357) Accurately ripped
04 [ab8b888a] (009/357) Accurately ripped
05 [d7775e47] (009/355) Accurately ripped
06 [2fcbf307] (009/356) Accurately ripped
07 [650146fd] (009/355) Accurately ripped
08 [90a91b3a] (008/356) Accurately ripped
09 [7f6aefd6] (009/356) Accurately ripped
10 [d6c5c5f9] (008/356) Accurately ripped
Offsetted by -374:
01 [13d9c36a] (000/358) No match (V2 was not tested)
02 [bcc22e3b] (000/357) No match (V2 was not tested)
03 [27d51fc4] (000/357) No match (V2 was not tested)
04 [5e22b697] (000/357) No match (V2 was not tested)
05 [0753f997] (000/355) No match (V2 was not tested)
06 [f40e01a4] (000/356) No match (V2 was not tested)
07 [6ecf39e1] (000/355) No match (V2 was not tested)
08 [ab933202] (000/356) No match (V2 was not tested)
09 [6fe48532] (000/356) No match (V2 was not tested)
10 [7985ed48] (000/356) No match (V2 was not tested)

Track Peak [ CRC32 ] [W/O NULL] [ LOG ]
– 99,8 [9ABEA584] [19EB52A6] CRC32
01 99,8 [CBFEB9D8] [0AF943ED]
02 99,8 [9CD42296] [AA5C5913]
03 99,8 [E653F2C2] [A05FB399]
04 99,8 [3AF1EEFC] [04BADFEF]
05 99,8 [6D1BAABD] [B354B134]
06 99,8 [EF9CDB2B] [C941575D]
07 99,8 [662E0D35] [D38F248C]
08 99,8 [CF129853] [4299D8EF]
09 94,3 [23A8167F] [D8ABBD39]
10 99,8 [F51DCAE5] [AD4F96A9]


Sade - Stronger Than Pride (1988)

All thanks go to the original releaser

Sade in my Blog

Download Sade - Stronger Than Pride (1988):