Subcategories
Tags
Language
Tags

Shakin' Stevens - Fire In The Blood: The Definitive Collection (2020) {19CD Deluxe Box Set}

Posted By: popsakov
Shakin' Stevens - Fire In The Blood: The Definitive Collection (2020) {19CD Deluxe Box Set}

Shakin' Stevens - Fire In The Blood: The Definitive Collection (2020) {19CD Deluxe Box Set}
EAC Rip | FLAC (Img) + Cue + Log ~ 6,72 Gb | MP3 CBR320 ~ 2,34 Gb
Scans Included | 14:53:55 | RAR 5% Recovery
Pop Rock / New Wave / Rock & Roll / Rockabilly / Roots Rock
BMG Rights Management (UK) Ltd. #BMGCAT458BP

Fire in the Blood: The Definitive Collection, a massive career-spanning box set featuring the work of Welsh singer and songwriter Shakin’ Stevens. The 19 CD box set features all of Shaky’s albums as a solo artist, from his first signing and album on Track Records, to his latest studio album, Echoes Of Our Times and it also comes with four CDs of rarities. Shaky was a chart sensation in the UK in the 1980s, in fact, he was the biggest selling singles artist of that decade. Stevens enjoyed 15 British top ten hits in the 1980s and four UK number ones. In total, this set contains 266 tracks and notable inclusions are a live concert recorded at the Paris Theatre, London for BBC Radio 1 in 1980 and the four rarities discs are packed with B-sides, 12-inch mixes, two previously unreleased tracks and more.

Shakin' Stevens - Fire In The Blood: The Definitive Collection (2020) {19CD Deluxe Box Set}

***************

Track List CD01 - Shakin' Stevens (1978):

01. You Can't Sit Down (Instrumental) 2:00
02. I'm Ready 2:43
03. So Glad You're Mine 2:29
04. Let's Dance 3:24
05. Till I Waltz Again With You 3:05
06. Such A Night 3:02
07. Justine 3:05
08. Baby Blue 3:52
09. Wait And See 2:13
10. Can't Believe You Wanna Leave 2:55
11. a) Whole Lotta Shakin' Goin' On
b) Jenny Jenny
c) Tutti Frutti 5:00

Total Time: 00:33:47

Exact Audio Copy V1.3 from 2. September 2016

EAC extraction logfile from 19. May 2021, 20:41

Shakin' Stevens / Shakin' Stevens

Used drive : PIONEER BD-RW BDR-212M Adapter: 1 ID: 0

Read mode : Secure
Utilize accurate stream : Yes
Defeat audio cache : Yes
Make use of C2 pointers : No

Read offset correction : 667
Overread into Lead-In and Lead-Out : No
Fill up missing offset samples with silence : Yes
Delete leading and trailing silent blocks : No
Null samples used in CRC calculations : Yes
Used interface : Native Win32 interface for Win NT & 2000

Used output format : Internal WAV Routines
Sample format : 44.100 Hz; 16 Bit; Stereo


TOC of the extracted CD

Track | Start | Length | Start sector | End sector
––––––––––––––––––––––––––––-
1 | 0:00.00 | 1:59.64 | 0 | 8988
2 | 1:59.64 | 2:42.55 | 8989 | 21193
3 | 4:42.44 | 2:29.22 | 21194 | 32390
4 | 7:11.66 | 3:24.30 | 32391 | 47720
5 | 10:36.21 | 3:04.44 | 47721 | 61564
6 | 13:40.65 | 3:01.40 | 61565 | 75179
7 | 16:42.30 | 3:04.48 | 75180 | 89027
8 | 19:47.03 | 3:52.31 | 89028 | 106458
9 | 23:39.34 | 2:13.23 | 106459 | 116456
10 | 25:52.57 | 2:54.59 | 116457 | 129565
11 | 28:47.41 | 4:59.39 | 129566 | 152029


Range status and errors

Selected range

Filename C:\Users\arthu\Desktop\Shakin' Stevens - Shakin' Stevens.wav

Peak level 99.7 %
Extraction speed 1.6 X
Range quality 100.0 %
Test CRC A91D9BD0
Copy CRC A91D9BD0
Copy OK

No errors occurred


AccurateRip summary

Track 1 not present in database
Track 2 not present in database
Track 3 not present in database
Track 4 not present in database
Track 5 not present in database
Track 6 not present in database
Track 7 not present in database
Track 8 not present in database
Track 9 not present in database
Track 10 not present in database
Track 11 not present in database

None of the tracks are present in the AccurateRip database

End of status report

–– CUETools DB Plugin V2.1.6

[CTDB TOCID: TgyRYPyLl8602GyjNaD.4Q7suhg-] found
Submit result: TgyRYPyLl8602GyjNaD.4Q7suhg- has been confirmed
Track | CTDB Status
1 | (18/18) Accurately ripped
2 | (18/18) Accurately ripped
3 | (18/18) Accurately ripped
4 | (18/18) Accurately ripped
5 | (18/18) Accurately ripped
6 | (18/18) Accurately ripped
7 | (18/18) Accurately ripped
8 | (18/18) Accurately ripped
9 | (18/18) Accurately ripped
10 | (18/18) Accurately ripped
11 | (18/18) Accurately ripped


==== Log checksum BD27962269D0AAD526585EB63B931821F315D9C4684AB58E4A9FE647246F73FA ====

Track List CD02 - Take One! (1981):

01. Lovestruck 3:11
02. Hot Dog 2:49
03. Is A Bluebird Blue? 3:21
04. That’s Alright 2:13
05. Without A Love 3:40
06. Shame, Shame, Shame 2:13
07. Shotgun Boogie 2:57
08. I Got Burned 2:19
09. I Guess I Was A Fool 2:22
10. Ah, Poor Little Baby 2:47
11. Little Pigeon 2:48
12. Do WhatYouDid 2:10

Total Time: 00:32:49

Exact Audio Copy V1.3 from 2. September 2016

EAC extraction logfile from 20. May 2021, 20:05

Shakin' Stevens / Take One!

Used drive : PIONEER BD-RW BDR-212M Adapter: 1 ID: 0

Read mode : Secure
Utilize accurate stream : Yes
Defeat audio cache : Yes
Make use of C2 pointers : No

Read offset correction : 667
Overread into Lead-In and Lead-Out : No
Fill up missing offset samples with silence : Yes
Delete leading and trailing silent blocks : No
Null samples used in CRC calculations : Yes
Used interface : Native Win32 interface for Win NT & 2000

Used output format : Internal WAV Routines
Sample format : 44.100 Hz; 16 Bit; Stereo


TOC of the extracted CD

Track | Start | Length | Start sector | End sector
––––––––––––––––––––––––––––-
1 | 0:00.00 | 3:11.20 | 0 | 14344
2 | 3:11.20 | 2:48.72 | 14345 | 27016
3 | 6:00.17 | 3:20.42 | 27017 | 42058
4 | 9:20.59 | 2:12.47 | 42059 | 52005
5 | 11:33.31 | 3:40.23 | 52006 | 68528
6 | 15:13.54 | 2:12.53 | 68529 | 78481
7 | 17:26.32 | 2:57.13 | 78482 | 91769
8 | 20:23.45 | 2:18.56 | 91770 | 102175
9 | 22:42.26 | 2:22.01 | 102176 | 112826
10 | 25:04.27 | 2:47.27 | 112827 | 125378
11 | 27:51.54 | 2:48.17 | 125379 | 137995
12 | 30:39.71 | 2:09.53 | 137996 | 147723


Range status and errors

Selected range

Filename C:\Users\arthu\Desktop\Shakin' Stevens - Take One!.wav

Peak level 100.0 %
Extraction speed 6.6 X
Range quality 100.0 %
Test CRC 2219B7D5
Copy CRC 2219B7D5
Copy OK

No errors occurred


AccurateRip summary

Track 1 not present in database
Track 2 not present in database
Track 3 not present in database
Track 4 not present in database
Track 5 not present in database
Track 6 not present in database
Track 7 not present in database
Track 8 not present in database
Track 9 not present in database
Track 10 not present in database
Track 11 not present in database
Track 12 not present in database

None of the tracks are present in the AccurateRip database

End of status report

–– CUETools DB Plugin V2.1.6

[CTDB TOCID: iSxiz8sDX7RwC_oh6SBcMZbQsfY-] found
Submit result: iSxiz8sDX7RwC_oh6SBcMZbQsfY- has been confirmed
Track | CTDB Status
1 | (16/16) Accurately ripped
2 | (16/16) Accurately ripped
3 | (16/16) Accurately ripped
4 | (16/16) Accurately ripped
5 | (16/16) Accurately ripped
6 | (16/16) Accurately ripped
7 | (16/16) Accurately ripped
8 | (16/16) Accurately ripped
9 | (16/16) Accurately ripped
10 | (16/16) Accurately ripped
11 | (16/16) Accurately ripped
12 | (16/16) Accurately ripped


==== Log checksum 24F74F29B3BED7F6B90982D1ED6E9DC852EFD8042B1A71707C8CB158F5D1A4A2 ====

Track List CD03 - This Ole House (1981):

01. Hey Mae 2:35
02. Baby If We Touch 3:05
03. Marie, Marie 2:48
04. Lonely Blue Boy 3:16
05. Make It Right Tonight 3:00
06. Move 3:14
07. Slippin’ And Slidin’ 2:37
08. Shooting Gallery 3:15
09. Revenue Man 2:47
10. Make Me Know You’re Mine 4:34
11. This Ole House 3:08
12. Nobody 3:20
Bonus Track:
13. Two Hearts 3:17

Total Time: 00:40:54

Exact Audio Copy V1.3 from 2. September 2016

EAC extraction logfile from 20. May 2021, 21:33

Shakin' Stevens / This Ole House

Used drive : PIONEER BD-RW BDR-212M Adapter: 1 ID: 0

Read mode : Secure
Utilize accurate stream : Yes
Defeat audio cache : Yes
Make use of C2 pointers : No

Read offset correction : 667
Overread into Lead-In and Lead-Out : No
Fill up missing offset samples with silence : Yes
Delete leading and trailing silent blocks : No
Null samples used in CRC calculations : Yes
Used interface : Native Win32 interface for Win NT & 2000

Used output format : Internal WAV Routines
Sample format : 44.100 Hz; 16 Bit; Stereo


TOC of the extracted CD

Track | Start | Length | Start sector | End sector
––––––––––––––––––––––––––––-
1 | 0:00.00 | 2:35.17 | 0 | 11641
2 | 2:35.17 | 3:05.12 | 11642 | 25528
3 | 5:40.29 | 2:47.43 | 25529 | 38096
4 | 8:27.72 | 3:16.02 | 38097 | 52798
5 | 11:43.74 | 2:59.73 | 52799 | 66296
6 | 14:43.72 | 3:13.52 | 66297 | 80823
7 | 17:57.49 | 2:36.55 | 80824 | 92578
8 | 20:34.29 | 3:14.67 | 92579 | 107195
9 | 23:49.21 | 2:46.60 | 107196 | 119705
10 | 26:36.06 | 4:33.63 | 119706 | 140243
11 | 31:09.69 | 3:07.48 | 140244 | 154316
12 | 34:17.42 | 3:20.18 | 154317 | 169334
13 | 37:37.60 | 3:17.04 | 169335 | 184113


Range status and errors

Selected range

Filename C:\Users\arthu\Desktop\Shakin' Stevens - This Ole House.wav

Peak level 100.0 %
Extraction speed 1.7 X
Range quality 99.9 %
Test CRC B5D6C3C4
Copy CRC B5D6C3C4
Copy OK

No errors occurred


AccurateRip summary

Track 1 accurately ripped (confidence 19) [3B74191F] (AR v2)
Track 2 accurately ripped (confidence 19) [A8ECEB0C] (AR v2)
Track 3 accurately ripped (confidence 19) [B4F23EEF] (AR v2)
Track 4 accurately ripped (confidence 19) [AD05049B] (AR v2)
Track 5 accurately ripped (confidence 19) [BA959B51] (AR v2)
Track 6 accurately ripped (confidence 19) [ED697FA3] (AR v2)
Track 7 accurately ripped (confidence 19) [2C064E83] (AR v2)
Track 8 accurately ripped (confidence 19) [76C51C7E] (AR v2)
Track 9 accurately ripped (confidence 19) [53BE1BA4] (AR v2)
Track 10 accurately ripped (confidence 19) [D38C0648] (AR v2)
Track 11 accurately ripped (confidence 19) [13835100] (AR v2)
Track 12 accurately ripped (confidence 19) [9A73CF0B] (AR v2)
Track 13 accurately ripped (confidence 18) [F889C324] (AR v2)

All tracks accurately ripped

End of status report

–– CUETools DB Plugin V2.1.6

[CTDB TOCID: YJpJa3u5ZZeqt7DcQ5h.Bh3jx7w-] found
Submit result: YJpJa3u5ZZeqt7DcQ5h.Bh3jx7w- has been confirmed
Track | CTDB Status
1 | (41/41) Accurately ripped
2 | (41/41) Accurately ripped
3 | (41/41) Accurately ripped
4 | (41/41) Accurately ripped
5 | (41/41) Accurately ripped
6 | (41/41) Accurately ripped
7 | (41/41) Accurately ripped
8 | (41/41) Accurately ripped
9 | (41/41) Accurately ripped
10 | (41/41) Accurately ripped
11 | (41/41) Accurately ripped
12 | (41/41) Accurately ripped
13 | (41/41) Accurately ripped


==== Log checksum E4BA30543F07E938D39CB70B5162940B673B429FE701540F22F7EA0744C22425 ====

Track List CD04 - Shaky (1981):

01. Mona Lisa 2:16
02. You Drive Me Crazy 2:52
03. I’m Knockin’ 2:53
04. It’s Raining 3:19
05. Don’t She Look Good 2:12
06. Green Door 3:14
07. Don’t Bug Me Baby 2:54
08. Don’t Tell Me Your Troubles 2:31
09. I’m Gonna Sit Write Down And Write Myself A Letter 3:28
10. This Time 2:54
11. Baby You’re A Child 2:43
12. Don’t Turn Your Back 3:03
13. Let Me Show You How 2:54
14. I’m Lookin’ 2:48

Total Time: 00:39:59

Exact Audio Copy V1.3 from 2. September 2016

EAC extraction logfile from 20. May 2021, 22:35

Shakin' Stevens / Shaky

Used drive : PIONEER BD-RW BDR-212M Adapter: 1 ID: 0

Read mode : Secure
Utilize accurate stream : Yes
Defeat audio cache : Yes
Make use of C2 pointers : No

Read offset correction : 667
Overread into Lead-In and Lead-Out : No
Fill up missing offset samples with silence : Yes
Delete leading and trailing silent blocks : No
Null samples used in CRC calculations : Yes
Used interface : Native Win32 interface for Win NT & 2000

Used output format : Internal WAV Routines
Sample format : 44.100 Hz; 16 Bit; Stereo


TOC of the extracted CD

Track | Start | Length | Start sector | End sector
––––––––––––––––––––––––––––-
1 | 0:00.00 | 2:16.34 | 0 | 10233
2 | 2:16.34 | 2:51.54 | 10234 | 23112
3 | 5:08.13 | 2:52.39 | 23113 | 36051
4 | 8:00.52 | 3:19.01 | 36052 | 50977
5 | 11:19.53 | 2:12.26 | 50978 | 60903
6 | 13:32.04 | 3:13.55 | 60904 | 75433
7 | 16:45.59 | 2:53.68 | 75434 | 88476
8 | 19:39.52 | 2:31.08 | 88477 | 99809
9 | 22:10.60 | 3:27.49 | 99810 | 115383
10 | 25:38.34 | 2:53.49 | 115384 | 128407
11 | 28:32.08 | 2:43.01 | 128408 | 140633
12 | 31:15.09 | 3:02.74 | 140634 | 154357
13 | 34:18.08 | 2:53.51 | 154358 | 167383
14 | 37:11.59 | 2:48.02 | 167384 | 179985


Range status and errors

Selected range

Filename C:\Users\arthu\Desktop\Shakin' Stevens\Shakin' Stevens - Shaky.wav

Peak level 100.0 %
Extraction speed 6.9 X
Range quality 100.0 %
Test CRC 0E159041
Copy CRC 0E159041
Copy OK

No errors occurred


AccurateRip summary

Track 1 not present in database
Track 2 not present in database
Track 3 not present in database
Track 4 not present in database
Track 5 not present in database
Track 6 not present in database
Track 7 not present in database
Track 8 not present in database
Track 9 not present in database
Track 10 not present in database
Track 11 not present in database
Track 12 not present in database
Track 13 not present in database
Track 14 not present in database

None of the tracks are present in the AccurateRip database

End of status report

–– CUETools DB Plugin V2.1.6

[CTDB TOCID: wL8R1OLxk71sUwKA2riojrMu7ic-] found
Submit result: wL8R1OLxk71sUwKA2riojrMu7ic- has been confirmed
Track | CTDB Status
1 | (16/16) Accurately ripped
2 | (16/16) Accurately ripped
3 | (16/16) Accurately ripped
4 | (16/16) Accurately ripped
5 | (16/16) Accurately ripped
6 | (16/16) Accurately ripped
7 | (16/16) Accurately ripped
8 | (16/16) Accurately ripped
9 | (16/16) Accurately ripped
10 | (16/16) Accurately ripped
11 | (16/16) Accurately ripped
12 | (16/16) Accurately ripped
13 | (16/16) Accurately ripped
14 | (16/16) Accurately ripped


==== Log checksum DBFB3E7C20CE26CCF603AC5599812196F3F1A54FE0A371F77286BAA3CF017CCF ====

Track List CD05 - Give Me Your Heart Tonight (1982):

01. Josephine 3:05
02. Give Me Your Heart Tonight 3:08
03. Sapphire 2:44
04. Oh Julie 2:35
05. I’ll Be Satisfied 3:13
06. Vanessa 3:54
07. Boppity Bop 3:19
08. Don’t Tell Me We’re Through 4:43
09. Shirley 2:52
10. You Never Talked About Me 2:33
11. Too Too Much 3:29
12. (Yeah) You’re Evil 2:15
13. Que Sera, Sera 3:06

Total Time: 00:40:55

Exact Audio Copy V1.3 from 2. September 2016

EAC extraction logfile from 22. May 2021, 18:02

Shakin' Stevens / Give Me Your Heart Tonight

Used drive : PIONEER BD-RW BDR-212M Adapter: 1 ID: 0

Read mode : Secure
Utilize accurate stream : Yes
Defeat audio cache : Yes
Make use of C2 pointers : No

Read offset correction : 667
Overread into Lead-In and Lead-Out : No
Fill up missing offset samples with silence : Yes
Delete leading and trailing silent blocks : No
Null samples used in CRC calculations : Yes
Used interface : Native Win32 interface for Win NT & 2000

Used output format : Internal WAV Routines
Sample format : 44.100 Hz; 16 Bit; Stereo


TOC of the extracted CD

Track | Start | Length | Start sector | End sector
––––––––––––––––––––––––––––-
1 | 0:00.00 | 3:05.25 | 0 | 13899
2 | 3:05.25 | 3:08.25 | 13900 | 28024
3 | 6:13.50 | 2:43.49 | 28025 | 40298
4 | 8:57.24 | 2:35.20 | 40299 | 51943
5 | 11:32.44 | 3:12.67 | 51944 | 66410
6 | 14:45.36 | 3:53.59 | 66411 | 83944
7 | 18:39.20 | 3:19.36 | 83945 | 98905
8 | 21:58.56 | 4:43.20 | 98906 | 120150
9 | 26:42.01 | 2:51.64 | 120151 | 133039
10 | 29:33.65 | 2:32.63 | 133040 | 144502
11 | 32:06.53 | 3:28.39 | 144503 | 160141
12 | 35:35.17 | 2:14.44 | 160142 | 170235
13 | 37:49.61 | 3:05.63 | 170236 | 184173


Range status and errors

Selected range

Filename C:\Users\arthu\Desktop\Shakin' Stevens\Shakin' Stevens - Give Me Your Heart Tonight.wav

Peak level 97.9 %
Extraction speed 6.9 X
Range quality 100.0 %
Test CRC E26924ED
Copy CRC E26924ED
Copy OK

No errors occurred


AccurateRip summary

Track 1 not present in database
Track 2 not present in database
Track 3 not present in database
Track 4 not present in database
Track 5 not present in database
Track 6 not present in database
Track 7 not present in database
Track 8 not present in database
Track 9 not present in database
Track 10 not present in database
Track 11 not present in database
Track 12 not present in database
Track 13 not present in database

None of the tracks are present in the AccurateRip database

End of status report

–– CUETools DB Plugin V2.1.6

[CTDB TOCID: GglL5CaE96a0qG3Nh4ErcwFYrqY-] found
Submit result: GglL5CaE96a0qG3Nh4ErcwFYrqY- has been confirmed
Track | CTDB Status
1 | (19/19) Accurately ripped
2 | (19/19) Accurately ripped
3 | (19/19) Accurately ripped
4 | (19/19) Accurately ripped
5 | (19/19) Accurately ripped
6 | (19/19) Accurately ripped
7 | (19/19) Accurately ripped
8 | (19/19) Accurately ripped
9 | (18/19) Accurately ripped
10 | (19/19) Accurately ripped
11 | (19/19) Accurately ripped
12 | (19/19) Accurately ripped
13 | (19/19) Accurately ripped


==== Log checksum 7CF4ED8D7EF49A43705F91B94DB535E7DA114D920CF639FDF7C33EE38C846F82 ====

Track List CD06 - The Bop Won’t Stop (1983):

01. The Bop Won’t Stop 2:35
02. Why Do You Treat Me This Way? 2:29
03. Diddle I 3:01
04. Don’t Be Two Faced 3:12
05. Livin’ Lovin’ Wreck 2:12
06. A Rockin’ Good Way (To Mess Around And Fall In Love) 2:59
07. Brand New Man 2:28
08. Cry Just A Little Bit 3:14
09. As Long As 3:02
10. A Love Worth Waiting For 3:24
11. Love Me Tonight 3:16
12. It’s Late 2:04

Total Time: 00:33:56

Exact Audio Copy V1.3 from 2. September 2016

EAC extraction logfile from 22. May 2021, 19:52

Shakin' Stevens / The Bop Won't Stop

Used drive : PIONEER BD-RW BDR-212M Adapter: 1 ID: 0

Read mode : Secure
Utilize accurate stream : Yes
Defeat audio cache : Yes
Make use of C2 pointers : No

Read offset correction : 667
Overread into Lead-In and Lead-Out : No
Fill up missing offset samples with silence : Yes
Delete leading and trailing silent blocks : No
Null samples used in CRC calculations : Yes
Used interface : Native Win32 interface for Win NT & 2000

Used output format : Internal WAV Routines
Sample format : 44.100 Hz; 16 Bit; Stereo


TOC of the extracted CD

Track | Start | Length | Start sector | End sector
––––––––––––––––––––––––––––-
1 | 0:00.00 | 2:34.71 | 0 | 11620
2 | 2:34.71 | 2:29.27 | 11621 | 22822
3 | 5:04.23 | 3:00.70 | 22823 | 36392
4 | 8:05.18 | 3:11.73 | 36393 | 50790
5 | 11:17.16 | 2:12.21 | 50791 | 60711
6 | 13:29.37 | 2:58.61 | 60712 | 74122
7 | 16:28.23 | 2:28.32 | 74123 | 85254
8 | 18:56.55 | 3:14.24 | 85255 | 99828
9 | 22:11.04 | 3:02.17 | 99829 | 113495
10 | 25:13.21 | 3:23.41 | 113496 | 128761
11 | 28:36.62 | 3:15.69 | 128762 | 143455
12 | 31:52.56 | 2:04.06 | 143456 | 152761


Range status and errors

Selected range

Filename C:\Users\arthu\Desktop\Shakin' Stevens\Shakin' Stevens - The Bop Won't Stop.wav

Peak level 97.1 %
Extraction speed 6.5 X
Range quality 99.9 %
Test CRC CF121956
Copy CRC CF121956
Copy OK

No errors occurred


AccurateRip summary

Track 1 not present in database
Track 2 not present in database
Track 3 not present in database
Track 4 not present in database
Track 5 not present in database
Track 6 not present in database
Track 7 not present in database
Track 8 not present in database
Track 9 not present in database
Track 10 not present in database
Track 11 not present in database
Track 12 not present in database

None of the tracks are present in the AccurateRip database

End of status report

–– CUETools DB Plugin V2.1.6

[CTDB TOCID: hQxynrOIpL5PU4sxWvfFPSztOkw-] found
Submit result: hQxynrOIpL5PU4sxWvfFPSztOkw- has been confirmed
Track | CTDB Status
1 | (16/16) Accurately ripped
2 | (16/16) Accurately ripped
3 | (16/16) Accurately ripped
4 | (16/16) Accurately ripped
5 | (16/16) Accurately ripped
6 | (16/16) Accurately ripped
7 | (16/16) Accurately ripped
8 | (16/16) Accurately ripped
9 | (16/16) Accurately ripped
10 | (16/16) Accurately ripped
11 | (16/16) Accurately ripped
12 | (16/16) Accurately ripped


==== Log checksum 5BF7ED44C936902AAD7EFDAD8DBFC8D3D949E9FF2C3FCE56DA298542CFDEF755 ====

Track List CD07 - Lipstick Powder And Paint (1985):

01. Lipstick Powder And Paint 2:46
02. Bad Reputation 3:32
03. Don’t Lie To Me 3:22
04. I’m Leaving You 3:02
05. The Shape I’m In 2:13
06. Don’t Knock Upon My Door 1:50
07. Turning Away 3:24
08. Love You Out Loud 3:14
09. As Long As I Have You 3:23
10. With My Heart 2:47
11. Ain’t It A Shame (You Win Again) 3:28
12. So Long Baby Goodbye 3:00

Total Time: 00:36:00

Exact Audio Copy V1.3 from 2. September 2016

EAC extraction logfile from 22. May 2021, 20:38

Shakin Stevens / Lipstick Powder And Paint

Used drive : PIONEER BD-RW BDR-212M Adapter: 1 ID: 0

Read mode : Secure
Utilize accurate stream : Yes
Defeat audio cache : Yes
Make use of C2 pointers : No

Read offset correction : 667
Overread into Lead-In and Lead-Out : No
Fill up missing offset samples with silence : Yes
Delete leading and trailing silent blocks : No
Null samples used in CRC calculations : Yes
Used interface : Native Win32 interface for Win NT & 2000

Used output format : Internal WAV Routines
Sample format : 44.100 Hz; 16 Bit; Stereo


TOC of the extracted CD

Track | Start | Length | Start sector | End sector
––––––––––––––––––––––––––––-
1 | 0:00.00 | 2:46.29 | 0 | 12478
2 | 2:46.29 | 3:31.41 | 12479 | 28344
3 | 6:17.70 | 3:21.46 | 28345 | 43465
4 | 9:39.41 | 3:02.07 | 43466 | 57122
5 | 12:41.48 | 2:12.73 | 57123 | 67095
6 | 14:54.46 | 1:49.39 | 67096 | 75309
7 | 16:44.10 | 3:24.32 | 75310 | 90641
8 | 20:08.42 | 3:14.01 | 90642 | 105192
9 | 23:22.43 | 3:22.52 | 105193 | 120394
10 | 26:45.20 | 2:46.59 | 120395 | 132903
11 | 29:32.04 | 3:27.56 | 132904 | 148484
12 | 32:59.60 | 3:00.21 | 148485 | 162005


Range status and errors

Selected range

Filename C:\Users\arthu\Desktop\Shakin' Stevens\Shakin Stevens - Lipstick Powder And Paint.wav

Peak level 97.0 %
Extraction speed 6.7 X
Range quality 100.0 %
Test CRC 4E5B053C
Copy CRC 4E5B053C
Copy OK

No errors occurred


AccurateRip summary

Track 1 not present in database
Track 2 not present in database
Track 3 not present in database
Track 4 not present in database
Track 5 not present in database
Track 6 not present in database
Track 7 not present in database
Track 8 not present in database
Track 9 not present in database
Track 10 not present in database
Track 11 not present in database
Track 12 not present in database

None of the tracks are present in the AccurateRip database

End of status report

–– CUETools DB Plugin V2.1.6

[CTDB TOCID: cqlnTQCWHTEI7qjKiz8qV23Z_Mg-] found
Submit result: cqlnTQCWHTEI7qjKiz8qV23Z_Mg- has been confirmed
Track | CTDB Status
1 | (15/15) Accurately ripped
2 | (15/15) Accurately ripped
3 | (15/15) Accurately ripped
4 | (15/15) Accurately ripped
5 | (15/15) Accurately ripped
6 | (15/15) Accurately ripped
7 | (15/15) Accurately ripped
8 | (15/15) Accurately ripped
9 | (15/15) Accurately ripped
10 | (15/15) Accurately ripped
11 | (15/15) Accurately ripped
12 | (15/15) Accurately ripped


==== Log checksum E75E1AC6A938A70CBC983AF5FEEB09979C91EBB6D44A2EB1C0064F90E11355A9 ====

Track List CD08 - Let’s Boogie (1987):

01. Come See About Me 3:26
02. Forever You 3:23
03. A Little Boogie Woogie (In The Back Of My Mind) 3:33
04. Because I Love You 3:21
05. What Do You Want To Make Those Eyes At Me For 2:53
06. The Hits Keep Coming Live Medley ’86 23:10

Total Time: 00:39:44

Exact Audio Copy V1.3 from 2. September 2016

EAC extraction logfile from 22. May 2021, 21:01

Shakin' Stevens / Let's Boogie

Used drive : PIONEER BD-RW BDR-212M Adapter: 1 ID: 0

Read mode : Secure
Utilize accurate stream : Yes
Defeat audio cache : Yes
Make use of C2 pointers : No

Read offset correction : 667
Overread into Lead-In and Lead-Out : No
Fill up missing offset samples with silence : Yes
Delete leading and trailing silent blocks : No
Null samples used in CRC calculations : Yes
Used interface : Native Win32 interface for Win NT & 2000

Used output format : Internal WAV Routines
Sample format : 44.100 Hz; 16 Bit; Stereo


TOC of the extracted CD

Track | Start | Length | Start sector | End sector
––––––––––––––––––––––––––––-
1 | 0:00.00 | 3:25.41 | 0 | 15415
2 | 3:25.41 | 3:22.47 | 15416 | 30612
3 | 6:48.13 | 3:33.11 | 30613 | 46598
4 | 10:21.24 | 3:20.66 | 46599 | 61664
5 | 13:42.15 | 2:52.68 | 61665 | 74632
6 | 16:35.08 | 23:09.62 | 74633 | 178869


Range status and errors

Selected range

Filename C:\Users\arthu\Desktop\Shakin' Stevens\Shakin' Stevens - Let's Boogie.wav

Peak level 99.4 %
Extraction speed 6.9 X
Range quality 100.0 %
Test CRC F005004E
Copy CRC F005004E
Copy OK

No errors occurred


AccurateRip summary

Track 1 not present in database
Track 2 not present in database
Track 3 not present in database
Track 4 not present in database
Track 5 not present in database
Track 6 not present in database

None of the tracks are present in the AccurateRip database

End of status report

–– CUETools DB Plugin V2.1.6

[CTDB TOCID: u9VriX4shH924uZNjZ81BlmJjsQ-] found
Submit result: u9VriX4shH924uZNjZ81BlmJjsQ- has been confirmed
Track | CTDB Status
1 | (15/15) Accurately ripped
2 | (15/15) Accurately ripped
3 | (15/15) Accurately ripped
4 | (15/15) Accurately ripped
5 | (15/15) Accurately ripped
6 | (15/15) Accurately ripped


==== Log checksum 871A3302878E5ABFE891CE001FB52712772D81EC7ED1897A7E0E6327153F4D1D ====

Track List CD09 - Whole Lotta Shaky (1988):

01. What Do You Want To Make Those Eyes At Me For 2:53
02. How Many Tears Can You Hide 3:41
03. Jezebel 3:00
04. Sea Of Love 3:08
05. True Love 2:44
06. Just One Look 3:43
07. Oh Julie 2:35
08. Do You Really Love Me Too 3:03
09. I’m Gonna Sit Right Down And Write Myself A Letter 3:26
10. Hello Josephine 2:57
11. Woman (What Have You Done To Me) 3:16
12. Heartbeat 3:03
13. Tired Of Toein’ The Line 3:36
14. Mona Lisa 2:17

Total Time: 00:43:22

Exact Audio Copy V1.3 from 2. September 2016

EAC extraction logfile from 22. May 2021, 22:30

Shakin' Stevens / Whole Lotta Shaky

Used drive : PIONEER BD-RW BDR-212M Adapter: 1 ID: 0

Read mode : Secure
Utilize accurate stream : Yes
Defeat audio cache : Yes
Make use of C2 pointers : No

Read offset correction : 667
Overread into Lead-In and Lead-Out : No
Fill up missing offset samples with silence : Yes
Delete leading and trailing silent blocks : No
Null samples used in CRC calculations : Yes
Used interface : Native Win32 interface for Win NT & 2000

Used output format : Internal WAV Routines
Sample format : 44.100 Hz; 16 Bit; Stereo


TOC of the extracted CD

Track | Start | Length | Start sector | End sector
––––––––––––––––––––––––––––-
1 | 0:00.00 | 2:53.09 | 0 | 12983
2 | 2:53.09 | 3:40.47 | 12984 | 29530
3 | 6:33.56 | 3:00.09 | 29531 | 43039
4 | 9:33.65 | 3:08.22 | 43040 | 57161
5 | 12:42.12 | 2:43.58 | 57162 | 69444
6 | 15:25.70 | 3:42.44 | 69445 | 86138
7 | 19:08.39 | 2:34.69 | 86139 | 97757
8 | 21:43.33 | 3:03.37 | 97758 | 111519
9 | 24:46.70 | 3:26.16 | 111520 | 126985
10 | 28:13.11 | 2:56.72 | 126986 | 140257
11 | 31:10.08 | 3:15.38 | 140258 | 154920
12 | 34:25.46 | 3:03.32 | 154921 | 168677
13 | 37:29.03 | 3:36.24 | 168678 | 184901
14 | 41:05.27 | 2:17.21 | 184902 | 195197


Range status and errors

Selected range

Filename C:\Users\arthu\Desktop\Shakin' Stevens\Shakin' Stevens - Whole Lotta Shaky.wav

Peak level 97.9 %
Extraction speed 1.7 X
Range quality 100.0 %
Test CRC 2C107A72
Copy CRC 2C107A72
Copy OK

No errors occurred


AccurateRip summary

Track 1 not present in database
Track 2 not present in database
Track 3 not present in database
Track 4 not present in database
Track 5 not present in database
Track 6 not present in database
Track 7 not present in database
Track 8 not present in database
Track 9 not present in database
Track 10 not present in database
Track 11 not present in database
Track 12 not present in database
Track 13 not present in database
Track 14 not present in database

None of the tracks are present in the AccurateRip database

End of status report

–– CUETools DB Plugin V2.1.6

[CTDB TOCID: OJ9N2Tp9WzbQrroaPqxe7BgnFck-] found
Submit result: OJ9N2Tp9WzbQrroaPqxe7BgnFck- has been confirmed
Track | CTDB Status
1 | (15/15) Accurately ripped
2 | (15/15) Accurately ripped
3 | (15/15) Accurately ripped
4 | (15/15) Accurately ripped
5 | (15/15) Accurately ripped
6 | (15/15) Accurately ripped
7 | (15/15) Accurately ripped
8 | (15/15) Accurately ripped
9 | (15/15) Accurately ripped
10 | (15/15) Accurately ripped
11 | (15/15) Accurately ripped
12 | (15/15) Accurately ripped
13 | (15/15) Accurately ripped
14 | (15/15) Accurately ripped


==== Log checksum E94016448E789A9C02C417A92A81AE40DB541C150D894466B0549C2BA2D86B68 ====

Track List CD10 - There Are Two Kinds Of Music…Rock ‘n’ Roll! (1990):

01. Love Attack 3:15
02. I Might 3:05
03. Yes I Do 3:06
04. You Shake Me Up 2:56
05. Tell Me 2:58
06. Tear It Up 2:25
07. My Cutie Cutie 2:36
08. The Night Time Is The Right Time 3:49
09. Pink Champagne 3:23
10. If I Lose You 3:00
11. Queen Of The Hop 2:40
12. Rockin’ The Night Away 2:56

Total Time: 00:36:08

Exact Audio Copy V1.3 from 2. September 2016

EAC extraction logfile from 23. May 2021, 11:23

Shakin' Stevens / There Are Two Kinds Of Music… Rock 'n' Roll!

Used drive : PIONEER BD-RW BDR-212M Adapter: 1 ID: 0

Read mode : Secure
Utilize accurate stream : Yes
Defeat audio cache : Yes
Make use of C2 pointers : No

Read offset correction : 667
Overread into Lead-In and Lead-Out : No
Fill up missing offset samples with silence : Yes
Delete leading and trailing silent blocks : No
Null samples used in CRC calculations : Yes
Used interface : Native Win32 interface for Win NT & 2000

Used output format : Internal WAV Routines
Sample format : 44.100 Hz; 16 Bit; Stereo


TOC of the extracted CD

Track | Start | Length | Start sector | End sector
––––––––––––––––––––––––––––-
1 | 0:00.00 | 3:14.60 | 0 | 14609
2 | 3:14.60 | 3:05.11 | 14610 | 28495
3 | 6:19.71 | 3:06.18 | 28496 | 42463
4 | 9:26.14 | 2:56.02 | 42464 | 55665
5 | 12:22.16 | 2:58.28 | 55666 | 69043
6 | 15:20.44 | 2:24.41 | 69044 | 79884
7 | 17:45.10 | 2:35.40 | 79885 | 91549
8 | 20:20.50 | 3:48.54 | 91550 | 108703
9 | 24:09.29 | 3:22.70 | 108704 | 123923
10 | 27:32.24 | 3:00.18 | 123924 | 137441
11 | 30:32.42 | 2:39.71 | 137442 | 149437
12 | 33:12.38 | 2:56.04 | 149438 | 162641


Range status and errors

Selected range

Filename C:\Users\arthu\Desktop\Shakin' Stevens\Shakin' Stevens - There Are Two Kinds Of Music… Rock 'n' Roll!.wav

Peak level 99.3 %
Extraction speed 6.7 X
Range quality 100.0 %
Test CRC 3BB9411A
Copy CRC 3BB9411A
Copy OK

No errors occurred


AccurateRip summary

Track 1 not present in database
Track 2 not present in database
Track 3 not present in database
Track 4 not present in database
Track 5 not present in database
Track 6 not present in database
Track 7 not present in database
Track 8 not present in database
Track 9 not present in database
Track 10 not present in database
Track 11 not present in database
Track 12 not present in database

None of the tracks are present in the AccurateRip database

End of status report

–– CUETools DB Plugin V2.1.6

[CTDB TOCID: oql1iVuM8LGILOO71KcO4qTM01c-] found
Submit result: oql1iVuM8LGILOO71KcO4qTM01c- has been confirmed
Track | CTDB Status
1 | (15/15) Accurately ripped
2 | (15/15) Accurately ripped
3 | (15/15) Accurately ripped
4 | (15/15) Accurately ripped
5 | (15/15) Accurately ripped
6 | (15/15) Accurately ripped
7 | (15/15) Accurately ripped
8 | (15/15) Accurately ripped
9 | (15/15) Accurately ripped
10 | (15/15) Accurately ripped
11 | (15/15) Accurately ripped
12 | (15/15) Accurately ripped


==== Log checksum FED2B8B0680DB1165BF3E7B47B33717CD27857710EBD4F6CD08D1D834FA37BBB ====

Track List CD11 - Merry Christmas Everyone (1991):

01. Rockin’ Little Christmas 2:36
02. White Christmas 2:28
03. Sure Won’t Seem Like Christmas 2:44
04. I’ll Be Home This Christmas 2:49
05. Merry Christmas Everyone 3:40
06. Silent Night 2:39
07. It’s Gonna Be A Lonely Christmas 3:27
08. The Best Christmas Of Them All 3:26
09. Merry Christmas Pretty Baby 3:18
10. Christmas Wish 2:45
11. Blue Christmas 2:47
12. So Long Christmas 3:13
Bonus Tracks:
13. Merry Christmas Everyone (Extended) 4:19
14. Blue Christmas (Single Version) 2:43

Total Time: 00:42:53

Exact Audio Copy V1.3 from 2. September 2016

EAC extraction logfile from 23. May 2021, 12:16

Shakin' Stevens / Merry Christmas Everyone

Used drive : PIONEER BD-RW BDR-212M Adapter: 1 ID: 0

Read mode : Secure
Utilize accurate stream : Yes
Defeat audio cache : Yes
Make use of C2 pointers : No

Read offset correction : 667
Overread into Lead-In and Lead-Out : No
Fill up missing offset samples with silence : Yes
Delete leading and trailing silent blocks : No
Null samples used in CRC calculations : Yes
Used interface : Native Win32 interface for Win NT & 2000

Used output format : Internal WAV Routines
Sample format : 44.100 Hz; 16 Bit; Stereo


TOC of the extracted CD

Track | Start | Length | Start sector | End sector
––––––––––––––––––––––––––––-
1 | 0:00.00 | 2:36.13 | 0 | 11712
2 | 2:36.13 | 2:27.61 | 11713 | 22798
3 | 5:03.74 | 2:43.57 | 22799 | 35080
4 | 7:47.56 | 2:48.66 | 35081 | 47746
5 | 10:36.47 | 3:40.21 | 47747 | 64267
6 | 14:16.68 | 2:38.58 | 64268 | 76175
7 | 16:55.51 | 3:27.15 | 76176 | 91715
8 | 20:22.66 | 3:25.50 | 91716 | 107140
9 | 23:48.41 | 3:17.50 | 107141 | 121965
10 | 27:06.16 | 2:44.55 | 121966 | 134320
11 | 29:50.71 | 2:46.70 | 134321 | 146840
12 | 32:37.66 | 3:12.66 | 146841 | 161306
13 | 35:50.57 | 4:18.61 | 161307 | 180717
14 | 40:09.43 | 2:43.35 | 180718 | 192977


Range status and errors

Selected range

Filename C:\Users\arthu\Desktop\Shakin' Stevens\Shakin' Stevens - Merry Christmas Everyone.wav

Peak level 99.8 %
Extraction speed 1.7 X
Range quality 99.9 %
Test CRC F3CD7D9C
Copy CRC F3CD7D9C
Copy OK

No errors occurred


AccurateRip summary

Track 1 not present in database
Track 2 not present in database
Track 3 not present in database
Track 4 not present in database
Track 5 not present in database
Track 6 not present in database
Track 7 not present in database
Track 8 not present in database
Track 9 not present in database
Track 10 not present in database
Track 11 not present in database
Track 12 not present in database
Track 13 not present in database
Track 14 not present in database

None of the tracks are present in the AccurateRip database

End of status report

–– CUETools DB Plugin V2.1.6

[CTDB TOCID: SU5bOyQZHK9l46h1unPClH0Osr8-] found
Submit result: SU5bOyQZHK9l46h1unPClH0Osr8- has been confirmed
Track | CTDB Status
1 | (15/15) Accurately ripped
2 | (15/15) Accurately ripped
3 | (15/15) Accurately ripped
4 | (15/15) Accurately ripped
5 | (15/15) Accurately ripped
6 | (15/15) Accurately ripped
7 | (15/15) Accurately ripped
8 | (15/15) Accurately ripped
9 | (15/15) Accurately ripped
10 | (15/15) Accurately ripped
11 | (15/15) Accurately ripped
12 | (15/15) Accurately ripped
13 | (15/15) Accurately ripped
14 | (15/15) Accurately ripped


==== Log checksum 6E433B6766E8BB2C1857BF46BEB70B78569601E5AD1EFBEAA6A7EC9952D26A16 ====

Track List CD12 - Now Listen (2006):

01. Now Listen 3:26
02. Somewhere In The Night 4:05
03. Lonely Too Long 3:41
04. Got My Mind Set On You 3:27
05. Baby It’s You 3:33
06. Fire Down Below 3:15
07. How Could It Be Like That 3:26
08. It’s A Shame 3:44
09. Pump It Up 3:06
10. I Hear You Knockin’ 3:30
11. Trouble 3:01
12. Get Together 4:19

Total Time: 00:42:32

Exact Audio Copy V1.3 from 2. September 2016

EAC extraction logfile from 23. May 2021, 15:07

Shakin' Stevens / Now Listen

Used drive : PIONEER BD-RW BDR-212M Adapter: 1 ID: 0

Read mode : Secure
Utilize accurate stream : Yes
Defeat audio cache : Yes
Make use of C2 pointers : No

Read offset correction : 667
Overread into Lead-In and Lead-Out : No
Fill up missing offset samples with silence : Yes
Delete leading and trailing silent blocks : No
Null samples used in CRC calculations : Yes
Used interface : Native Win32 interface for Win NT & 2000

Used output format : Internal WAV Routines
Sample format : 44.100 Hz; 16 Bit; Stereo


TOC of the extracted CD

Track | Start | Length | Start sector | End sector
––––––––––––––––––––––––––––-
1 | 0:00.00 | 3:25.40 | 0 | 15414
2 | 3:25.40 | 4:05.05 | 15415 | 33794
3 | 7:30.45 | 3:41.15 | 33795 | 50384
4 | 11:11.60 | 3:26.39 | 50385 | 65873
5 | 14:38.24 | 3:33.12 | 65874 | 81860
6 | 18:11.36 | 3:14.59 | 81861 | 96469
7 | 21:26.20 | 3:26.07 | 96470 | 111926
8 | 24:52.27 | 3:43.45 | 111927 | 128696
9 | 28:35.72 | 3:05.63 | 128697 | 142634
10 | 31:41.60 | 3:30.19 | 142635 | 158403
11 | 35:12.04 | 3:01.34 | 158404 | 172012
12 | 38:13.38 | 4:18.43 | 172013 | 191405


Range status and errors

Selected range

Filename C:\Users\arthu\Desktop\Shakin' Stevens\Shakin' Stevens - Now Listen.wav

Peak level 97.7 %
Extraction speed 1.7 X
Range quality 99.9 %
Test CRC 57D3B1ED
Copy CRC 57D3B1ED
Copy OK

No errors occurred


AccurateRip summary

Track 1 not present in database
Track 2 not present in database
Track 3 not present in database
Track 4 not present in database
Track 5 not present in database
Track 6 not present in database
Track 7 not present in database
Track 8 not present in database
Track 9 not present in database
Track 10 not present in database
Track 11 not present in database
Track 12 not present in database

None of the tracks are present in the AccurateRip database

End of status report

–– CUETools DB Plugin V2.1.6

[CTDB TOCID: cgtJa4GmX.KWSEYQjqWDBAqR8Q4-] found
Submit result: cgtJa4GmX.KWSEYQjqWDBAqR8Q4- has been confirmed
Track | CTDB Status
1 | (16/16) Accurately ripped
2 | (16/16) Accurately ripped
3 | (16/16) Accurately ripped
4 | (16/16) Accurately ripped
5 | (16/16) Accurately ripped
6 | (16/16) Accurately ripped
7 | (16/16) Accurately ripped
8 | (16/16) Accurately ripped
9 | (16/16) Accurately ripped
10 | (16/16) Accurately ripped
11 | (16/16) Accurately ripped
12 | (16/16) Accurately ripped


==== Log checksum 185F2D363A006C37552F6CA157550716B8AF8C05559026333A5BD79516BEC30D ====

Track List CD13 - Echoes Of Our Time (2016):

01. Down In The Hole 3:15
02. Echoes Of Our Times 3:03
03. Behind Those Secrets And Lies 3:37
04. To Spread The Word 3:06
05. The Fire In Her Blood 3:23
06. Down Into Muddy Water 3:21
07. Suffer Little Children 4:26
08. Train Of Time 3:02
09. Love The World 3:06
10. Last Man Alive 3:40

Total Time: 00:33:58

Exact Audio Copy V1.3 from 2. September 2016

EAC extraction logfile from 23. May 2021, 15:50

Shakin' Stevens / Echoes Of Our Time

Used drive : PIONEER BD-RW BDR-212M Adapter: 1 ID: 0

Read mode : Secure
Utilize accurate stream : Yes
Defeat audio cache : Yes
Make use of C2 pointers : No

Read offset correction : 667
Overread into Lead-In and Lead-Out : No
Fill up missing offset samples with silence : Yes
Delete leading and trailing silent blocks : No
Null samples used in CRC calculations : Yes
Used interface : Native Win32 interface for Win NT & 2000

Used output format : Internal WAV Routines
Sample format : 44.100 Hz; 16 Bit; Stereo


TOC of the extracted CD

Track | Start | Length | Start sector | End sector
––––––––––––––––––––––––––––-
1 | 0:00.00 | 3:15.00 | 0 | 14624
2 | 3:15.00 | 3:03.20 | 14625 | 28369
3 | 6:18.20 | 3:36.40 | 28370 | 44609
4 | 9:54.60 | 3:06.21 | 44610 | 58580
5 | 13:01.06 | 3:22.71 | 58581 | 73801
6 | 16:24.02 | 3:20.46 | 73802 | 88847
7 | 19:44.48 | 4:26.22 | 88848 | 108819
8 | 24:10.70 | 3:01.46 | 108820 | 122440
9 | 27:12.41 | 3:05.64 | 122441 | 136379
10 | 30:18.30 | 3:39.65 | 136380 | 152869


Range status and errors

Selected range

Filename C:\Users\arthu\Desktop\Shakin' Stevens\Shakin' Stevens - Echoes Of Our Time.wav

Peak level 97.7 %
Extraction speed 1.6 X
Range quality 100.0 %
Test CRC BFF9C110
Copy CRC BFF9C110
Copy OK

No errors occurred


AccurateRip summary

Track 1 cannot be verified as accurate (confidence 11) [1A05619E], AccurateRip returned [475C70B7] (AR v2)
Track 2 cannot be verified as accurate (confidence 11) [419D3813], AccurateRip returned [B9D09111] (AR v2)
Track 3 cannot be verified as accurate (confidence 11) [6F82F870], AccurateRip returned [CE91D685] (AR v2)
Track 4 cannot be verified as accurate (confidence 11) [0953606F], AccurateRip returned [B31EAAB0] (AR v2)
Track 5 cannot be verified as accurate (confidence 11) [7B351229], AccurateRip returned [16FF4BD1] (AR v2)
Track 6 cannot be verified as accurate (confidence 11) [EEC68B50], AccurateRip returned [5492368A] (AR v2)
Track 7 cannot be verified as accurate (confidence 11) [FB74E1EE], AccurateRip returned [4A30DEFC] (AR v2)
Track 8 cannot be verified as accurate (confidence 11) [D875497B], AccurateRip returned [9DA8C11D] (AR v2)
Track 9 cannot be verified as accurate (confidence 11) [01D831B1], AccurateRip returned [AA61A6FA] (AR v2)
Track 10 cannot be verified as accurate (confidence 11) [E999B737], AccurateRip returned [644A0CF7] (AR v2)

No tracks could be verified as accurate
You may have a different pressing from the one(s) in the database

End of status report

–– CUETools DB Plugin V2.1.6

[CTDB TOCID: WNEEO1XO1WwX35qFNJ1duWAdGUA-] found
Submit result: WNEEO1XO1WwX35qFNJ1duWAdGUA- has been confirmed
Track | CTDB Status
1 | (15/35) Accurately ripped
2 | (15/35) Accurately ripped
3 | (15/35) Accurately ripped
4 | (15/35) Accurately ripped
5 | (15/35) Accurately ripped
6 | (15/35) Accurately ripped
7 | (15/35) Accurately ripped
8 | (15/35) Accurately ripped
9 | (15/35) Accurately ripped
10 | (15/35) Accurately ripped


==== Log checksum A32FF30E7892EA2E8E9CF3B146B15AEEF63834DC9EACB9B11011E1DE9A047728 ====

Track List CD14 - Shaky Live (2019):

01. How Could It Be Like That 3:41
02. Turning Away 3:58
03. Give Me Your Heart Tonight 3:22
04. You Drive Me Crazy 2:27
05. I Got My Mind Set On You 3:12
06. Now Listen 3:24
07. Down Into Muddy Water 3:47
08. Cry Just A Little Bit 3:11
09. It’s Raining 3:44
10. Radio 3:31
11. A Letter To You 3:25
12. The Fire In Her Blood 3:36
13. Suffer Little Children 4:17
14. Marie, Marie 2:21
15. Oh Julie 2:34
16. Green Door 3:29
17. Train Of Time 3:23
18. Last Man Alive 4:08
19. This Old House 4:05
20. Fire Down Below 4:32

Total Time: 01:10:05

Exact Audio Copy V1.3 from 2. September 2016

EAC extraction logfile from 23. May 2021, 17:13

Shakin' Stevens / Shaky Live

Used drive : PIONEER BD-RW BDR-212M Adapter: 1 ID: 0

Read mode : Secure
Utilize accurate stream : Yes
Defeat audio cache : Yes
Make use of C2 pointers : No

Read offset correction : 667
Overread into Lead-In and Lead-Out : No
Fill up missing offset samples with silence : Yes
Delete leading and trailing silent blocks : No
Null samples used in CRC calculations : Yes
Used interface : Native Win32 interface for Win NT & 2000

Used output format : Internal WAV Routines
Sample format : 44.100 Hz; 16 Bit; Stereo


TOC of the extracted CD

Track | Start | Length | Start sector | End sector
––––––––––––––––––––––––––––-
1 | 0:00.00 | 3:40.38 | 0 | 16537
2 | 3:40.38 | 3:58.34 | 16538 | 34421
3 | 7:38.72 | 3:22.17 | 34422 | 49588
4 | 11:01.14 | 2:27.22 | 49589 | 60635
5 | 13:28.36 | 3:12.18 | 60636 | 75053
6 | 16:40.54 | 3:23.59 | 75054 | 90337
7 | 20:04.38 | 3:47.18 | 90338 | 107380
8 | 23:51.56 | 3:11.12 | 107381 | 121717
9 | 27:02.68 | 3:43.45 | 121718 | 138487
10 | 30:46.38 | 3:30.56 | 138488 | 154293
11 | 34:17.19 | 3:24.63 | 154294 | 169656
12 | 37:42.07 | 3:35.64 | 169657 | 185845
13 | 41:17.71 | 4:16.47 | 185846 | 205092
14 | 45:34.43 | 2:21.14 | 205093 | 215681
15 | 47:55.57 | 2:33.65 | 215682 | 227221
16 | 50:29.47 | 3:28.61 | 227222 | 242882
17 | 53:58.33 | 3:22.70 | 242883 | 258102
18 | 57:21.28 | 4:07.60 | 258103 | 276687
19 | 61:29.13 | 4:05.05 | 276688 | 295067
20 | 65:34.18 | 4:31.41 | 295068 | 315433


Range status and errors

Selected range

Filename C:\Users\arthu\Desktop\Shakin' Stevens\Shakin' Stevens - Shaky Live.wav

Suspicious position 0:36:10
Suspicious position 0:36:22

Peak level 99.8 %
Extraction speed 1.8 X
Range quality 99.9 %
Test CRC 7790D5CE
Copy CRC 28FBC42B
Copy finished

There were errors


AccurateRip summary

Track 1 not present in database
Track 2 not present in database
Track 3 not present in database
Track 4 not present in database
Track 5 not present in database
Track 6 not present in database
Track 7 not present in database
Track 8 not present in database
Track 9 not present in database
Track 10 not present in database
Track 11 not present in database
Track 12 not present in database
Track 13 not present in database
Track 14 not present in database
Track 15 not present in database
Track 16 not present in database
Track 17 not present in database
Track 18 not present in database
Track 19 not present in database
Track 20 not present in database

None of the tracks are present in the AccurateRip database

End of status report

–– CUETools DB Plugin V2.1.6

[CTDB TOCID: JpNjug1l3k86u6qi8B1.WLQtMDU-] found
Submit result: insufficient quality
Track | CTDB Status
1 | (14/14) Accurately ripped
2 | (14/14) Accurately ripped
3 | (14/14) Accurately ripped
4 | (14/14) Accurately ripped
5 | (14/14) Accurately ripped
6 | (14/14) Accurately ripped
7 | (14/14) Accurately ripped
8 | (14/14) Accurately ripped
9 | (14/14) Accurately ripped
10 | (14/14) Accurately ripped
11 | (11/14) Differs in 505 samples @01:53:14-01:53:15,02:04:66-02:04:67
12 | (14/14) Accurately ripped
13 | (13/14) Accurately ripped
14 | (13/14) Accurately ripped
15 | (14/14) Accurately ripped
16 | (14/14) Accurately ripped
17 | (14/14) Accurately ripped
18 | (14/14) Accurately ripped
19 | (11/14) Accurately ripped
20 | (14/14) Accurately ripped
If you are sure that your rip contains errors, you can use CUETools to repair it.


==== Log checksum 1B894E5CF763A68EA488154E4385D6140361E7636F015FD8B873F806FB030101 ====

Track List CD15 - BBC – In Concert (1980/2020):

01. a. Slippin’ And Slidin’
b. Make It Right Tonight 5:46
02. Don’t Bug Me Baby 2:55
03. Baby If We Touch 2:47
04. Shooting Gallery 3:00
05. Apron Strings 3:09
06. Little Pigeon 2:39
07. Lonely Blue Boy 3:15
08. Don’t Knock Upon My Door 2:13
09. Hey Mae 2:16
10. Shotgun Boogie 2:58
11. Make Me Know You’re Mine 4:46
12. Big Hunk Of Love 2:31
13. Hot Dog 2:24
14. Marie, Marie 2:48
15. Move 3:32

Total Time: 00:46:57

Exact Audio Copy V1.3 from 2. September 2016

EAC extraction logfile from 23. May 2021, 17:35

Shakin' Stevens / BBC - In Concert

Used drive : PIONEER BD-RW BDR-212M Adapter: 1 ID: 0

Read mode : Secure
Utilize accurate stream : Yes
Defeat audio cache : Yes
Make use of C2 pointers : No

Read offset correction : 667
Overread into Lead-In and Lead-Out : No
Fill up missing offset samples with silence : Yes
Delete leading and trailing silent blocks : No
Null samples used in CRC calculations : Yes
Used interface : Native Win32 interface for Win NT & 2000

Used output format : Internal WAV Routines
Sample format : 44.100 Hz; 16 Bit; Stereo


TOC of the extracted CD

Track | Start | Length | Start sector | End sector
––––––––––––––––––––––––––––-
1 | 0:00.00 | 5:45.74 | 0 | 25948
2 | 5:45.74 | 2:54.63 | 25949 | 39061
3 | 8:40.62 | 2:46.70 | 39062 | 51581
4 | 11:27.57 | 2:59.65 | 51582 | 65071
5 | 14:27.47 | 3:08.48 | 65072 | 79219
6 | 17:36.20 | 2:38.54 | 79220 | 91123
7 | 20:14.74 | 3:15.24 | 91124 | 105772
8 | 23:30.23 | 2:12.41 | 105773 | 115713
9 | 25:42.64 | 2:15.54 | 115714 | 125892
10 | 27:58.43 | 2:58.24 | 125893 | 139266
11 | 30:56.67 | 4:46.25 | 139267 | 160741
12 | 35:43.17 | 2:31.12 | 160742 | 172078
13 | 38:14.29 | 2:23.70 | 172079 | 182873
14 | 40:38.24 | 2:47.46 | 182874 | 195444
15 | 43:25.70 | 3:31.52 | 195445 | 211321


Range status and errors

Selected range

Filename C:\Users\arthu\Desktop\Shakin' Stevens\Shakin' Stevens - BBC - In Concert.wav

Peak level 99.7 %
Extraction speed 6.4 X
Range quality 99.9 %
Test CRC 560F1C8D
Copy CRC C558B758
Copy OK

No errors occurred


AccurateRip summary

Track 1 not present in database
Track 2 not present in database
Track 3 not present in database
Track 4 not present in database
Track 5 not present in database
Track 6 not present in database
Track 7 not present in database
Track 8 not present in database
Track 9 not present in database
Track 10 not present in database
Track 11 not present in database
Track 12 not present in database
Track 13 not present in database
Track 14 not present in database
Track 15 not present in database

None of the tracks are present in the AccurateRip database

End of status report

–– CUETools DB Plugin V2.1.6

[CTDB TOCID: Of57IXye4dhjlYDFIW3_VMNzGGE-] found
Submit result: insufficient quality
Track | CTDB Status
1 | (14/14) Accurately ripped
2 | (14/14) Accurately ripped
3 | (14/14) Accurately ripped
4 | (14/14) Accurately ripped
5 | (14/14) Accurately ripped
6 | (14/14) Accurately ripped
7 | ( 1/14) Differs in 7 samples @00:19:64,00:20:28-00:20:29, or (13/14) differs in 7 samples @00:19:64,00:20:28-00:20:29
8 | (14/14) Accurately ripped
9 | (14/14) Accurately ripped
10 | (14/14) Accurately ripped
11 | ( 1/14) Differs in 3 samples @04:27:41, or (13/14) differs in 3 samples @04:27:41
12 | (14/14) Accurately ripped
13 | (14/14) Accurately ripped
14 | (13/14) Accurately ripped, or (1/14) differs in 30 samples @01:53:12,01:54:38
15 | ( 1/14) Differs in 34 samples @01:41:56,01:42:33,01:42:50,01:42:67, or (13/14) differs in 8 samples @01:41:56,01:42:33,01:42:50
If you are sure that your rip contains errors, you can use CUETools to repair it.


==== Log checksum 9B33E5744B85ADE95B9548DE602A99382685B321C4E300AD99303C40A9183459 ====

Track List CD16 - Non LP 1 – Rarities (2020):

01. Never (Single) 2:51
02. You Always Hurt The One You Love (B-Side) 2:50
03. Somebody Touched Me (Single) 2:41
04. Way Down Yonder In New Orleans (B-Side) 2:41
05. Treat Her Right (Single) 3:34
06. I Don’t Want No Other Baby (B-Side “Treat Her Right”) 3:16
07. Endless Sleep (Single) 3:32
08. Fire (B-Side “Endless Sleep”) 3:32
09. Spooky (Single) 3:34
10. Hot Dog (Single Version) 2:36
11. Apron Strings (B-Side “Hot Dog”) 3:10
12. You And I Were Meant To Be (B-Side “It’s Raining”) 2:20
13. I’m For You (B-Side “Shirley”) 2:45
14. Thinkin’ Of You (B-Side of “Give Me Your Heart”) 2:25
15. Josephine (B-Side “Blue Christmas”) (Live) 3:00
16. Lawdy Miss Clawdy (B-Side “Blue Christmas”) (Live) 3:07
17. Que Sera (B-Side “Blue Christmas”) (Live) 4:28
18. Don’t Be Late (Miss Kate) (B-Side ” I’ll Be Satisfied”) 2:43
19. It’s Good For You (Baby) (B-Side “It’s Late”) 3:02
20. Your Ma Said You Cried In Your Sleep Last Night (B-Side “Cry Just A Little Bit” 12″) 3:26
21. The Bop Won’t Stop (B-Side ” A Rockin’ Good Way” 12″) (Live) 3:11
22. Why Do You Treat Me This Way (B-Side ” A Rockin’ Good Way”) (Live) 2:44
23. Don’t Tell Me We’re Through (B-Side “A Love Worth Waiting For”) (Live) 5:38
24. As Long As (B-Side “A Love Worth Waiting For” 12″) (Live) 3:00

Total Time: 01:16:04

Exact Audio Copy V1.3 from 2. September 2016

EAC extraction logfile from 23. May 2021, 19:42

Shakin' Stevens / Non LP 1

Used drive : PIONEER BD-RW BDR-212M Adapter: 1 ID: 0

Read mode : Secure
Utilize accurate stream : Yes
Defeat audio cache : Yes
Make use of C2 pointers : No

Read offset correction : 667
Overread into Lead-In and Lead-Out : No
Fill up missing offset samples with silence : Yes
Delete leading and trailing silent blocks : No
Null samples used in CRC calculations : Yes
Used interface : Native Win32 interface for Win NT & 2000

Used output format : Internal WAV Routines
Sample format : 44.100 Hz; 16 Bit; Stereo


TOC of the extracted CD

Track | Start | Length | Start sector | End sector
––––––––––––––––––––––––––––-
1 | 0:00.00 | 2:50.63 | 0 | 12812
2 | 2:50.63 | 2:50.06 | 12813 | 25568
3 | 5:40.69 | 2:40.61 | 25569 | 37629
4 | 8:21.55 | 2:40.50 | 37630 | 49679
5 | 11:02.30 | 3:34.05 | 49680 | 65734
6 | 14:36.35 | 3:15.67 | 65735 | 80426
7 | 17:52.27 | 3:32.22 | 80427 | 96348
8 | 21:24.49 | 3:31.41 | 96349 | 112214
9 | 24:56.15 | 3:34.18 | 112215 | 128282
10 | 28:30.33 | 2:36.22 | 128283 | 140004
11 | 31:06.55 | 3:09.58 | 140005 | 154237
12 | 34:16.38 | 2:20.17 | 154238 | 164754
13 | 36:36.55 | 2:45.35 | 164755 | 177164
14 | 39:22.15 | 2:24.39 | 177165 | 188003
15 | 41:46.54 | 2:59.60 | 188004 | 201488
16 | 44:46.39 | 3:07.09 | 201489 | 215522
17 | 47:53.48 | 4:28.24 | 215523 | 235646
18 | 52:21.72 | 2:43.00 | 235647 | 247871
19 | 55:04.72 | 3:01.55 | 247872 | 261501
20 | 58:06.52 | 3:26.12 | 261502 | 276963
21 | 61:32.64 | 3:10.39 | 276964 | 291252
22 | 64:43.28 | 2:43.40 | 291253 | 303517
23 | 67:26.68 | 5:37.67 | 303518 | 328859
24 | 73:04.60 | 2:59.73 | 328860 | 342357


Range status and errors

Selected range

Filename C:\Users\arthu\Desktop\Shakin' Stevens\Shakin' Stevens - Non LP 1.wav

Peak level 99.8 %
Extraction speed 8.4 X
Range quality 100.0 %
Test CRC A288ADA2
Copy CRC B94439B3
Copy OK

No errors occurred


AccurateRip summary

Track 1 not present in database
Track 2 not present in database
Track 3 not present in database
Track 4 not present in database
Track 5 not present in database
Track 6 not present in database
Track 7 not present in database
Track 8 not present in database
Track 9 not present in database
Track 10 not present in database
Track 11 not present in database
Track 12 not present in database
Track 13 not present in database
Track 14 not present in database
Track 15 not present in database
Track 16 not present in database
Track 17 not present in database
Track 18 not present in database
Track 19 not present in database
Track 20 not present in database
Track 21 not present in database
Track 22 not present in database
Track 23 not present in database
Track 24 not present in database

None of the tracks are present in the AccurateRip database

End of status report

–– CUETools DB Plugin V2.1.6

[CTDB TOCID: 4BJ5zdek.cLVVlLbYsay8iVsGFM-] found
Submit result: 4BJ5zdek.cLVVlLbYsay8iVsGFM- has been confirmed
Track | CTDB Status
1 | (15/15) Accurately ripped
2 | (15/15) Accurately ripped
3 | (15/15) Accurately ripped
4 | (15/15) Accurately ripped
5 | (15/15) Accurately ripped
6 | (15/15) Accurately ripped
7 | (15/15) Accurately ripped
8 | (15/15) Accurately ripped
9 | (15/15) Accurately ripped
10 | (15/15) Accurately ripped
11 | (15/15) Accurately ripped
12 | (15/15) Accurately ripped
13 | (15/15) Accurately ripped
14 | (15/15) Accurately ripped
15 | (15/15) Accurately ripped
16 | (15/15) Accurately ripped
17 | (15/15) Accurately ripped
18 | (15/15) Accurately ripped
19 | (15/15) Accurately ripped
20 | (14/15) Accurately ripped, or (1/15) differs in 3 samples @03:10:33
21 | (15/15) Accurately ripped
22 | (15/15) Accurately ripped
23 | (15/15) Accurately ripped
24 | (15/15) Accurately ripped


==== Log checksum 83A29C1B44B73DF308A91318E1FC3B50EDEBD88DBD57531D475801151BEBC693 ====

Track List CD17 - Non LP 2 – Rarities (2020):

01. A Letter To You (Single) 3:14
02. Come Back And Love Me (B-Side “A Letter To You”) 2:49
03. Cry Just A Little Bit (Luongo’s Remix) (B-Side “A Letter” 12″) 6:47
04. Teardrops (Single ) 3:59
05. You Shake Me Up (B-Side “Teardrops”) 3:00
06. Teardrops (Extended Version) (12″) 4:47
07. Breakin’ Up My Heart (Single) 4:00
08. I’ll Give You My Heart (B-Side “Breaking Up My Heart’’) 2:58
09. Break Up My Heart (Extended Remix) (12″) 6:56
10. I’ll Give You My Heart (Remix) (B-Side “Lipstick Powder And Paint”) 2:53
11. Turning Away (Extended Remix) (12″) 4:31
12. Because I Love You (Extended Version) (12″) 4:19
13. Tell Me One More Time (B-Side “Because I Love You”) 3:12
14. If You’re Gonna Cry (B-Side “A Little Boogie Woogie”) 3:46
15. A Little Boogie Woogie (In The Back Of My Mind) (Boogie Mix) (12″) 8:59
16. Come See About Me (Extended remix) (12” Single) 5:52

Total Time: 01:12:00

Exact Audio Copy V1.3 from 2. September 2016

EAC extraction logfile from 23. May 2021, 20:55

Shakin' Stevens / Non LP 2

Used drive : PIONEER BD-RW BDR-212M Adapter: 1 ID: 0

Read mode : Secure
Utilize accurate stream : Yes
Defeat audio cache : Yes
Make use of C2 pointers : No

Read offset correction : 667
Overread into Lead-In and Lead-Out : No
Fill up missing offset samples with silence : Yes
Delete leading and trailing silent blocks : No
Null samples used in CRC calculations : Yes
Used interface : Native Win32 interface for Win NT & 2000

Used output format : Internal WAV Routines
Sample format : 44.100 Hz; 16 Bit; Stereo


TOC of the extracted CD

Track | Start | Length | Start sector | End sector
––––––––––––––––––––––––––––-
1 | 0:00.00 | 3:14.25 | 0 | 14574
2 | 3:14.25 | 2:48.62 | 14575 | 27236
3 | 6:03.12 | 6:46.44 | 27237 | 57730
4 | 12:49.56 | 3:58.55 | 57731 | 75635
5 | 16:48.36 | 3:00.30 | 75636 | 89165
6 | 19:48.66 | 4:46.66 | 89166 | 110681
7 | 24:35.57 | 3:59.56 | 110682 | 128662
8 | 28:35.38 | 2:58.16 | 128663 | 142028
9 | 31:33.54 | 6:55.39 | 142029 | 173192
10 | 38:29.18 | 2:53.25 | 173193 | 186192
11 | 41:22.43 | 4:30.47 | 186193 | 206489
12 | 45:53.15 | 4:18.55 | 206490 | 225894
13 | 50:11.70 | 3:12.33 | 225895 | 240327
14 | 53:24.28 | 3:45.47 | 240328 | 257249
15 | 57:10.00 | 8:59.07 | 257250 | 297681
16 | 66:09.07 | 5:51.43 | 297682 | 324049


Range status and errors

Selected range

Filename C:\Users\arthu\Desktop\Shakin' Stevens\Shakin' Stevens - Non LP 2.wav

Peak level 100.0 %
Extraction speed 2.0 X
Range quality 99.9 %
Test CRC 975F1E26
Copy CRC 975F1E26
Copy OK

No errors occurred


AccurateRip summary

Track 1 not present in database
Track 2 not present in database
Track 3 not present in database
Track 4 not present in database
Track 5 not present in database
Track 6 not present in database
Track 7 not present in database
Track 8 not present in database
Track 9 not present in database
Track 10 not present in database
Track 11 not present in database
Track 12 not present in database
Track 13 not present in database
Track 14 not present in database
Track 15 not present in database
Track 16 not present in database

None of the tracks are present in the AccurateRip database

End of status report

–– CUETools DB Plugin V2.1.6

[CTDB TOCID: wmx_RDBk0IRJ3ajv6FtQNG0zYmg-] found
Submit result: wmx_RDBk0IRJ3ajv6FtQNG0zYmg- has been confirmed
Track | CTDB Status
1 | (14/14) Accurately ripped
2 | (14/14) Accurately ripped
3 | (14/14) Accurately ripped
4 | (14/14) Accurately ripped
5 | (14/14) Accurately ripped
6 | (14/14) Accurately ripped
7 | (14/14) Accurately ripped
8 | (14/14) Accurately ripped
9 | (14/14) Accurately ripped
10 | (14/14) Accurately ripped
11 | (14/14) Accurately ripped
12 | (14/14) Accurately ripped
13 | (14/14) Accurately ripped
14 | (14/14) Accurately ripped
15 | (14/14) Accurately ripped
16 | (14/14) Accurately ripped


==== Log checksum C4188A966BCA37F7825D412A95D062BA135561CAA39D5B0137F27AC8A059BFA4 ====

Track List CD18 - Non LP 3 – Rarities (2020):

01. Feel The Need In Me (Single) 3:03
02. If I Can’t Have You (B-Side “Feel The Need”) 3:22
03. Feel The Need In Me (Dance Mix) (12″) 5:16
04. If I Really Knew (B-Side “How Many Tears”) 3:20
05. How Many Tears Can You Hide (Dance Mix) (12″) 5:16
06. True Love (Extended Version) (12″) 3:34
07. Come On Little Girl (Chrome Sitar) (B-Side “True Love”) 3:31
08. Jezebel (7″ Re-mix) (Single) 2:58
09. As Long As I Have You (Live) (B-Side “Jezebel”) (Live) 4:29
10. Jezebel (Monster Re-mix) (12”) 6:46
11. Love Attack (7″) 3:12
12. Love Attack (Extended Version) (12″) 5:34
13. I Might (Extended Version) (12″) 5:05
14. Love Won’t Stop (B-Side “I Might”) 2:38
15. Yes I Do (Extended Version) (12″) 4:56
16. Dizzy Miss Lizzy (Live) 4:36
17. With My Heart (B-Side “I’ll Be Home For Christmas”) (Live) 2:50

Total Time: 01:10 :27

Exact Audio Copy V1.3 from 2. September 2016

EAC extraction logfile from 24. May 2021, 9:14

Shakin' Stevens / Non LP 3

Used drive : PIONEER BD-RW BDR-212M Adapter: 1 ID: 0

Read mode : Secure
Utilize accurate stream : Yes
Defeat audio cache : Yes
Make use of C2 pointers : No

Read offset correction : 667
Overread into Lead-In and Lead-Out : No
Fill up missing offset samples with silence : Yes
Delete leading and trailing silent blocks : No
Null samples used in CRC calculations : Yes
Used interface : Native Win32 interface for Win NT & 2000

Used output format : Internal WAV Routines
Sample format : 44.100 Hz; 16 Bit; Stereo


TOC of the extracted CD

Track | Start | Length | Start sector | End sector
––––––––––––––––––––––––––––-
1 | 0:00.00 | 3:03.13 | 0 | 13737
2 | 3:03.13 | 3:22.07 | 13738 | 28894
3 | 6:25.20 | 5:15.55 | 28895 | 52574
4 | 11:41.00 | 3:19.42 | 52575 | 67541
5 | 15:00.42 | 5:15.50 | 67542 | 91216
6 | 20:16.17 | 3:34.18 | 91217 | 107284
7 | 23:50.35 | 3:31.33 | 107285 | 123142
8 | 27:21.68 | 2:58.05 | 123143 | 136497
9 | 30:19.73 | 4:29.35 | 136498 | 156707
10 | 34:49.33 | 6:45.38 | 156708 | 187120
11 | 41:34.71 | 3:12.36 | 187121 | 201556
12 | 44:47.32 | 5:34.34 | 201557 | 226640
13 | 50:21.66 | 5:05.02 | 226641 | 249517
14 | 55:26.68 | 2:38.19 | 249518 | 261386
15 | 58:05.12 | 4:55.60 | 261387 | 283571
16 | 63:00.72 | 4:36.34 | 283572 | 304305
17 | 67:37.31 | 2:49.61 | 304306 | 317041


Range status and errors

Selected range

Filename C:\Users\arthu\Desktop\Shakin' Stevens\Shakin' Stevens - Non LP 3.wav

Peak level 99.3 %
Extraction speed 2.0 X
Range quality 100.0 %
Test CRC 8B24A8BB
Copy CRC 8B24A8BB
Copy OK

No errors occurred


AccurateRip summary

Track 1 not present in database
Track 2 not present in database
Track 3 not present in database
Track 4 not present in database
Track 5 not present in database
Track 6 not present in database
Track 7 not present in database
Track 8 not present in database
Track 9 not present in database
Track 10 not present in database
Track 11 not present in database
Track 12 not present in database
Track 13 not present in database
Track 14 not present in database
Track 15 not present in database
Track 16 not present in database
Track 17 not present in database

None of the tracks are present in the AccurateRip database

End of status report

–– CUETools DB Plugin V2.1.6

[CTDB TOCID: .6phNbC0uR1rSKKfR58jlfDsvzQ-] found
Submit result: .6phNbC0uR1rSKKfR58jlfDsvzQ- has been confirmed
Track | CTDB Status
1 | (13/13) Accurately ripped
2 | (13/13) Accurately ripped
3 | (13/13) Accurately ripped
4 | (13/13) Accurately ripped
5 | (13/13) Accurately ripped
6 | (13/13) Accurately ripped
7 | (13/13) Accurately ripped
8 | (13/13) Accurately ripped
9 | (13/13) Accurately ripped
10 | (13/13) Accurately ripped
11 | (13/13) Accurately ripped
12 | (13/13) Accurately ripped
13 | (13/13) Accurately ripped
14 | (13/13) Accurately ripped
15 | (13/13) Accurately ripped
16 | (13/13) Accurately ripped
17 | (13/13) Accurately ripped


==== Log checksum F874014E5945F2903B317002F9BB3C92318B6883B3AAEEF46F8C12F1DE2058FA ====

Track List CD19 - Non LP 4 – Rarities (2020):

01. You Shake Me Up (Remix) 2:54
02. Radio (Single) 3:30
03. Oh Baby Don’t (Out-take) (B-Side “Radio”) 2:36
04. Radio (Acoustic Version) (B-Side “Radio” CD) 3:26
05. I Can Help (Single) 2:46
06. Calling You (B-Side) 3:24
07. I Need You Now (UNRELEASED) 3:10
08. Wild At Heart (UNRELEASED) 3:17
09. Now Listen (Acoustic Mix) (B-Side “Now Listen”) 3:25
10. Trouble (Live) (B-Side “Now Listen”) 3:24
11. Down In The Hole (Radio Mix) (Single) 3:05
12. Down Into Muddy Water (Radio Mix) (Single) 3:30
13. Last Man Alive (Radio Mix) (Single) 3:15
14. Down In The Hole (The Blues Show with Paul Jones – BBC) 3:13
15. Down Into Muddy Water (The Blues Show with Paul Jones – BBC) 3:27
16. The Fire In Her Blood (The Blues Show with Paul Jones – BBC) 3:28
17. Last Man Alive (The Blues Show with Paul Jones – BBC) 3:21
18. To Spread The Word (The Blues Show with Paul Jones – BBC) 3:15
19. Echoes Of Merry Christmas Everyone (Single) 3:00

Total Time: 01:01:25

Exact Audio Copy V1.3 from 2. September 2016

EAC extraction logfile from 25. May 2021, 11:17

Shakin' Stevens / Non LP 4

Used drive : PIONEER BD-RW BDR-212M Adapter: 1 ID: 0

Read mode : Secure
Utilize accurate stream : Yes
Defeat audio cache : Yes
Make use of C2 pointers : No

Read offset correction : 667
Overread into Lead-In and Lead-Out : No
Fill up missing offset samples with silence : Yes
Delete leading and trailing silent blocks : No
Null samples used in CRC calculations : Yes
Used interface : Native Win32 interface for Win NT & 2000

Used output format : Internal WAV Routines
Sample format : 44.100 Hz; 16 Bit; Stereo


TOC of the extracted CD

Track | Start | Length | Start sector | End sector
––––––––––––––––––––––––––––-
1 | 0:00.00 | 2:54.06 | 0 | 13055
2 | 2:54.06 | 3:30.10 | 13056 | 28815
3 | 6:24.16 | 2:35.51 | 28816 | 40491
4 | 8:59.67 | 3:25.39 | 40492 | 55905
5 | 12:25.31 | 2:45.48 | 55906 | 68328
6 | 15:11.04 | 3:23.60 | 68329 | 83613
7 | 18:34.64 | 3:10.37 | 83614 | 97900
8 | 21:45.26 | 3:17.36 | 97901 | 112711
9 | 25:02.62 | 3:25.22 | 112712 | 128108
10 | 28:28.09 | 3:23.56 | 128109 | 143389
11 | 31:51.65 | 3:05.00 | 143390 | 157264
12 | 34:56.65 | 3:29.55 | 157265 | 172994
13 | 38:26.45 | 3:14.42 | 172995 | 187586
14 | 41:41.12 | 3:12.57 | 187587 | 202043
15 | 44:53.69 | 3:26.70 | 202044 | 217563
16 | 48:20.64 | 3:28.19 | 217564 | 233182
17 | 51:49.08 | 3:21.21 | 233183 | 248278
18 | 55:10.29 | 3:15.00 | 248279 | 262903
19 | 58:25.29 | 3:00.02 | 262904 | 276405


Range status and errors

Selected range

Filename C:\Users\arthu\Desktop\Shakin' Stevens\Shakin' Stevens - Non LP 4.wav

Peak level 100.0 %
Extraction speed 1.1 X
Range quality 99.9 %
Copy CRC 1B8F935F
Copy OK

No errors occurred


AccurateRip summary

Track 1 not present in database
Track 2 not present in database
Track 3 not present in database
Track 4 not present in database
Track 5 not present in database
Track 6 not present in database
Track 7 not present in database
Track 8 not present in database
Track 9 not present in database
Track 10 not present in database
Track 11 not present in database
Track 12 not present in database
Track 13 not present in database
Track 14 not present in database
Track 15 not present in database
Track 16 not present in database
Track 17 not present in database
Track 18 not present in database
Track 19 not present in database

None of the tracks are present in the AccurateRip database

End of status report

–– CUETools DB Plugin V2.1.6

[CTDB TOCID: Phl.xf5TMyVXh18PH3NIj9H5g34-] found
Submit result: Phl.xf5TMyVXh18PH3NIj9H5g34- has been submitted
Track | CTDB Status
1 | (15/15) Accurately ripped
2 | (15/15) Accurately ripped
3 | (14/15) Differs in 3 samples @02:29:21
4 | (15/15) Accurately ripped
5 | (15/15) Accurately ripped
6 | (15/15) Accurately ripped
7 | (15/15) Accurately ripped
8 | (14/15) Differs in 13 samples @01:53:15,03:11:43,03:11:57,03:12:38
9 | (15/15) Accurately ripped
10 | (15/15) Accurately ripped
11 | (15/15) Accurately ripped
12 | (15/15) Accurately ripped
13 | (15/15) Accurately ripped
14 | (15/15) Accurately ripped
15 | (15/15) Accurately ripped
16 | (14/15) Differs in 45 samples @00:37:33,01:23:28,01:24:42,01:24:60,01:25:03,01:25:38-01:25:39,01:25:56,01:26:35,01:27:48-01:27:49,01:27:66,01:41:34
17 | (14/15) Differs in 6 samples @00:07:59-00:07:60
18 | (15/15) Accurately ripped
19 | (14/15) Differs in 2 samples @01:47:04
If you are sure that your rip contains errors, you can use CUETools to repair it.


==== Log checksum 28E86CDF91954C8DF8D6F3ABC5ACFB66F1D5518A834FEA7A3281BF9856ABD34F ====

Shakin' Stevens - Fire In The Blood: The Definitive Collection (2020) {19CD Deluxe Box Set}


See also:

Shakin' Stevens - Chronology: The Epic Hit Singles (2007)

Shakin’ Stevens - Singled O...ction (2020) {3CD Box Set}

All thanks go to London

>>> My Blog <<<

DOWNLOAD: