Subcategories

Steve Roach & Robert Rich - Soma (1992) [Re-Up]

Posted By: Designol
Steve Roach & Robert Rich - Soma (1992) [Re-Up]

Steve Roach & Robert Rich - Soma (1992)
EAC | FLAC | Image (Cue&Log) ~ 275 Mb (incl 5%) | Mp3 (CBR320) ~ 163 Mb (incl 5%) | Scans included
Ambient, Ethnic Fusion, Progressive Electronic | Label: Heart of Space | # HS11033-2 | Time: 00:57:17

Steve Roach and Robert Rich are the most important electronic ambient musicians in the U.S. SoMa is their highly acclaimed follow-up to their first collaboration, Strata. Soma, according to Vedic writings, is "a drink made from plants which could help one commune with the gods." It is also the Greek word for body. So they designed this CD to be a vehicle to traverse between the physical and spiritual worlds. It is deep stuff. The soundscape offers listeners the opportunity to pursue and achieve states of ecstasy. The only extracurricular involvement is from the souls of the music and the listeners. The psychoactive atmospheres penetrate the defenses of the spirit and use Earth's resonant rhythms to tap into the biorhythms. From that point forward, Rich and Roach are in control. Listeners will go to the far reaches of the netherworld and stay within the limits set by this duo. This CD is in a league of its own. Comparisons would do the other discs an injustice. It is an essential album for all fans of good music.

Review by Jim Brenholts, Allmusic.com

Steve Roach & Robert Rich - Soma (1992) [Re-Up]



Tracklist:

01. Love Magick (7:40)
02. Nightshade (9:08)
03. Going Inland (4:03)
04. Silk Ridge (6:08)
05. Blood Music (7:55)
06. Soma (12:22)
07. Seduction Of The Minotaur (5:25)
08. Touch (4:37)


Exact Audio Copy V1.0 beta 3 from 29. August 2011

Отчёт EAC об извлечении, выполненном 11. мая 2014, 14:07

Steve Roach & Robert Rich / Soma

Дисковод: PLEXTOR CD-R PREMIUM2 Adapter: 3 ID: 0

Режим чтения : Достоверность
Использование точного потока : Да
Отключение кэша аудио : Да
Использование указателей C2 : Нет

Коррекция смещения при чтении : 30
Способность читать области Lead-in и Lead-out : Да
Заполнение пропущенных сэмплов тишиной : Да
Удаление блоков с тишиной в начале и конце : Нет
При вычислениях CRC использовались нулевые сэмплы : Да
Интерфейс : Встроенный Win32-интерфейс для Win NT/2000

Выходной формат : Внутренние WAV-операции
Формат сэмплов : 44.100 Гц; 16 бит; стерео


TOC извлечённого CD

Трек | Старт | Длительность | Начальный сектор | Конечный сектор
––––––––––––––––––––––––––––––––––-
1 | 0:00.32 | 7:40.13 | 32 | 34544
2 | 7:40.45 | 9:07.50 | 34545 | 75619
3 | 16:48.20 | 4:02.50 | 75620 | 93819
4 | 20:50.70 | 6:08.25 | 93820 | 121444
5 | 26:59.20 | 7:55.00 | 121445 | 157069
6 | 34:54.20 | 12:22.02 | 157070 | 212721
7 | 47:16.22 | 5:24.63 | 212722 | 237084
8 | 52:41.10 | 4:36.45 | 237085 | 257829


Характеристики диапазона извлечения и сообщения об ошибках

Выбранный диапазон

Имя файла D:\Steve Roach & Robert Rich - Soma - 1992\Steve Roach & Robert Rich - Soma.wav

Пиковый уровень 100.0 %
Скорость извлечения 6.4 X
Качество диапазона 100.0 %
CRC теста C740B690
CRC копии C740B690
Копирование… OK

Ошибок не произошло


AccurateRip: сводка

Трек 1 : извлечено точно (доверие 8) [11D37997] (AR v2)
Трек 2 : извлечено точно (доверие 8) [AC2720A1] (AR v2)
Трек 3 : извлечено точно (доверие 8) [02BE26AD] (AR v2)
Трек 4 : извлечено точно (доверие 8) [98CBD969] (AR v2)
Трек 5 : извлечено точно (доверие 8) [0FE915A6] (AR v2)
Трек 6 : извлечено точно (доверие 8) [2C04663F] (AR v2)
Трек 7 : извлечено точно (доверие 8) [0C4E8F28] (AR v2)
Трек 8 : извлечено точно (доверие 8) [2B59276F] (AR v2)

Все треки извлечены точно

Конец отчёта

–– CUETools DB Plugin V2.1.5

[CTDB TOCID: j95qdO3Vyxe2LyoXEPsZ541XWTY-] found
Submit result: j95qdO3Vyxe2LyoXEPsZ541XWTY- has been confirmed
Track | CTDB Status
1 | (5/5) Accurately ripped
2 | (5/5) Accurately ripped
3 | (5/5) Accurately ripped
4 | (5/5) Accurately ripped
5 | (5/5) Accurately ripped
6 | (5/5) Accurately ripped
7 | (5/5) Accurately ripped
8 | (5/5) Accurately ripped


==== Контрольная сумма отчёта 69E9A2C5EE15963C4E083BAF7B231779A93346012D320D75F1BC86872385BF5D ====

foobar2000 1.2 / Dynamic Range Meter 1.1.1
log date: 2014-06-22 16:19:21

––––––––––––––––––––––––––––––––––––––––
Analyzed: Steve Roach & Robert Rich / Soma
––––––––––––––––––––––––––––––––––––––––

DR Peak RMS Duration Track
––––––––––––––––––––––––––––––––––––––––
DR14 0.00 dB -19.11 dB 7:40 01-Love Magick
DR14 -0.37 dB -18.26 dB 9:08 02-Nightshade
DR15 -1.11 dB -19.42 dB 4:03 03-Going Inland
DR13 -2.86 dB -21.58 dB 6:08 04-Silk Ridge
DR14 0.00 dB -18.63 dB 7:55 05-Blood Music
DR15 -1.11 dB -20.52 dB 12:22 06-Soma
DR11 -4.74 dB -20.89 dB 5:25 07-Seduction Of The Minotaur
DR10 -3.66 dB -18.55 dB 4:37 08-Touch
––––––––––––––––––––––––––––––––––––––––

Number of tracks: 8
Official DR value: DR13

Samplerate: 44100 Hz
Channels: 2
Bits per sample: 16
Bitrate: 580 kbps
Codec: FLAC
================================================================================

Steve Roach & Robert Rich - Soma (1992) [Re-Up]

Steve Roach & Robert Rich - Soma (1992) [Re-Up]

All thanks to original releaser - Stripakulina

More interesting music in My Blog