Subcategories
Tags
Language
Tags

Stuart A. Staples - Music For Claire Denis' High Life (2019)

Posted By: popsakov
Stuart A. Staples - Music For Claire Denis' High Life (2019)

Stuart A. Staples - Music For Claire Denis' High Life (2019)
EAC Rip | FLAC (Tracks) + Cue + m3u + Log ~ 253 Mb | MP3 CBR320 ~ 208 Mb
Scans Included | 01:00:12 | RAR 5% Recovery
Soundtrack / Score / Alternative / Electronic / Indie Rock
Lucky Dog #Lucky Dog 22 / City Slang #Slang50196

Stuart A. Staples of Tindersticks scores music for Claire Denis' film 'High Life'. 'High Life' was written and directed by Denis and stars Robert Pattinson and Juliette Binoche in the lead roles. It focuses on a group of criminals who are tricked into believing they will be freed if they participate in a mission to travel on a spaceship towards a black hole to find an alternate energy source while being sexually experimented on by the scientists on board. ‘Willow’ performed by tindersticks and featuring guest vocals from Robert Pattison was written for the final scene of the film.

***************

Track List:

01. The Garden [2:27]
02. Willow Lullaby [1:59]
03. System Report [3:28]
04. Main Title [1:32]
05. River Flashback [1:01]
06. Fluids [0:56]
07. The Fuck Box [4:24]
08. Bad Genes - Revolution [2:57]
09. Radiation [2:04]
10. Rape of Boyse [4:07]
11. Insemination [4:32]
12. Grow Baby, Grow [0:56]
13. Boyse's Death [12:03]
14. The Dog Ship [3:16]
15. Monte and Willow [2:08]
16. The Yellow Light [1:18]
17. Willow [Tindersticks feat. Robert Pattinson] [5:24]
18. The Black Hole (Excerpt) [5:50]

Exact Audio Copy V1.6 from 23. October 2020

EAC extraction logfile from 23. May 2021, 23:53

Stuart A. Staples / Music for Claire Denis' High Life

Used drive : ASUS BW-12D1S-U Adapter: 1 ID: 0

Read mode : Secure
Utilize accurate stream : Yes
Defeat audio cache : Yes
Make use of C2 pointers : No

Read offset correction : 667
Overread into Lead-In and Lead-Out : No
Fill up missing offset samples with silence : Yes
Delete leading and trailing silent blocks : No
Null samples used in CRC calculations : Yes
Used interface : Native Win32 interface for Win NT & 2000
Gap handling : Appended to previous track

Used output format : User Defined Encoder
Selected bitrate : 1024 kBit/s
Quality : High
Add ID3 tag : No
Command line compressor : C:\Program Files (x86)\Exact Audio Copy\FLAC\FLAC.EXE
Additional command line options : -V -8 -T "Date=%year%" -T "Genre=%genre%" %source%


TOC of the extracted CD

Track | Start | Length | Start sector | End sector
––––––––––––––––––––––––––––-
1 | 0:00.00 | 2:26.71 | 0 | 11020
2 | 2:26.71 | 1:58.48 | 11021 | 19918
3 | 4:25.44 | 3:27.13 | 19919 | 35456
4 | 7:52.57 | 1:31.68 | 35457 | 42349
5 | 9:24.50 | 1:00.19 | 42350 | 46868
6 | 10:24.69 | 0:55.40 | 46869 | 51033
7 | 11:20.34 | 4:23.04 | 51034 | 70762
8 | 15:43.38 | 2:56.37 | 70763 | 83999
9 | 18:40.00 | 2:03.41 | 84000 | 93265
10 | 20:43.41 | 4:06.30 | 93266 | 111745
11 | 24:49.71 | 4:31.23 | 111746 | 132093
12 | 29:21.19 | 0:55.54 | 132094 | 136272
13 | 30:16.73 | 12:02.33 | 136273 | 190455
14 | 42:19.31 | 3:15.08 | 190456 | 205088
15 | 45:34.39 | 2:07.19 | 205089 | 214632
16 | 47:41.58 | 1:17.17 | 214633 | 220424
17 | 48:59.00 | 5:23.20 | 220425 | 244669
18 | 54:22.20 | 5:49.38 | 244670 | 270882


Track 1

Filename E:\Torrents of Autumn\Staples, Stuart A. [2019] Music for Claire Denis' High Life\Stuart A. Staples - Music for Claire Denis' High Life - 01. The Garden.wav

Pre-gap length 0:00:02.00

Peak level 48.9 %
Extraction speed 4.1 X
Track quality 100.0 %
Test CRC 9EAD8970
Copy CRC 9EAD8970
Copy OK

Track 2

Filename E:\Torrents of Autumn\Staples, Stuart A. [2019] Music for Claire Denis' High Life\Stuart A. Staples - Music for Claire Denis' High Life - 02. Willow Lullaby.wav

Peak level 14.0 %
Extraction speed 4.1 X
Track quality 100.0 %
Test CRC A8720870
Copy CRC A8720870
Copy OK

Track 3

Filename E:\Torrents of Autumn\Staples, Stuart A. [2019] Music for Claire Denis' High Life\Stuart A. Staples - Music for Claire Denis' High Life - 03. System Report.wav

Peak level 50.1 %
Extraction speed 4.2 X
Track quality 99.9 %
Test CRC 90D91CE4
Copy CRC 90D91CE4
Copy OK

Track 4

Filename E:\Torrents of Autumn\Staples, Stuart A. [2019] Music for Claire Denis' High Life\Stuart A. Staples - Music for Claire Denis' High Life - 04. Main Title.wav

Peak level 29.0 %
Extraction speed 4.3 X
Track quality 100.0 %
Test CRC 5273FCED
Copy CRC 5273FCED
Copy OK

Track 5

Filename E:\Torrents of Autumn\Staples, Stuart A. [2019] Music for Claire Denis' High Life\Stuart A. Staples - Music for Claire Denis' High Life - 05. River Flashback.wav

Peak level 2.5 %
Extraction speed 3.8 X
Track quality 100.0 %
Test CRC D01907DA
Copy CRC D01907DA
Copy OK

Track 6

Filename E:\Torrents of Autumn\Staples, Stuart A. [2019] Music for Claire Denis' High Life\Stuart A. Staples - Music for Claire Denis' High Life - 06. Fluids.wav

Peak level 24.6 %
Extraction speed 3.7 X
Track quality 100.0 %
Test CRC E4862FED
Copy CRC E4862FED
Copy OK

Track 7

Filename E:\Torrents of Autumn\Staples, Stuart A. [2019] Music for Claire Denis' High Life\Stuart A. Staples - Music for Claire Denis' High Life - 07. The Fuck Box.wav

Peak level 100.0 %
Extraction speed 5.7 X
Track quality 100.0 %
Test CRC BAF8CDC9
Copy CRC BAF8CDC9
Copy OK

Track 8

Filename E:\Torrents of Autumn\Staples, Stuart A. [2019] Music for Claire Denis' High Life\Stuart A. Staples - Music for Claire Denis' High Life - 08. Bad Genes - Revolution.wav

Peak level 43.0 %
Extraction speed 5.7 X
Track quality 100.0 %
Test CRC 9BC6E9D6
Copy CRC 9BC6E9D6
Copy OK

Track 9

Filename E:\Torrents of Autumn\Staples, Stuart A. [2019] Music for Claire Denis' High Life\Stuart A. Staples - Music for Claire Denis' High Life - 09. Radiation.wav

Peak level 46.7 %
Extraction speed 5.5 X
Track quality 100.0 %
Test CRC 9C4C89C7
Copy CRC 9C4C89C7
Copy OK

Track 10

Filename E:\Torrents of Autumn\Staples, Stuart A. [2019] Music for Claire Denis' High Life\Stuart A. Staples - Music for Claire Denis' High Life - 10. Rape of Boyse.wav

Peak level 100.0 %
Extraction speed 6.4 X
Track quality 100.0 %
Test CRC A04E9845
Copy CRC A04E9845
Copy OK

Track 11

Filename E:\Torrents of Autumn\Staples, Stuart A. [2019] Music for Claire Denis' High Life\Stuart A. Staples - Music for Claire Denis' High Life - 11. Insemination.wav

Peak level 23.9 %
Extraction speed 6.8 X
Track quality 100.0 %
Test CRC 739B939B
Copy CRC 739B939B
Copy OK

Track 12

Filename E:\Torrents of Autumn\Staples, Stuart A. [2019] Music for Claire Denis' High Life\Stuart A. Staples - Music for Claire Denis' High Life - 12. Grow Baby, Grow.wav

Peak level 16.0 %
Extraction speed 4.7 X
Track quality 100.0 %
Test CRC 88898A58
Copy CRC 88898A58
Copy OK

Track 13

Filename E:\Torrents of Autumn\Staples, Stuart A. [2019] Music for Claire Denis' High Life\Stuart A. Staples - Music for Claire Denis' High Life - 13. Boyse's Death.wav

Peak level 100.0 %
Extraction speed 7.7 X
Track quality 99.9 %
Test CRC 16CA7400
Copy CRC 16CA7400
Copy OK

Track 14

Filename E:\Torrents of Autumn\Staples, Stuart A. [2019] Music for Claire Denis' High Life\Stuart A. Staples - Music for Claire Denis' High Life - 14. The Dog Ship.wav

Peak level 27.6 %
Extraction speed 7.5 X
Track quality 100.0 %
Test CRC D8F672E9
Copy CRC D8F672E9
Copy OK

Track 15

Filename E:\Torrents of Autumn\Staples, Stuart A. [2019] Music for Claire Denis' High Life\Stuart A. Staples - Music for Claire Denis' High Life - 15. Monte and Willow.wav

Peak level 99.9 %
Extraction speed 6.9 X
Track quality 100.0 %
Test CRC 2665224F
Copy CRC 2665224F
Copy OK

Track 16

Filename E:\Torrents of Autumn\Staples, Stuart A. [2019] Music for Claire Denis' High Life\Stuart A. Staples - Music for Claire Denis' High Life - 16. The Yellow Light.wav

Peak level 6.0 %
Extraction speed 6.0 X
Track quality 100.0 %
Test CRC E0C4ECC8
Copy CRC E0C4ECC8
Copy OK

Track 17

Filename E:\Torrents of Autumn\Staples, Stuart A. [2019] Music for Claire Denis' High Life\Stuart A. Staples - Music for Claire Denis' High Life - 17. Willow [Tindersticks feat. Robert Pattinson].wav

Peak level 88.9 %
Extraction speed 8.4 X
Track quality 100.0 %
Test CRC CBF720EF
Copy CRC CBF720EF
Copy OK

Track 18

Filename E:\Torrents of Autumn\Staples, Stuart A. [2019] Music for Claire Denis' High Life\Stuart A. Staples - Music for Claire Denis' High Life - 18. The Black Hole (Excerpt).wav

Peak level 26.5 %
Extraction speed 8.7 X
Track quality 100.0 %
Test CRC 5DD8D498
Copy CRC 5DD8D498
Copy OK

No errors occurred

End of status report

–– CUETools DB Plugin V2.1.6

[CTDB TOCID: VlDnPA7XriIzjlAFD74yAT5NCTU-] found
Submit result: already submitted
Track | CTDB Status
1 | (16/16) Accurately ripped
2 | (16/16) Accurately ripped
3 | (16/16) Accurately ripped
4 | (16/16) Accurately ripped
5 | (16/16) Accurately ripped
6 | (16/16) Accurately ripped
7 | (16/16) Accurately ripped
8 | (16/16) Accurately ripped
9 | (16/16) Accurately ripped
10 | (16/16) Accurately ripped
11 | (16/16) Accurately ripped
12 | (16/16) Accurately ripped
13 | (16/16) Accurately ripped
14 | (16/16) Accurately ripped
15 | (16/16) Accurately ripped
16 | (16/16) Accurately ripped
17 | (16/16) Accurately ripped
18 | (16/16) Accurately ripped


==== Log checksum 17F7509462E6072A973FC464C696B7A7A82AE8A8AF6CA10F62583AF3504E53C5 ====

Stuart A. Staples - Music For Claire Denis' High Life (2019)


See also:

Stuart A. Staples - Leaving Songs (2006) {Expanded Edition}

All thanks go to DoobieBro

>>> My Blog <<<

DOWNLOAD: