Tags
Language
Tags

Tangerine Dream - Zeitgeist Concert [3CD Box Set] (2010)

Posted By:
Tangerine Dream - Zeitgeist Concert [3CD Box Set] (2010)

Tangerine Dream - Zeitgeist Concert [3CD Box Set] (2010)
EAC Rip | FLAC (tracks+.cue+log) - 1,33 GB | MP3 CBR 320 kbps (LAME 3.93) - 452 MB | Covers - 55 MB
Genre: Progressive Electronic, Berlin School | RAR 3% Rec. | Label: Eastgate (045 CD)

A spectacular 3CD live recording of the already legendary 2010 performance at Royal Albert Hall by the critically adored, hugely influential band Tangerine Dream! Opening with a dramatic cello quartet followed by an improvisational piano piece, this breathtaking show includes vibrant takes on classic TD material from the blockbuster albums Phaedra, Rubycon, and so much more!
The Zeitgeist Concert is a live recording of the already legendary Royal Albert Hall concert on April 1st 2010 in London.
In April 1975 Tangerine Dream played the Royal Albert Hall in London for the first time. So it was the 35th Anniversary in April 2010. In April 1970 TD released their first long-play album ever. This made a 40th Anniversary in April 2010. So TD indeed had to celebrate something which they took account of by performing a chain of very popular 33 tracks - a choice which wasn’t easy at all considering a portfolio of more than 1000 compositions over the decades…
The atmosphere in the Royal Albert Hall was very different to other places - cool and intimate at the same time - it felt as if the place was absolutely worthy to pay tribute to the band’s enormous lifework.

CD 1 Tracklist:
01. Cello Opening
02. Piano Improvisation + The Whip
03. Rubycon 2010
04. Phaedra 2005
05. Stratosfear '95
06. Kiev Mission 2009
07. Song Of The Whale
08. No Man's Land (Hyperborea 2008)
09. Poland
10. Dream Puzzle (Tangram 2008)
11. Ayumy's Loom
12. Cloudburst Flight 2008
13. Order Of The Ginger Guild
14. Warsaw In The Sun
15. Cinnamon Road (Hyperborea 2008)
16. Death Of A Nightingale

Total time: 01:18:20

CD 2 Tracklist:
01. Alchemy Of The Heart
02. Astrophel + Stella (String Version)
03. Oracular World
04. Gymnopedies
05. Mombasa
06. The Halloween Cast (Rolling The World's Pumpkin Part I)
07. Carmel Calif
08. Boat To China
09. Bells Of Accra
10. Transition
11. Trauma

Total time: 01:15:29

CD 3 Tracklist:
01. Iris' Vocal Solo
02. Logos Part I
03. One Night In Space
04. Hamlet
05. Long Island Sunset
06. Norwegian Wood
07. Closing Words

Total time: 38:16

Exact Audio Copy V0.99 prebeta 5 from 4. May 2009

EAC extraction logfile from 5. February 2011, 13:40

Tangerine Dream / Zeitgeist Concert

Used drive : ATAPI DVD A DH16AASH Adapter: 2 ID: 3

Read mode : Secure
Utilize accurate stream : Yes
Defeat audio cache : Yes
Make use of C2 pointers : No

Read offset correction : 6
Overread into Lead-In and Lead-Out : No
Fill up missing offset samples with silence : Yes
Delete leading and trailing silent blocks : No
Null samples used in CRC calculations : Yes
Used interface : Native Win32 interface for Win NT & 2000
Gap handling : Appended to previous track

Used output format : Internal WAV Routines
Sample format : 44.100 Hz; 16 Bit; Stereo


TOC of the extracted CD

Track | Start | Length | Start sector | End sector
––––––––––––––––––––––––––––-
1 | 0:00.00 | 3:48.03 | 0 | 17102
2 | 3:48.03 | 3:07.27 | 17103 | 31154
3 | 6:55.30 | 6:09.52 | 31155 | 58881
4 | 13:05.07 | 5:05.01 | 58882 | 81757
5 | 18:10.08 | 6:37.06 | 81758 | 111538
6 | 24:47.14 | 4:38.14 | 111539 | 132402
7 | 29:25.28 | 4:05.05 | 132403 | 150782
8 | 33:30.33 | 2:59.52 | 150783 | 164259
9 | 36:30.10 | 4:20.43 | 164260 | 183802
10 | 40:50.53 | 3:58.28 | 183803 | 201680
11 | 44:49.06 | 3:50.73 | 201681 | 219003
12 | 48:40.04 | 8:22.73 | 219004 | 256726
13 | 57:03.02 | 5:02.01 | 256727 | 279377
14 | 62:05.03 | 5:59.00 | 279378 | 306302
15 | 68:04.03 | 3:58.01 | 306303 | 324153
16 | 72:02.04 | 6:18.45 | 324154 | 352548


Track 1

Filename I:\_Recent\_EACrips\01 Cello Opening [live] - Tangerine Dream.wav

Pre-gap length 0:00:02.00

Peak level 95.9 %
Track quality 100.0 %
Test CRC 8D830C64
Copy CRC 8D830C64
Track not present in AccurateRip database
Copy OK

Track 2

Filename I:\_Recent\_EACrips\02 Piano Improvisation + The Whip [live] - Tangerine Dream.wav

Peak level 98.6 %
Track quality 100.0 %
Test CRC AB1724B3
Copy CRC AB1724B3
Track not present in AccurateRip database
Copy OK

Track 3

Filename I:\_Recent\_EACrips\03 Rubycon 2010 [live] - Tangerine Dream.wav

Peak level 88.3 %
Track quality 100.0 %
Test CRC E410DFF8
Copy CRC E410DFF8
Track not present in AccurateRip database
Copy OK

Track 4

Filename I:\_Recent\_EACrips\04 Phaedra 2005 [live] - Tangerine Dream.wav

Peak level 92.7 %
Track quality 100.0 %
Test CRC 880E3EBD
Copy CRC 880E3EBD
Track not present in AccurateRip database
Copy OK

Track 5

Filename I:\_Recent\_EACrips\05 Stratosfear '95 [live] - Tangerine Dream.wav

Peak level 96.9 %
Track quality 100.0 %
Test CRC 47ADA010
Copy CRC 47ADA010
Track not present in AccurateRip database
Copy OK

Track 6

Filename I:\_Recent\_EACrips\06 Kiev Mission 2009 [live] - Tangerine Dream.wav

Peak level 98.6 %
Track quality 100.0 %
Test CRC 08B83347
Copy CRC 08B83347
Track not present in AccurateRip database
Copy OK

Track 7

Filename I:\_Recent\_EACrips\07 Song Of The Whale [live] - Tangerine Dream.wav

Peak level 98.6 %
Track quality 99.9 %
Test CRC 39B6BF22
Copy CRC 39B6BF22
Track not present in AccurateRip database
Copy OK

Track 8

Filename I:\_Recent\_EACrips\08 No Man's Land {Hyperborea 2008} [live] - Tangerine Dream.wav

Peak level 98.6 %
Track quality 100.0 %
Test CRC 910D5C0C
Copy CRC 910D5C0C
Track not present in AccurateRip database
Copy OK

Track 9

Filename I:\_Recent\_EACrips\09 Poland [live] - Tangerine Dream.wav

Peak level 98.6 %
Track quality 100.0 %
Test CRC EAB33509
Copy CRC EAB33509
Track not present in AccurateRip database
Copy OK

Track 10

Filename I:\_Recent\_EACrips\10 Dream Puzzle {Tangram 2008} [live] - Tangerine Dream.wav

Peak level 92.5 %
Track quality 100.0 %
Test CRC 68EAED44
Copy CRC 68EAED44
Track not present in AccurateRip database
Copy OK

Track 11

Filename I:\_Recent\_EACrips\11 Ayumy's Loom [live] - Tangerine Dream.wav

Peak level 98.6 %
Track quality 100.0 %
Test CRC 0473ED1F
Copy CRC 0473ED1F
Track not present in AccurateRip database
Copy OK

Track 12

Filename I:\_Recent\_EACrips\12 Cloudburst Flight 2008 [live] - Tangerine Dream.wav

Peak level 98.6 %
Track quality 100.0 %
Test CRC 02B89817
Copy CRC 02B89817
Track not present in AccurateRip database
Copy OK

Track 13

Filename I:\_Recent\_EACrips\13 Order Of The Ginger Guild [live] - Tangerine Dream.wav

Peak level 98.6 %
Track quality 100.0 %
Test CRC 46FFF08F
Copy CRC 46FFF08F
Track not present in AccurateRip database
Copy OK

Track 14

Filename I:\_Recent\_EACrips\14 Warsaw In The Sun [live] - Tangerine Dream.wav

Peak level 97.7 %
Track quality 100.0 %
Test CRC 7B819C2A
Copy CRC 7B819C2A
Track not present in AccurateRip database
Copy OK

Track 15

Filename I:\_Recent\_EACrips\15 Cinnamon Road {Hyperborea 2008} [live] - Tangerine Dream.wav

Peak level 98.6 %
Track quality 100.0 %
Test CRC F23DAA8C
Copy CRC F23DAA8C
Track not present in AccurateRip database
Copy OK

Track 16

Filename I:\_Recent\_EACrips\16 Death Of A Nightingale [live] - Tangerine Dream.wav

Peak level 92.4 %
Track quality 100.0 %
Test CRC 18D86C9A
Copy CRC 18D86C9A
Track not present in AccurateRip database
Copy OK


None of the tracks are present in the AccurateRip database

No errors occurred

End of status report

[CUETools log; Date: 23.02.2021 3:15:43; Version: 2.1.4]
[CTDB TOCID: rPghB4DT6pVInC.3S7wzLsRdIps-] found.
Track | CTDB Status
1 | (11/31) Accurately ripped
2 | (11/31) Accurately ripped
3 | (11/31) Accurately ripped
4 | (11/31) Accurately ripped
5 | (11/31) Accurately ripped
6 | (11/31) Accurately ripped
7 | (11/31) Accurately ripped
8 | (11/31) Accurately ripped
9 | (11/31) Accurately ripped
10 | (11/31) Accurately ripped
11 | (11/31) Accurately ripped
12 | (11/31) Accurately ripped
13 | (11/31) Accurately ripped
14 | (11/31) Accurately ripped
15 | (11/31) Accurately ripped
16 | (10/31) Accurately ripped
[AccurateRip ID: 002bd0ba-0212666f-e1125c10] found.
Track [ CRC | V2 ] Status
01 [54e89da6|43b759aa] (00+03/16) Accurately ripped
02 [be1bbd08|9708d829] (00+03/16) Accurately ripped
03 [3ab77267|34f9f5b0] (00+03/16) Accurately ripped
04 [549cd651|75f15f42] (00+03/16) Accurately ripped
05 [c9bfa0ac|5eeb5901] (00+03/16) Accurately ripped
06 [68e75470|51d5c378] (00+03/16) Accurately ripped
07 [5ad8525c|becbeceb] (00+03/16) Accurately ripped
08 [086b639e|8dd3fff2] (00+03/16) Accurately ripped
09 [7c068e8c|36c3ec51] (00+03/16) Accurately ripped
10 [d3fb6325|502c551c] (00+03/16) Accurately ripped
11 [378c24d9|685b3c08] (00+03/16) Accurately ripped
12 [0f00b804|e2f3684f] (00+03/16) Accurately ripped
13 [087c75c1|230ba601] (00+03/16) Accurately ripped
14 [101add89|86035f65] (00+03/16) Accurately ripped
15 [bdb132c1|25655052] (00+03/16) Accurately ripped
16 [30c506fc|2706029a] (00+03/16) Accurately ripped
Offsetted by 664:
01 [82c0acda] (02/16) Accurately ripped
02 [52a5b358] (02/16) Accurately ripped
03 [2a6524ba] (02/16) Accurately ripped
04 [a72d4eb4] (02/16) Accurately ripped
05 [a694ad75] (02/16) Accurately ripped
06 [3b860c26] (02/16) Accurately ripped
07 [da45570f] (02/16) Accurately ripped
08 [e44dad7a] (02/16) Accurately ripped
09 [4ddfd8e6] (02/16) Accurately ripped
10 [607706c1] (02/16) Accurately ripped
11 [5acc5ef6] (02/16) Accurately ripped
12 [1a778927] (02/16) Accurately ripped
13 [91f30cec] (02/16) Accurately ripped
14 [18941559] (02/16) Accurately ripped
15 [773c56f5] (02/16) Accurately ripped
16 [3488fa5b] (02/16) Accurately ripped
Offsetted by -60:
01 [e068a6d2] (00/16) No match (V2 was not tested)
02 [e943537a] (00/16) No match (V2 was not tested)
03 [54432f0c] (00/16) No match (V2 was not tested)
04 [13ad3001] (00/16) No match (V2 was not tested)
05 [ed73db04] (00/16) No match (V2 was not tested)
06 [01932394] (00/16) No match (V2 was not tested)
07 [0a7820ba] (00/16) No match (V2 was not tested)
08 [4482a9c3] (00/16) No match (V2 was not tested)
09 [01736d21] (00/16) No match (V2 was not tested)
10 [e82ab6f3] (00/16) No match (V2 was not tested)
11 [44434c91] (00/16) No match (V2 was not tested)
12 [f1a01f62] (00/16) No match (V2 was not tested)
13 [232c81bf] (00/16) No match (V2 was not tested)
14 [80446887] (00/16) No match (V2 was not tested)
15 [d3617d94] (00/16) No match (V2 was not tested)
16 [3ca40d9e] (00/16) No match (V2 was not tested)

Track Peak [ CRC32 ] [W/O NULL] [ LOG ]
– 98,6 [2AA63F35] [00EDC358]
01 95,9 [8D830C64] [7C21AC3E] CRC32
02 98,6 [AB1724B3] [960A97A3] CRC32
03 88,3 [E410DFF8] [CCE716C2] CRC32
04 92,7 [880E3EBD] [8B571FDC] CRC32
05 96,9 [47ADA010] [21330CA6] CRC32
06 98,6 [08B83347] [9E0F77AE] CRC32
07 98,6 [39B6BF22] [2764DC01] CRC32
08 98,6 [910D5C0C] [76D9E034] CRC32
09 98,6 [EAB33509] [860B29E6] CRC32
10 92,5 [68EAED44] [49588E81] CRC32
11 98,6 [0473ED1F] [7750368A] CRC32
12 98,6 [02B89817] [7FF934D4] CRC32
13 98,6 [46FFF08F] [C10896F1] CRC32
14 97,7 [7B819C2A] [271E0B5F] CRC32
15 98,6 [F23DAA8C] [5EBBE518] CRC32
16 92,4 [18D86C9A] [5DCB97AB] CRC32

Exact Audio Copy V0.99 prebeta 5 from 4. May 2009

EAC extraction logfile from 5. February 2011, 14:34

Tangerine Dream / Zeitgeist Concert

Used drive : ATAPI DVD A DH16AASH Adapter: 2 ID: 3

Read mode : Secure
Utilize accurate stream : Yes
Defeat audio cache : Yes
Make use of C2 pointers : No

Read offset correction : 6
Overread into Lead-In and Lead-Out : No
Fill up missing offset samples with silence : Yes
Delete leading and trailing silent blocks : No
Null samples used in CRC calculations : Yes
Used interface : Native Win32 interface for Win NT & 2000
Gap handling : Appended to previous track

Used output format : Internal WAV Routines
Sample format : 44.100 Hz; 16 Bit; Stereo


TOC of the extracted CD

Track | Start | Length | Start sector | End sector
––––––––––––––––––––––––––––-
1 | 0:00.00 | 6:16.04 | 0 | 28203
2 | 6:16.04 | 5:05.72 | 28204 | 51150
3 | 11:22.01 | 5:23.03 | 51151 | 75378
4 | 16:45.04 | 3:02.73 | 75379 | 89101
5 | 19:48.02 | 5:36.03 | 89102 | 114304
6 | 25:24.05 | 9:00.72 | 114305 | 154876
7 | 34:25.02 | 7:43.17 | 154877 | 189618
8 | 42:08.19 | 8:59.60 | 189619 | 230103
9 | 51:08.04 | 8:05.74 | 230104 | 266552
10 | 59:14.03 | 6:56.01 | 266553 | 297753
11 | 66:10.04 | 9:19.43 | 297754 | 339721


Track 1

Filename I:\_Recent\_EACrips\01 Alchemy Of The Heart - Tangerine Dream.wav

Pre-gap length 0:00:02.00

Peak level 98.6 %
Track quality 100.0 %
Test CRC 1D263EAA
Copy CRC 1D263EAA
Track not present in AccurateRip database
Copy OK

Track 2

Filename I:\_Recent\_EACrips\02 Astrophel + Stella (String Version) - Tangerine Dream.wav

Peak level 93.5 %
Track quality 100.0 %
Test CRC 8B4809E2
Copy CRC 8B4809E2
Track not present in AccurateRip database
Copy OK

Track 3

Filename I:\_Recent\_EACrips\03 Oracular World - Tangerine Dream.wav

Peak level 98.6 %
Track quality 100.0 %
Test CRC 70E08FEC
Copy CRC 70E08FEC
Track not present in AccurateRip database
Copy OK

Track 4

Filename I:\_Recent\_EACrips\04 Gymnopйdies - Tangerine Dream.wav

Peak level 98.6 %
Track quality 99.9 %
Test CRC 95094748
Copy CRC 95094748
Track not present in AccurateRip database
Copy OK

Track 5

Filename I:\_Recent\_EACrips\05 Mombasa - Tangerine Dream.wav

Peak level 98.6 %
Track quality 99.9 %
Test CRC 9EEB8CD9
Copy CRC 9EEB8CD9
Track not present in AccurateRip database
Copy OK

Track 6

Filename I:\_Recent\_EACrips\06 The Halloween Cast (Rolling The World's Pumpkin Part I) - Tangerine Dream.wav

Peak level 98.6 %
Track quality 100.0 %
Test CRC A2AAE034
Copy CRC A2AAE034
Track not present in AccurateRip database
Copy OK

Track 7

Filename I:\_Recent\_EACrips\07 Carmel Calif - Tangerine Dream.wav

Peak level 97.5 %
Track quality 99.9 %
Test CRC B04DE92B
Copy CRC B04DE92B
Track not present in AccurateRip database
Copy OK

Track 8

Filename I:\_Recent\_EACrips\08 Boat To China - Tangerine Dream.wav

Peak level 98.6 %
Track quality 100.0 %
Test CRC 9BDB650A
Copy CRC 9BDB650A
Track not present in AccurateRip database
Copy OK

Track 9

Filename I:\_Recent\_EACrips\09 Bells Of Accra - Tangerine Dream.wav

Peak level 98.6 %
Track quality 100.0 %
Test CRC 03014D89
Copy CRC 03014D89
Track not present in AccurateRip database
Copy OK

Track 10

Filename I:\_Recent\_EACrips\10 Transition - Tangerine Dream.wav

Peak level 98.6 %
Track quality 100.0 %
Test CRC 98AF9651
Copy CRC 98AF9651
Track not present in AccurateRip database
Copy OK

Track 11

Filename I:\_Recent\_EACrips\11 Trauma - Tangerine Dream.wav

Peak level 98.6 %
Track quality 100.0 %
Test CRC 6F5E8E08
Copy CRC 6F5E8E08
Track not present in AccurateRip database
Copy OK


None of the tracks are present in the AccurateRip database

No errors occurred

End of status report

[CUETools log; Date: 23.02.2021 3:16:26; Version: 2.1.4]
[CTDB TOCID: ejwVp5A.loMXMMXWFCyaGskEvKc-] found.
Track | CTDB Status
1 | (12/32) Accurately ripped, or (20/32) differs in 40 samples @06:16:03
2 | (12/32) Accurately ripped, or (20/32) differs in 40 samples @05:05:71
3 | (12/32) Accurately ripped, or (20/32) differs in 40 samples @05:23:02
4 | (12/32) Accurately ripped, or (20/32) differs in 40 samples @03:02:72
5 | (12/32) Accurately ripped, or (20/32) differs in 84 samples @04:05:45,04:10:16-04:10:17,05:02:13,05:36:02
6 | (12/32) Accurately ripped, or (20/32) differs in 1153 samples @00:15:10-00:15:11,00:15:26,00:15:41-00:15:42,00:16:12-00:16:13,00:19:18,00:19:65,00:20:66,00:21:07,00:21:38,00:22:55,00:23:72-00:23:73,00:27:19-00:27:20,00:29:08-00:29:09,00:29:24,00:31:43-00:31:44,00:32:61-00:32:62,00:34:65-00:34:66,00:35:37,00:35:52-00:35:53,00:35:67-00:35:68,00:36:54-00:36:55,00:36:70-00:36:71,00:37:72-00:37:73,00:38:28-00:38:29,00:38:59-00:38:60,00:38:74-00:39:00,00:39:15,00:39:30,00:39:46,00:40:02,00:40:17-00:40:18,00:40:32-00:40:33,00:40:63-00:40:64,00:41:19-00:41:20,00:42:22,00:42:53,00:43:24-00:43:25,00:44:11-00:44:12,00:45:60,09:00:71
7 | (12/32) Accurately ripped, or (20/32) differs in 40 samples @07:43:16
8 | (12/32) Accurately ripped, or (20/32) differs in 40 samples @08:59:59
9 | (12/32) Accurately ripped, or (20/32) differs in 40 samples @08:05:73
10 | (12/32) Accurately ripped, or (20/32) differs in 40 samples @06:56:00
11 | (32/32) Accurately ripped
[AccurateRip ID: 001c06e2-00f935c9-9211b10b] found.
Track [ CRC | V2 ] Status
01 [22affad4|f1398bb5] (00+03/16) Accurately ripped
02 [4a72d79a|88ab8de5] (00+03/16) Accurately ripped
03 [bb119217|955fa213] (00+03/16) Accurately ripped
04 [8b00b5fa|44cb1a46] (00+03/16) Accurately ripped
05 [479e9ba1|dc33ac67] (00+03/16) Accurately ripped
06 [92e52263|5aefdf28] (00+03/16) Accurately ripped
07 [76353069|b25d4497] (00+03/16) Accurately ripped
08 [a06e1c8b|247ee927] (00+03/16) Accurately ripped
09 [a4110e43|efc2bdcf] (00+03/16) Accurately ripped
10 [b7773c0d|ce996a59] (00+03/16) Accurately ripped
11 [a0b4c7b8|a5646e5f] (00+03/16) Accurately ripped
Offsetted by 664:
01 [2c1be346] (02/16) Accurately ripped
02 [d19354fd] (02/16) Accurately ripped
03 [0a7e49dd] (02/16) Accurately ripped
04 [a3b6f592] (02/16) Accurately ripped
05 [dae3d004] (02/16) Accurately ripped
06 [dfb1518f] (02/16) Accurately ripped
07 [52b25d6e] (02/16) Accurately ripped
08 [8ae72b47] (02/16) Accurately ripped
09 [52985411] (02/16) Accurately ripped
10 [d7756458] (02/16) Accurately ripped
11 [553027b4] (02/16) Accurately ripped
Offsetted by -60:
01 [d47caa86] (00/16) No match (V2 was not tested)
02 [96f7383f] (00/16) No match (V2 was not tested)
03 [1740ca1d] (00/16) No match (V2 was not tested)
04 [ead27d03] (00/16) No match (V2 was not tested)
05 [3c7300e9] (00/16) No match (V2 was not tested)
06 [74739bef] (00/16) No match (V2 was not tested)
07 [2b02ffc2] (00/16) No match (V2 was not tested)
08 [94d37bbd] (00/16) No match (V2 was not tested)
09 [3b132d16] (00/16) No match (V2 was not tested)
10 [0ee75c9e] (00/16) No match (V2 was not tested)
11 [92ae2ca7] (00/16) No match (V2 was not tested)

Track Peak [ CRC32 ] [W/O NULL] [ LOG ]
– 98,6 [E25A8566] [66ECE815]
01 98,6 [1D263EAA] [F72A67D0] CRC32
02 93,5 [8B4809E2] [3AE466F6] CRC32
03 98,6 [70E08FEC] [004E7D2F] CRC32
04 98,6 [95094748] [57626329] CRC32
05 98,6 [9EEB8CD9] [C1B5292A] CRC32
06 98,6 [A2AAE034] [220DA530] CRC32
07 97,5 [B04DE92B] [77E5E71D] CRC32
08 98,6 [9BDB650A] [16FFB5B7] CRC32
09 98,6 [03014D89] [4B160756] CRC32
10 98,6 [98AF9651] [9E437A29] CRC32
11 98,6 [6F5E8E08] [248013D2] CRC32

Exact Audio Copy V0.99 prebeta 5 from 4. May 2009

EAC extraction logfile from 5. February 2011, 15:11

Tangerine Dream / Zeitgeist Concert

Used drive : ATAPI DVD A DH16AASH Adapter: 2 ID: 3

Read mode : Secure
Utilize accurate stream : Yes
Defeat audio cache : Yes
Make use of C2 pointers : No

Read offset correction : 6
Overread into Lead-In and Lead-Out : No
Fill up missing offset samples with silence : Yes
Delete leading and trailing silent blocks : No
Null samples used in CRC calculations : Yes
Used interface : Native Win32 interface for Win NT & 2000
Gap handling : Not detected, thus appended to previous track

Used output format : Internal WAV Routines
Sample format : 44.100 Hz; 16 Bit; Stereo


TOC of the extracted CD

Track | Start | Length | Start sector | End sector
––––––––––––––––––––––––––––-
1 | 0:00.00 | 1:13.02 | 0 | 5476
2 | 1:13.02 | 4:05.01 | 5477 | 23852
3 | 5:18.03 | 7:31.00 | 23853 | 57677
4 | 12:49.03 | 9:15.74 | 57678 | 99376
5 | 22:05.02 | 6:50.02 | 99377 | 130128
6 | 28:55.04 | 5:30.04 | 130129 | 154882
7 | 34:25.08 | 3:50.67 | 154883 | 172199


Track 1

Filename I:\_Recent\_EACrips\01 Iris' Vocal Solo [live] - Tangerine Dream.wav

Peak level 65.6 %
Track quality 99.8 %
Test CRC A6D6A00F
Copy CRC A6D6A00F
Track not present in AccurateRip database
Copy OK

Track 2

Filename I:\_Recent\_EACrips\02 Logos {Part 1} [live] - Tangerine Dream.wav

Peak level 98.6 %
Track quality 100.0 %
Test CRC 5F0FEB33
Copy CRC 5F0FEB33
Track not present in AccurateRip database
Copy OK

Track 3

Filename I:\_Recent\_EACrips\03 One Night In Space [live] - Tangerine Dream.wav

Peak level 98.6 %
Track quality 100.0 %
Test CRC 20743C90
Copy CRC 20743C90
Track not present in AccurateRip database
Copy OK

Track 4

Filename I:\_Recent\_EACrips\04 Hamlet [live] - Tangerine Dream.wav

Peak level 98.6 %
Track quality 100.0 %
Test CRC DFA13B1E
Copy CRC DFA13B1E
Track not present in AccurateRip database
Copy OK

Track 5

Filename I:\_Recent\_EACrips\05 Long Island Sunset [live] - Tangerine Dream.wav

Peak level 98.6 %
Track quality 100.0 %
Test CRC A7A22590
Copy CRC A7A22590
Track not present in AccurateRip database
Copy OK

Track 6

Filename I:\_Recent\_EACrips\06 Norwegian Wood [live] - Tangerine Dream.wav

Peak level 98.6 %
Track quality 99.9 %
Test CRC 71A507B7
Copy CRC 71A507B7
Track not present in AccurateRip database
Copy OK

Track 7

Filename I:\_Recent\_EACrips\07 Closing Words [live] - Tangerine Dream.wav

Peak level 98.6 %
Track quality 100.0 %
Test CRC 873AA77B
Copy CRC 873AA77B
Track not present in AccurateRip database
Copy OK


None of the tracks are present in the AccurateRip database

No errors occurred

End of status report

[CUETools log; Date: 23.02.2021 3:16:56; Version: 2.1.4]
[CTDB TOCID: dt81_0ZPLfwIOzPs38HlqWwQy5w-] found.
Track | CTDB Status
1 | (12/34) Accurately ripped, or (22/34) differs in 40 samples @01:13:01
2 | (12/34) Accurately ripped, or (22/34) differs in 40 samples @04:05:00
3 | (12/34) Accurately ripped, or (22/34) differs in 40 samples @07:30:74
4 | (12/34) Accurately ripped, or (22/34) differs in 40 samples @09:15:73
5 | (12/34) Accurately ripped, or (22/34) differs in 40 samples @06:50:01
6 | (12/34) Accurately ripped, or (22/34) differs in 40 samples @05:30:03
7 | (34/34) Accurately ripped
[AccurateRip ID: 0009d20d-003dd6ba-5008f807] found.
Track [ CRC | V2 ] Status
01 [4e460b5d|71a03df3] (00+03/16) Accurately ripped
02 [6a8b18ac|a4ad808d] (00+03/16) Accurately ripped
03 [1205a3d0|d26cf853] (00+03/16) Accurately ripped
04 [17531700|e43d6728] (00+03/16) Accurately ripped
05 [04c4b7c8|d20ca1de] (00+03/16) Accurately ripped
06 [c5dce319|2b2b5287] (00+03/16) Accurately ripped
07 [05f9cd75|e6aafbf8] (00+03/16) Accurately ripped
Offsetted by 664:
01 [f8cdfa0f] (02/16) Accurately ripped
02 [1da20e1e] (02/16) Accurately ripped
03 [7a35cc0e] (02/16) Accurately ripped
04 [55acd023] (02/16) Accurately ripped
05 [35bbd585] (02/16) Accurately ripped
06 [5028b995] (02/16) Accurately ripped
07 [a8bba497] (02/16) Accurately ripped
Offsetted by -60:
01 [7e41139a] (00/16) No match (V2 was not tested)
02 [ae5e1f58] (00/16) No match (V2 was not tested)
03 [ba89abb6] (00/16) No match (V2 was not tested)
04 [179f222d] (00/16) No match (V2 was not tested)
05 [1b125b35] (00/16) No match (V2 was not tested)
06 [5686abae] (00/16) No match (V2 was not tested)
07 [f1253abb] (00/16) No match (V2 was not tested)
Offsetted by 634:
01 [3b8f7bfa] (00/16) No match (V2 was not tested)
02 [53c99dc3] (00/16) No match (V2 was not tested)
03 [4e2edc7b] (00/16) No match (V2 was not tested)
04 [7eecfcf5] (00/16) No match (V2 was not tested)
05 [a328cb64] (00/16) No match (V2 was not tested)
06 [2fd10d6f] (00/16) No match (V2 was not tested)
07 [7108a771] (00/16) No match (V2 was not tested)

Track Peak [ CRC32 ] [W/O NULL] [ LOG ]
– 98,6 [569B501E] [280456D5]
01 65,6 [A6D6A00F] [8F1CA2DF] CRC32
02 98,6 [5F0FEB33] [1EF18C78] CRC32
03 98,6 [20743C90] [700ECAE6] CRC32
04 98,6 [DFA13B1E] [5C9CE4A4] CRC32
05 98,6 [A7A22590] [7CD09FCB] CRC32
06 98,6 [71A507B7] [013E6B68] CRC32
07 98,6 [873AA77B] [604FB874] CRC32

Thanks to the original releaser

See also:
Tangerine Dream - The Electronic Journey (2010) [10CD Box Set]
Tangerine Dream - The Dream Roots Collection [5CD Box Set] (1996)
Tangerine Dream - Electronic Meditation (1970) [Reissue 1996]
Tangerine Dream - Alpha Centauri (1971) [Reissue 1996]
Tangerine Dream - Alpha Centauri (1971) [Reissue 2011]
Tangerine Dream - Zeit (1972) [Reissue 1996]
Tangerine Dream - Atem (1973) [Reissue 2011]
Tangerine Dream - Phaedra (1974) [Original Edition]
Tangerine Dream - Phaedra (1974) [Definitive Edition 1995]
Tangerine Dream - Rubycon (1975) [Non-remastered, Reissue 1988]
Tangerine Dream - Rubycon (1975) [Definitive Edition 1995]
Tangerine Dream - Ricochet (1975) [Definitive Edition 1995]
Tangerine Dream - Stratosfear (1976) [Definitive Edition 1995]
Tangerine Dream - Sorcerer (OST) (1977) [Reissue 2011]
Tangerine Dream - Force Majeure (1979) [Reissue 1995]
Tangerine Dream - Tangram (1980)
Tangerine Dream - Pergamon (1980) [Reissue 1996]
Tangerine Dream - White Eagle (1982) [Reissue 1995]
Tangerine Dream - Logos Live (1982) [Definitive Edition 1995]
Tangerine Dream - Poland - The Warsaw Concert (1984) [Reissue 2011]
Tangerine Dream - Firestarter ...ion Picture Soundtrack] (1984)
Tangerine Dream - Legend (OST) (1986) [Reissue 1995]
Tangerine Dream - Tyger (1987) [Reissue 1996]
Tangerine Dream - Three O'Clock High [OST] (1987)
Tangerine Dream - Optical Race (1988)
Tangerine Dream - Live Miles (1988) [Reissue 2003]
Tangerine Dream - Lily On The Beach (1989)
Tangerine Dream - Melrose (1990)
Tangerine Dream - Dead Solid Perfect (OST) (1990)
Tangerine Dream - The Park Is Mine (OST) (1991)
Tangerine Dream - Rockoon (1992) [Reissue 2000]
Tangerine Dream - Deadly Care (OST) (1992)
Tangerine Dream - Quinoa (1992) [Reissue 2009]
Tangerine Dream - Catch Me If You Can (OST) (1994)
Tangerine Dream - Tyranny Of Beauty (1995)
Tangerine Dream - Goblins' Club (1996)
Tangerine Dream - Zoning (OST) (1996)
Tangerine Dream - The Analogue Space Years 1969-1973 (1998)
Tangerine Dream - The Hollywood Years Vol. 1 (1998)
Tangerine Dream - The Hollywood Years Vol. 2 (1998)
Tangerine Dream - Antique Dreams (2000)
Tangerine Dream - Soundmill Navigator (2000)
Tangerine Dream - The Bootleg Box Set Vol. 1 [7CD] (2003)
Tangerine Dream - Purgatorio (2004)
Tangerine Dream - Arizona Live '92 (2004) [Reissue 2009]
Tangerine Dream - Phaedra 2005 (2005) [Japanese Edition 2009]
Tangerine Dream - Cleveland - June 24th 1986 (2005)
Tangerine Dream - Blue Dawn (2006)
Tangerine Dream - The Essential Tangerine Dream (2006)
Tangerine Dream - Plays Tangerine Dream (2006)
Tangerine Dream - Views From A Red Train (2008)
Tangerine Dream - Booster (2008)
Tangerine Dream - Booster Vol. 2 (2008)
Tangerine Dream - The Antholog... Space Years Volume One (2008)
Tangerine Dream - Music For Sports: Cool Races (2009)
Tangerine Dream - Music For Sports: Power And Motion (2009)
Tangerine Dream - DM V (Dream Mixes V) (2010)
Tangerine Dream - The London Eye Concert (2010)
Tangerine Dream - The Virgin Years 1974-1978 [3CD Box Set] (2011)
Tangerine Dream - The Official...ies Vol.1 [4CD Box Set] (2015)
Tangerine Dream - Live At Coventry Cathedral 1975 (2007) [DVD]
Edgar Froese - 2 Albums (1974-1995)
Edgar Froese - Ages (1978) [Reissue 1997]
Edgar Froese - Pinnacles (1983)