Subcategories
Tags
Language
Tags

Telex - "Belgium... One Point" (1993) 4CD Box Set [Re-Up]

Posted By: Designol
Telex - "Belgium... One Point" (1993) 4CD Box Set [Re-Up]

Telex - «Belgium… One Point» (1993) 4CD Box Set
EAC | FLAC | Image (Cue&Log) ~ 1.54 Gb | Mp3 (CBR320) ~ 591 Mb | Scans ~ 415 Gb | 04:17:58
Electronic, Synthpop, Technopop, Dance Pop, Post-Disco | Label: J'M2 | # J'M2-93031-204

74-track 4-CD set featuring Telex's back catalogue with Neurovision, Wonderful World, Looney Tunes, Sex and Looking For Saint Tropez, each disc is housed in a card slipcase which still retains the original,opened, factory shrink and includes a special booklet with history and comments by the band introducing each album section [in French and English], each section contains all the sleeves [including singles] plus all the lyrics.

Sarcastically subtitled The (Almost) Integral Telex 1978-1993, this 4 CD set complies all original albums issued by Telex, each supplied with many bonus tracks. (The albums can be bought separately–see my reviews there.) The set comes with extra booklets containing lyrics and, most entertaining, tongue in cheek liner notes from Telex's Marc Moulin on each of the songs. Example (talking about the track Lakele): "A song about twins and lookalikes. We recently heard that the words might mean something dirty in Japanese. We were rather surprised to learn that there even could exist something dirty in Japanese." Or talking about the track Basta: "We called this number Basta because as soon as it starts to play, you immediately feel that you've had enough." Haha! A must for all serious Telex fans. For the more casual fan, stick with the "Neurovision" or "Looking for St. Tropez" CD. The appeal of the Telex sounds endures, 12 years after they issued their last album, as is evidenced by the seemingly non-stop issues of various Telex remix albums.

Review by Paul Allaer, Amazon.com

Telex was a synth-disco trio formed in Brussels, Belgium, in 1978 by keyboardist Marc Moulin, who had previously performed with Cos. He was joined by vocalist Michel Moers and composer/synthesist Dan Lacksman, and together, Telex crafted a slick, stylish brand of Europop/disco with relaxed tempos and often-processed vocals. Their debut album, Looking for Saint-Tropez, was released in 1979, containing signature songs like the title track, "Moskow Diskow," and slowed-down covers of "Rock Around the Clock" and Plastic Bertrand's "Ca Plane Pour Moi." Neurovision (1980) and Sex (1981) followed, with the latter employing lyricists Ron and Russell Mael. (A 1982 U.K.-only release, Birds and Bees, contains all but three of Sex's tracks, plus several singles.) Nothing much was heard from the group after 1984's Wonderful World until 1988, when Looney Tunes displayed an about-face toward goofy, effects-laden electronic music somewhat akin to the Art of Noise or Yello. The band broke up soon after, though all three members also released material. Ten years later, long after all Telex material had gone out of print, the band received the remix-album treatment on SSR's I Don't Like Music (Remixes), featuring a host of new-school electronic producers like Carl Craig, Buckfunk 3000, Patrick Pulsinger, and Glenn Underground. A separate disc, I Don't Like Remixes, presented the Telex originals. The set proved so popular that a second remix disc, I (Still) Don't Like Remixes, Vol. 2, was released the following year.

Biography by Steve Huey, Allmusic.com

Telex - "Belgium... One Point" (1993) 4CD Box Set [Re-Up]





Telex - "Belgium... One Point" (1993) 4CD Box Set [Re-Up]

Telex - "Belgium... One Point" (1993) 4CD Box Set [Re-Up]

CD1: Volume 1 - Looking For Saint Tropez (1978)
EAC | FLAC | Image (Cue&Log) ~ 313 Mb | Mp3 (CBR320) ~ 122 Mb | Scans ~ 66 Mb | 00:53:32


Tracklist:

1-01. Moskow Diskow 4:12
1-02. Pakmoväst 3:38
1-03. Café De La Jungle 1:07
1-04. Ça Plane Pour Moi 5:21
1-05. Some Day - Un Jour 1:10
1-06. Something To Say 5:00
1-07. Rock Around The Clock 3:53
1-08. Victime De La Société #2 3:53
1-09. Twist Á Saint Tropez 3:17
1-10. Moskwow Diskow (Maxi) 5:22
1-11. Le Fond De L'Air Est Rouge 3:21
1-12. Victime De La Société #1 3:53
1-13. Quelque Chose À Dire 5:11
1-14. Ave Fifi (3:58) 3:58


Exact Audio Copy V1.0 beta 3 from 29. August 2011

Отчёт EAC об извлечении, выполненном 7. апреля 2013, 19:09

Telex / Looking for St. Tropez

Дисковод: PIONEER BD-RW BDR-208D Adapter: 4 ID: 0

Режим чтения : Достоверность
Использование точного потока : Да
Отключение кэша аудио : Да
Использование указателей C2 : Нет

Коррекция смещения при чтении : 667
Способность читать области Lead-in и Lead-out : Нет
Заполнение пропущенных сэмплов тишиной : Да
Удаление блоков с тишиной в начале и конце : Нет
При вычислениях CRC использовались нулевые сэмплы : Да
Интерфейс : Встроенный Win32-интерфейс для Win NT/2000

Выходной формат : Пользовательский кодировщик
Выбранный битрейт : 128 kBit/s
Качество : Высокий
Добавление ID3-тега : Нет
Утилита сжатия : C:\Program Files (x86)\Exact Audio Copy\Flac\flac.exe
Дополнительные параметры : -V -8 -T "Date=%year%" -T "Genre=%genre%" %source%


TOC извлечённого CD

Трек | Старт | Длительность | Начальный сектор | Конечный сектор
––––––––––––––––––––––––––––––––––-
1 | 0:00.32 | 4:12.70 | 32 | 19001
2 | 4:13.27 | 3:38.55 | 19002 | 35406
3 | 7:52.07 | 1:07.68 | 35407 | 40499
4 | 9:00.00 | 5:21.60 | 40500 | 64634
5 | 14:21.60 | 1:11.15 | 64635 | 69974
6 | 15:33.00 | 5:01.22 | 69975 | 92571
7 | 20:34.22 | 3:54.33 | 92572 | 110154
8 | 24:28.55 | 3:53.40 | 110155 | 127669
9 | 28:22.20 | 3:18.37 | 127670 | 142556
10 | 31:40.57 | 5:23.05 | 142557 | 166786
11 | 37:03.62 | 3:21.50 | 166787 | 181911
12 | 40:25.37 | 3:54.15 | 181912 | 199476
13 | 44:19.52 | 5:12.25 | 199477 | 222901
14 | 49:32.02 | 4:00.30 | 222902 | 240931


Характеристики диапазона извлечения и сообщения об ошибках

Выбранный диапазон

Имя файла D:\Музыка\Раздача Torrent\Telex - «Belgium… One Point» -1978-1986 (1993)\Telex - «Belgium… One Point» - Looking For Saint Tropez (1978)\Telex - Looking for St. Tropez.wav

Пиковый уровень 99.2 %
Скорость извлечения 7.0 X
Качество диапазона 99.9 %
CRC теста 523FF2D1
CRC копии 523FF2D1
Копирование… OK

Ошибок не произошло


AccurateRip: сводка

Трек 1 точность не определена (достоверность 2) [1BC531B6], AccurateRip вернул [B425D768] (AR v2)
Трек 2 точность не определена (достоверность 2) [19ABA2A1], AccurateRip вернул [A0614134] (AR v2)
Трек 3 точность не определена (достоверность 2) [DC211F09], AccurateRip вернул [8FEC7E2C] (AR v2)
Трек 4 точность не определена (достоверность 2) [A761B8DD], AccurateRip вернул [1F79E32F] (AR v2)
Трек 5 точность не определена (достоверность 2) [D7383C0C], AccurateRip вернул [68B33BD7] (AR v2)
Трек 6 точность не определена (достоверность 2) [9683105C], AccurateRip вернул [1F9C33A5] (AR v2)
Трек 7 точность не определена (достоверность 2) [91EB98F8], AccurateRip вернул [21C7E867] (AR v2)
Трек 8 точность не определена (достоверность 2) [DEC3E12C], AccurateRip вернул [6919F29A] (AR v2)
Трек 9 точность не определена (достоверность 2) [1D07D54B], AccurateRip вернул [9B1B486B] (AR v2)
Трек 10 точность не определена (достоверность 2) [9300C446], AccurateRip вернул [1432A80B] (AR v2)
Трек 11 точность не определена (достоверность 2) [3CE73762], AccurateRip вернул [DDDAE365] (AR v2)
Трек 12 точность не определена (достоверность 2) [4617DCEF], AccurateRip вернул [49CAB876] (AR v2)
Трек 13 точность не определена (достоверность 2) [C73DB534], AccurateRip вернул [5D2E9499] (AR v2)
Трек 14 точность не определена (достоверность 2) [7515B658], AccurateRip вернул [6AED28FF] (AR v2)

Ни один трек не прошёл проверки на точность
В вашей базе может быть иной вариант штамповки диска

Конец отчёта

==== Контрольная сумма отчёта BA75A1281DEB210FACA339BB28995612BD0E542FE11725A896166AD369FDD4FA ====

foobar2000 1.2 / Dynamic Range Meter 1.1.1
log date: 2014-02-28 16:24:24

––––––––––––––––––––––––––––––––––––––––
Analyzed: Telex / Looking for St. Tropez
––––––––––––––––––––––––––––––––––––––––

DR Peak RMS Duration Track
––––––––––––––––––––––––––––––––––––––––
DR15 -0.16 dB -16.30 dB 4:13 01-Moskow Diskow
DR15 -0.26 dB -16.01 dB 3:39 02-Pakmovast
DR13 -3.15 dB -19.41 dB 1:08 03-Cafe de la Jungle
DR15 -0.07 dB -17.34 dB 5:22 04-Ca Plane Pour Moi
DR13 -0.41 dB -15.16 dB 1:11 05-Someday-Un Jour
DR14 -0.07 dB -15.06 dB 5:01 06-Something to Say
DR15 -0.10 dB -16.06 dB 3:54 07-Rock Around the Clock
DR15 -0.51 dB -17.11 dB 3:54 08-Victime de la Societe #2
DR15 -0.07 dB -16.04 dB 3:18 09-Twist A St. Tropez
DR13 -0.07 dB -14.69 dB 5:23 10-Maxi Moskow Diskow
DR13 -0.12 dB -15.60 dB 3:22 11-Le Fond de l'Air Est Rouge
DR14 -0.07 dB -15.57 dB 3:54 12-Victime de la Societe #1
DR14 -0.07 dB -15.18 dB 5:12 13-Quelque Chose A Dire
DR17 -0.07 dB -17.68 dB 4:00 14-Ave Fifi
––––––––––––––––––––––––––––––––––––––––

Number of tracks: 14
Official DR value: DR14

Samplerate: 44100 Hz
Channels: 2
Bits per sample: 16
Bitrate: 819 kbps
Codec: FLAC
================================================================================




Telex - "Belgium... One Point" (1993) 4CD Box Set [Re-Up]

Telex - "Belgium... One Point" (1993) 4CD Box Set [Re-Up]

CD2: Volume 2 - Neurovision (1980)
EAC | FLAC | Image (Cue&Log) ~ 394 Mb | Mp3 (CBR320) ~ 143 Mb | Scans ~ 55 Mb | 01:02:49


Tracklist:

2-01. We Are All Getting Old 3:42
2-02. My Time 4:21
2-03. Tour De France 4:05
2-04. Euro-Vision 2:41
2-05. Plus De Distance 3:31
2-06. Dance To The Music 4:16
2-07. Réalité 3:34
2-08. Cliché 0:44
2-09. A/B 3:22
2-10. En Route Vers De Nouvelles Aventures 3:38
2-11. Finale 0:12
2-12. "Belgium, One Point" 0:03
2-13. Troppical 1:50
2-14. Colonel Olrik Ha Ha Ha 2:12
2-15. Soul Waves (Version 1) 3:43
2-16. More Than Distance 3:24
2-17. My Future 3:35
2-18. Neurovision 3:18
2-19. Lakelele (Laquelle Elle Est) 3:19
2-20. B Sides 3:22
2-21. Soul Waves (Version 2) 3:38


Exact Audio Copy V1.0 beta 3 from 29. August 2011

Отчёт EAC об извлечении, выполненном 7. апреля 2013, 20:00

Telex / Neurovision

Дисковод: PIONEER BD-RW BDR-208D Adapter: 4 ID: 0

Режим чтения : Достоверность
Использование точного потока : Да
Отключение кэша аудио : Да
Использование указателей C2 : Нет

Коррекция смещения при чтении : 667
Способность читать области Lead-in и Lead-out : Нет
Заполнение пропущенных сэмплов тишиной : Да
Удаление блоков с тишиной в начале и конце : Нет
При вычислениях CRC использовались нулевые сэмплы : Да
Интерфейс : Встроенный Win32-интерфейс для Win NT/2000

Выходной формат : Пользовательский кодировщик
Выбранный битрейт : 128 kBit/s
Качество : Высокий
Добавление ID3-тега : Нет
Утилита сжатия : C:\Program Files (x86)\Exact Audio Copy\Flac\flac.exe
Дополнительные параметры : -V -8 -T "Date=%year%" -T "Genre=%genre%" %source%


TOC извлечённого CD

Трек | Старт | Длительность | Начальный сектор | Конечный сектор
––––––––––––––––––––––––––––––––––-
1 | 0:00.32 | 3:42.63 | 32 | 16744
2 | 3:43.20 | 4:22.15 | 16745 | 36409
3 | 8:05.35 | 4:05.07 | 36410 | 54791
4 | 12:10.42 | 2:43.20 | 54792 | 67036
5 | 14:53.62 | 3:31.73 | 67037 | 82934
6 | 18:25.60 | 4:16.70 | 82935 | 102204
7 | 22:42.55 | 3:34.15 | 102205 | 118269
8 | 26:16.70 | 0:45.65 | 118270 | 121709
9 | 27:02.60 | 3:23.10 | 121710 | 136944
10 | 30:25.70 | 3:38.65 | 136945 | 153359
11 | 34:04.60 | 0:12.20 | 153360 | 154279
12 | 34:17.05 | 0:03.25 | 154280 | 154529
13 | 34:20.30 | 1:50.25 | 154530 | 162804
14 | 36:10.55 | 2:12.62 | 162805 | 172766
15 | 38:23.42 | 3:44.20 | 172767 | 189586
16 | 42:07.62 | 3:25.03 | 189587 | 204964
17 | 45:32.65 | 3:36.22 | 204965 | 221186
18 | 49:09.12 | 3:19.10 | 221187 | 236121
19 | 52:28.22 | 3:19.60 | 236122 | 251106
20 | 55:48.07 | 3:22.45 | 251107 | 266301
21 | 59:10.52 | 3:38.55 | 266302 | 282706


Характеристики диапазона извлечения и сообщения об ошибках

Выбранный диапазон

Имя файла D:\Музыка\Раздача Torrent\Telex - «Belgium… One Point» -1978-1986 (1993)\Telex - «Belgium… One Point» - Neurovision (1980)\Telex - Neurovision.wav

Пиковый уровень 99.2 %
Скорость извлечения 2.8 X
Качество диапазона 100.0 %
CRC теста 7E2D68DD
CRC копии 7E2D68DD
Копирование… OK

Ошибок не произошло


AccurateRip: сводка

Трек 1 : извлечено точно (доверие 2) [0581D027] (AR v1)
Трек 2 : извлечено точно (доверие 2) [3331A317] (AR v1)
Трек 3 : извлечено точно (доверие 2) [04A0C303] (AR v1)
Трек 4 : извлечено точно (доверие 2) [DA3A846C] (AR v1)
Трек 5 : извлечено точно (доверие 2) [A93FC67F] (AR v1)
Трек 6 : извлечено точно (доверие 2) [F8E97994] (AR v1)
Трек 7 : извлечено точно (доверие 2) [6AB1F03B] (AR v1)
Трек 8 : извлечено точно (доверие 2) [E98B84D7] (AR v1)
Трек 9 : извлечено точно (доверие 2) [1552B4FE] (AR v1)
Трек 10 : извлечено точно (доверие 2) [291AA1AE] (AR v1)
Трек 11 : извлечено точно (доверие 2) [CC4BF00A] (AR v1)
Трек 12 отсутствует в базе данных
Трек 13 : извлечено точно (доверие 2) [2A024206] (AR v1)
Трек 14 : извлечено точно (доверие 2) [199DA259] (AR v1)
Трек 15 : извлечено точно (доверие 2) [CBDF1C1A] (AR v1)
Трек 16 : извлечено точно (доверие 2) [FF1E2CD2] (AR v1)
Трек 17 : извлечено точно (доверие 2) [7DEEDEA5] (AR v1)
Трек 18 : извлечено точно (доверие 2) [2BEF942B] (AR v1)
Трек 19 : извлечено точно (доверие 2) [D3E5D475] (AR v1)
Трек 20 : извлечено точно (доверие 2) [913FBE89] (AR v1)
Трек 21 : извлечено точно (доверие 2) [CD16D0A8] (AR v1)

20 трек(и) скопированы точно
1 трек(и) не содержатся в базе AccurateRip

Некоторые треки не прошли проверку на точность

Конец отчёта

==== Контрольная сумма отчёта 1CDFE3420FCFD27017AD767ED9C4521DB88DE8E22F41CCB584549F72AEA21065 ====

foobar2000 1.2 / Dynamic Range Meter 1.1.1
log date: 2014-02-28 16:24:43

––––––––––––––––––––––––––––––––––––––––
Analyzed: Telex / Neurovision
––––––––––––––––––––––––––––––––––––––––

DR Peak RMS Duration Track
––––––––––––––––––––––––––––––––––––––––
DR14 -0.68 dB -16.39 dB 3:43 01-we are all getting old
DR14 -0.07 dB -15.52 dB 4:22 02-my time
DR15 -0.07 dB -16.05 dB 4:05 03-tour de france
DR14 -0.07 dB -15.50 dB 2:43 04-euro-vision
DR14 -0.07 dB -16.22 dB 3:32 05-plus de distance
DR14 -0.07 dB -16.01 dB 4:17 06-dance to the music
DR15 -0.33 dB -16.71 dB 3:34 07-realite
DR15 -0.07 dB -18.96 dB 0:46 08-cliche
DR13 -0.07 dB -15.28 dB 3:23 09-a/b
DR12 -0.07 dB -14.20 dB 3:39 10-en route vers de nouvelles aventures
DR10 -10.17 dB -24.59 dB 0:12 11-finale
DR12 -13.56 dB -26.34 dB 0:03 12-belgium one point
DR15 -0.55 dB -16.56 dB 1:50 13-troppical
DR16 -0.07 dB -17.07 dB 2:13 14-colonel olrik ha ha ha
DR16 -0.07 dB -17.28 dB 3:44 15-soul waves (version 1)
DR13 -0.42 dB -15.36 dB 3:25 16-more than distance
DR13 -0.07 dB -15.49 dB 3:36 17-my future
DR15 -0.07 dB -17.01 dB 3:19 18-neurovision
DR14 -0.53 dB -16.14 dB 3:20 19-lakele (laquelle elle est)
DR14 -0.18 dB -15.82 dB 3:23 20-b sides
DR13 -0.07 dB -14.98 dB 3:39 21-soul waves (version 2)
––––––––––––––––––––––––––––––––––––––––

Number of tracks: 21
Official DR value: DR14

Samplerate: 44100 Hz
Channels: 2
Bits per sample: 16
Bitrate: 877 kbps
Codec: FLAC
================================================================================




Telex - "Belgium... One Point" (1993) 4CD Box Set [Re-Up]

Telex - "Belgium... One Point" (1993) 4CD Box Set [Re-Up]

CD3: Volume 3 - 'Sex' (1981) + 'Birds And Bees' (1982)
EAC | FLAC | Image (Cue&Log) ~ 432 Mb | Mp3 (CBR320) ~ 159 Mb | Scans ~ 71 Mb | 01:09:47


Tracklist:

3-01. Brainwash 4:21
3-02. Drama, Drama 3:56
3-03. Haven't We Met Somewhere Before? 3:35
3-04. Long Holiday 2:11
3-05. The Man With The Answer 3:13
3-06. Carbon Copy 6:31
3-07. Exercise Is Good For You 3:34
3-08. Dream-O-Mat 4:12
3-09. Sigmund Freud's Party 2:52
3-10. Mata Hari 3:43
3-11. Dummy 3:46
3-12. L'Amour Toujours 3:50
3-13. Loops 3:24
3-14. Cloches Et Sifflets 3:00
3-15. Don't Put All Your Dreams In One Basket 2:23
3-16. I Can't Turn You Loose 3:13
3-17. Bainwash (Long Version) 5:12
3-18. The Look Of Love 3:36
3-19. Basta 2:43


Exact Audio Copy V1.0 beta 3 from 29. August 2011

Отчёт EAC об извлечении, выполненном 7. апреля 2013, 18:46

Telex / Sex ('Birds and Bees')

Дисковод: PIONEER BD-RW BDR-208D Adapter: 4 ID: 0

Режим чтения : Достоверность
Использование точного потока : Да
Отключение кэша аудио : Да
Использование указателей C2 : Нет

Коррекция смещения при чтении : 667
Способность читать области Lead-in и Lead-out : Нет
Заполнение пропущенных сэмплов тишиной : Да
Удаление блоков с тишиной в начале и конце : Нет
При вычислениях CRC использовались нулевые сэмплы : Да
Интерфейс : Встроенный Win32-интерфейс для Win NT/2000

Выходной формат : Пользовательский кодировщик
Выбранный битрейт : 128 kBit/s
Качество : Высокий
Добавление ID3-тега : Нет
Утилита сжатия : C:\Program Files (x86)\Exact Audio Copy\Flac\flac.exe
Дополнительные параметры : -V -8 -T "Date=%year%" -T "Genre=%genre%" %source%


TOC извлечённого CD

Трек | Старт | Длительность | Начальный сектор | Конечный сектор
––––––––––––––––––––––––––––––––––-
1 | 0:00.00 | 4:22.52 | 0 | 19701
2 | 4:22.52 | 3:57.45 | 19702 | 37521
3 | 8:20.22 | 3:36.43 | 37522 | 53764
4 | 11:56.65 | 2:12.42 | 53765 | 63706
5 | 14:09.32 | 3:14.00 | 63707 | 78256
6 | 17:23.32 | 6:33.00 | 78257 | 107731
7 | 23:56.32 | 3:35.58 | 107732 | 123914
8 | 27:32.15 | 4:14.19 | 123915 | 142983
9 | 31:46.34 | 2:53.73 | 142984 | 156031
10 | 34:40.32 | 3:44.10 | 156032 | 172841
11 | 38:24.42 | 3:47.73 | 172842 | 189939
12 | 42:12.40 | 3:50.52 | 189940 | 207241
13 | 46:03.17 | 3:26.03 | 207242 | 222694
14 | 49:29.20 | 3:02.05 | 222695 | 236349
15 | 52:31.25 | 2:23.70 | 236350 | 247144
16 | 54:55.20 | 3:15.05 | 247145 | 261774
17 | 58:10.25 | 5:14.17 | 261775 | 285341
18 | 63:24.42 | 3:36.13 | 285342 | 301554
19 | 67:00.55 | 2:46.52 | 301555 | 314056


Характеристики диапазона извлечения и сообщения об ошибках

Выбранный диапазон

Имя файла D:\Музыка\Раздача Torrent\Telex - «Belgium… One Point» -1978-1986 (1993)\Telex - «Belgium… One Point» - Sex (1981) + “Birds And Bees” (1982)\Telex - Sex ('Birds and Bees').wav

Пиковый уровень 99.2 %
Скорость извлечения 6.8 X
Качество диапазона 100.0 %
CRC теста 87E8D839
CRC копии 87E8D839
Копирование… OK

Ошибок не произошло


AccurateRip: сводка

Трек 1 отсутствует в базе данных
Трек 2 отсутствует в базе данных
Трек 3 отсутствует в базе данных
Трек 4 отсутствует в базе данных
Трек 5 отсутствует в базе данных
Трек 6 отсутствует в базе данных
Трек 7 отсутствует в базе данных
Трек 8 отсутствует в базе данных
Трек 9 отсутствует в базе данных
Трек 10 отсутствует в базе данных
Трек 11 отсутствует в базе данных
Трек 12 отсутствует в базе данных
Трек 13 отсутствует в базе данных
Трек 14 отсутствует в базе данных
Трек 15 отсутствует в базе данных
Трек 16 отсутствует в базе данных
Трек 17 отсутствует в базе данных
Трек 18 отсутствует в базе данных
Трек 19 отсутствует в базе данных

Ни одного трека нет в базе AccurateRip

Конец отчёта

==== Контрольная сумма отчёта 5A8B419D5DF22B321ABDEE04402E44EE838AB40BF825C42CA3E1DC0A32DEF3E8 ====

foobar2000 1.2 / Dynamic Range Meter 1.1.1
log date: 2014-02-28 16:25:05

––––––––––––––––––––––––––––––––––––––––
Analyzed: Telex / Sex ('Birds and Bees')
––––––––––––––––––––––––––––––––––––––––

DR Peak RMS Duration Track
––––––––––––––––––––––––––––––––––––––––
DR14 -0.07 dB -15.43 dB 4:23 01-Brainwash
DR14 -0.07 dB -15.59 dB 3:58 02-Drama, Drama
DR13 -0.07 dB -14.55 dB 3:37 03-Haven't We Met Somewhere Before?
DR15 -0.07 dB -15.77 dB 2:13 04-Long Holiday
DR14 -0.10 dB -15.29 dB 3:14 05-The Man with the Answer
DR16 -0.07 dB -17.83 dB 6:33 06-Carbon Copy
DR14 -0.07 dB -15.45 dB 3:36 07-Exercise is Good for You
DR15 -0.07 dB -16.45 dB 4:14 08-Dream-O-Mat
DR13 -0.07 dB -16.08 dB 2:54 09-Sigmund Freud's Party
DR13 -0.07 dB -14.87 dB 3:44 10-Mata Hari
DR15 -0.07 dB -16.21 dB 3:48 11-Dummy
DR13 -0.20 dB -15.32 dB 3:51 12-L'Amour Toujours
DR15 -0.46 dB -16.97 dB 3:26 13-Loops
DR14 -1.06 dB -17.22 dB 3:02 14-Cloches et Sfiflets
DR12 -1.86 dB -16.48 dB 2:24 15-Don't Put All Your Dreams in One Basket
DR16 -0.07 dB -17.05 dB 3:15 16-I Can't Turn You Loose
DR15 -0.07 dB -16.08 dB 5:14 17-Brainwash <Long Version>
DR14 -1.29 dB -17.45 dB 3:36 18-The Look of Love
DR14 -0.07 dB -15.95 dB 2:47 19-Basta
––––––––––––––––––––––––––––––––––––––––

Number of tracks: 19
Official DR value: DR14

Samplerate: 44100 Hz
Channels: 2
Bits per sample: 16
Bitrate: 865 kbps
Codec: FLAC
================================================================================




Telex - "Belgium... One Point" (1993) 4CD Box Set [Re-Up]

Telex - "Belgium... One Point" (1993) 4CD Box Set [Re-Up]

CD4: Volume 4 - Wonderful World (1984) + Looney Tunes (1986)
EAC | FLAC | Image (Cue&Log) ~ 437Mb | Mp3 (CBR320) ~ 165 Mb | Scans ~ 69 Mb | 01:11:49


Tracklist:

4-01. L'Amour Toujours 3:20
4-02. So Sad 3:33
4-03. Raised By Snakes 3:51
4-04. It Could Happen To You 3:08
4-05. Second Hand 3:26
4-06. Tell Me It's A Dream 3:16
4-07. Vertigo 3:40
4-08. The Voice 3:36
4-09. Radio-Radio 3:47
4-10. Wonderful World 3:54
4-11. I Don't Like Music 4:46
4-12. Temporary Chicken 3:57
4-13. Spike Jones 3:25
4-14. Beautiful Li(f)e 3:32
4-15. Dingo Bells 1:13
4-16. I Want Your Brain 4:20
4-17. Baby, When? 3:57
4-18. Peanuts 3:07
4-19. Happy End (I Wanna) 3:04
4-20. Rendez-Vous Dans L'Espace 4:26


Exact Audio Copy V1.0 beta 3 from 29. August 2011

Отчёт EAC об извлечении, выполненном 7. апреля 2013, 20:24

Telex / Wonderful World / Looney Tunes

Дисковод: PIONEER BD-RW BDR-208D Adapter: 4 ID: 0

Режим чтения : Достоверность
Использование точного потока : Да
Отключение кэша аудио : Да
Использование указателей C2 : Нет

Коррекция смещения при чтении : 667
Способность читать области Lead-in и Lead-out : Нет
Заполнение пропущенных сэмплов тишиной : Да
Удаление блоков с тишиной в начале и конце : Нет
При вычислениях CRC использовались нулевые сэмплы : Да
Интерфейс : Встроенный Win32-интерфейс для Win NT/2000

Выходной формат : Пользовательский кодировщик
Выбранный битрейт : 128 kBit/s
Качество : Высокий
Добавление ID3-тега : Нет
Утилита сжатия : C:\Program Files (x86)\Exact Audio Copy\Flac\flac.exe
Дополнительные параметры : -V -8 -T "Date=%year%" -T "Genre=%genre%" %source%


TOC извлечённого CD

Трек | Старт | Длительность | Начальный сектор | Конечный сектор
––––––––––––––––––––––––––––––––––-
1 | 0:00.07 | 3:21.15 | 7 | 15096
2 | 3:21.22 | 3:35.40 | 15097 | 31261
3 | 6:56.62 | 3:51.70 | 31262 | 48656
4 | 10:48.57 | 3:08.30 | 48657 | 62786
5 | 13:57.12 | 3:27.10 | 62787 | 78321
6 | 17:24.22 | 3:17.70 | 78322 | 93166
7 | 20:42.17 | 3:42.43 | 93167 | 109859
8 | 24:24.60 | 3:38.70 | 109860 | 126279
9 | 28:03.55 | 3:49.40 | 126280 | 143494
10 | 31:53.20 | 3:56.47 | 143495 | 161241
11 | 35:49.67 | 4:46.45 | 161242 | 182736
12 | 40:36.37 | 3:58.23 | 182737 | 200609
13 | 44:34.60 | 3:27.42 | 200610 | 216176
14 | 48:02.27 | 3:32.13 | 216177 | 232089
15 | 51:34.40 | 1:15.10 | 232090 | 237724
16 | 52:49.50 | 4:20.27 | 237725 | 257251
17 | 57:10.02 | 3:57.48 | 257252 | 275074
18 | 61:07.50 | 3:08.15 | 275075 | 289189
19 | 64:15.65 | 3:05.37 | 289190 | 303101
20 | 67:21.27 | 4:28.00 | 303102 | 323201


Характеристики диапазона извлечения и сообщения об ошибках

Выбранный диапазон

Имя файла D:\Музыка\Раздача Torrent\Telex - «Belgium… One Point» -1978-1986 (1993)\Telex - «Belgium… One Point» - Wonderful World (1984) + Looney Tunes (1986)\Telex - Wonderful World , Looney Tunes.wav

Пиковый уровень 99.2 %
Скорость извлечения 8.0 X
Качество диапазона 99.9 %
CRC теста 3A8D3824
CRC копии 3A8D3824
Копирование… OK

Ошибок не произошло


AccurateRip: сводка

Трек 1 : извлечено точно (доверие 3) [135F6E2C] (AR v1)
Трек 2 : извлечено точно (доверие 3) [095B731A] (AR v1)
Трек 3 : извлечено точно (доверие 3) [E3D9133A] (AR v1)
Трек 4 : извлечено точно (доверие 3) [2C8198E4] (AR v1)
Трек 5 : извлечено точно (доверие 3) [1884E0D0] (AR v1)
Трек 6 : извлечено точно (доверие 3) [69B2B429] (AR v1)
Трек 7 : извлечено точно (доверие 3) [C20ACCC5] (AR v1)
Трек 8 : извлечено точно (доверие 3) [02A8D01F] (AR v1)
Трек 9 : извлечено точно (доверие 3) [107CECC8] (AR v1)
Трек 10 : извлечено точно (доверие 3) [D7FA7C87] (AR v1)
Трек 11 : извлечено точно (доверие 3) [382D475D] (AR v1)
Трек 12 : извлечено точно (доверие 3) [85042BB8] (AR v1)
Трек 13 : извлечено точно (доверие 3) [20ED72A6] (AR v1)
Трек 14 : извлечено точно (доверие 3) [03B5590F] (AR v1)
Трек 15 : извлечено точно (доверие 3) [E59A4416] (AR v1)
Трек 16 : извлечено точно (доверие 3) [C6C568F8] (AR v1)
Трек 17 : извлечено точно (доверие 3) [42C7C1B6] (AR v1)
Трек 18 : извлечено точно (доверие 3) [0B7520C2] (AR v1)
Трек 19 : извлечено точно (доверие 3) [7445CE4E] (AR v1)
Трек 20 : извлечено точно (доверие 3) [6DE55011] (AR v1)

Все треки извлечены точно

Конец отчёта

==== Контрольная сумма отчёта E01FABAC58F0EF0D82B643DC1B69FBEBD63626D4773A913D744936BE601E54EE ====

foobar2000 1.2 / Dynamic Range Meter 1.1.1
log date: 2014-02-28 16:25:26

––––––––––––––––––––––––––––––––––––––––
Analyzed: Telex / Wonderful World / Looney Tunes
––––––––––––––––––––––––––––––––––––––––

DR Peak RMS Duration Track
––––––––––––––––––––––––––––––––––––––––
DR13 -0.07 dB -14.62 dB 3:21 01-L'amour Toujours
DR13 -0.07 dB -15.03 dB 3:36 02-So Sad
DR14 -0.07 dB -15.64 dB 3:52 03-Raised By Snakes
DR15 -0.07 dB -16.25 dB 3:08 04-It Could Happen To You
DR14 -0.17 dB -15.99 dB 3:27 05-Second Hand
DR14 -0.27 dB -16.14 dB 3:18 06-Tell Me It's A Dream
DR13 -0.07 dB -14.58 dB 3:43 07-Vertigo
DR13 -0.07 dB -14.07 dB 3:39 08-The Voice
DR12 -0.07 dB -13.56 dB 3:50 09-Radio-Radio
DR13 -0.07 dB -15.65 dB 3:57 10-Wonderful World
DR16 -0.07 dB -17.35 dB 4:47 11-I Don't Like Music
DR16 -0.07 dB -17.83 dB 3:58 12-Temporary Chicken
DR14 -0.25 dB -15.39 dB 3:28 13-Spike Jones
DR14 -0.07 dB -15.89 dB 3:32 14-Beautiful Li(f)e
DR16 -1.06 dB -19.04 dB 1:15 15-Dingo Bells
DR13 -0.07 dB -15.38 dB 4:20 16-I Want Your Brain
DR14 -0.07 dB -15.53 dB 3:58 17-Baby, When?
DR16 -0.07 dB -17.44 dB 3:08 18-Peanuts
DR15 -0.07 dB -17.21 dB 3:05 19-Happy End (I Wanna)
DR13 -0.07 dB -15.43 dB 4:28 20-Rendez-Vous Dans L'Espace
––––––––––––––––––––––––––––––––––––––––

Number of tracks: 20
Official DR value: DR14

Samplerate: 44100 Hz
Channels: 2
Bits per sample: 16
Bitrate: 850 kbps
Codec: FLAC
================================================================================




All thanks to original releaser - tarousinsk1967

More interesting music in My Blog