Tags
Language
Tags

King Crimson - The Collectors' King Crimson Volume Nine (2004)

Posted By:
King Crimson - The Collectors' King Crimson Volume Nine (2004)

King Crimson - The Collectors' King Crimson Volume Nine (2004)
EAC | Flac(Image) + Cue + Log & MP3 CBR 320Kbps
3CD | Discipline Global Mobile, UICE-1117/9 | ~ 1361 or 520 Mb | Scans(600dpi, jpg) -> 285 Mb
Progressive Rock

Robert Fripp and constituents take to the airwaves of KFML in Denver, CO March 12, 1972 for this installment in the Collectors' King Crimson club. This live show – for an assembled radio studio audience – has been bootlegged ad infinitum. However, here listeners are treated to optimal fidelity as the originating source is from a pre-broadcast multi-track tape. Likewise, it is more complete than any and all tapes recorded off the radio, with music played after the allotted time on-the-air had elapsed. While on the road to support their latest endeavor Islands (1971), the sole entry from the long player is an intensely executed "Sailor's Tale." Otherwise, listeners are treated to readings of several atypical 1972 Crimson staples: "Pictures of a City," "21st Century Schizoid Man," and the free jazz leanings of "Groon" – a number that Fripp (guitar) has described as something between "a groove and a groan." Luckily, the former seems to be the order of the day as much of the disc's soul lies within this type of improvisation. Joining Fripp in the early 1972 incarnation of King Crimson are Mel Collins (flute/sax/Mellotron), Boz Burrell (bass/vocals), and Ian Wallace (drums/backing vocals). "Summit Going On" is a mid-tempo jazz/funk number allowing Burrell and Wallace plenty of room to improvise and potentially chart a course for the cover of Pharoah Sanders' "The Creator Has a Master Plan." The band reach a sublime strata of majesty and might, that – without much warning – drops dead into a nasty 12-bar blues lick before gliding back into the reprise of the main title. There is no mention of Fripp's verbal deriding of the show's soft drink sponsor. His brief but highly entertaining monologue contains the following exchange: "…when I said that I wished to inform people that I think Pepsi is harmful and very nasty, they said that they'd press a button to cut that out because one couldn't obviously denigrate one's sponsor."

by Lindsay Planer , AMG

King Crimson - The Collectors' King Crimson Volume Nine (2004):

King Crimson - The Collectors' King Crimson Volume Nine (2004)

Tracklist CD1:
King Crimson - 2004 - Live At Fillmore East November 21 & 22, 1969

01. The Court Of The Crimson King (fragment) (November 21, 1969) (02:06)
02. A Man A City (November 21, 1969) (12:07)
03. Epitaph (November 21, 1969) (08:13)
04. 21st Century Schizoid Man (November 21, 1969) (08:39)
05. The Court Of The Crimson King (fragment) (November 22, 1969) (01:50)
06. A Man A City (November 22, 1969) (12:11)
07. Epitaph (November 22, 1969) (08:03)
08. 21st Century Schizoid Man (November 22, 1969) (09:03)

Exact Audio Copy V1.0 beta 4 from 7. December 2014

EAC extraction logfile from 17. October 2015, 11:50

King Crimson / Live At Fillmore East November 21 & 22, 1969

Used drive : PLEXTOR CD-R PX-240A Adapter: 0 ID: 0

Read mode : Secure
Utilize accurate stream : Yes
Defeat audio cache : Yes
Make use of C2 pointers : No

Read offset correction : 6
Overread into Lead-In and Lead-Out : No
Fill up missing offset samples with silence : Yes
Delete leading and trailing silent blocks : No
Null samples used in CRC calculations : Yes
Used interface : Installed external ASPI interface

Used output format : Internal WAV Routines
Sample format : 44.100 Hz; 16 Bit; Stereo


TOC of the extracted CD

Track | Start | Length | Start sector | End sector
––––––––––––––––––––––––––––-
1 | 0:00.00 | 2:36.49 | 0 | 11748
2 | 2:36.49 | 12:21.11 | 11749 | 67334
3 | 14:57.60 | 8:03.23 | 67335 | 103582
4 | 23:01.08 | 8:05.56 | 103583 | 140013
5 | 31:06.64 | 2:16.32 | 140014 | 150245
6 | 33:23.21 | 12:19.10 | 150246 | 205680
7 | 45:42.31 | 8:31.70 | 205681 | 244075
8 | 54:14.26 | 7:56.40 | 244076 | 279815


Range status and errors

Selected range

Filename Z:\data\hexonut\Seeding\King Crimson\2004-The Collectors' King Crimson Volume Nine\CD 1 - Live At Fillmore East November 21 & 22, 1969\Live At Fillmore East November 21 & 22, 1969.wav

Peak level 95.7 %
Extraction speed 10.1 X
Range quality 100.0 %
Test CRC 7BA313B2
Copy CRC 7BA313B2
Copy OK

No errors occurred


AccurateRip summary

Track 1 accurately ripped (confidence 3) [290EB972] (AR v1)
Track 2 accurately ripped (confidence 3) [B34EB8D9] (AR v1)
Track 3 accurately ripped (confidence 3) [50D50A90] (AR v1)
Track 4 accurately ripped (confidence 3) [F32EF508] (AR v1)
Track 5 accurately ripped (confidence 3) [76CFA3FE] (AR v1)
Track 6 accurately ripped (confidence 3) [47F37472] (AR v1)
Track 7 accurately ripped (confidence 3) [E9954455] (AR v1)
Track 8 accurately ripped (confidence 3) [45E561B1] (AR v1)

All tracks accurately ripped

End of status report

==== Log checksum 37E2CEF6AAEE182E938FB5571336C1487B1B243BD2ECDBA652B390A4C7C216ED ====

foobar2000 1.2.9 / Dynamic Range Meter 1.1.1
log date: 2015-10-21 15:34:41

––––––––––––––––––––––––––––––––––––––––
Analyzed: King Crimson / Live At Fillmore East November 21 & 22, 1969
––––––––––––––––––––––––––––––––––––––––

DR Peak RMS Duration Track
––––––––––––––––––––––––––––––––––––––––
DR5 -1.70 dB -9.13 dB 2:37 01-The Court Of The Crimson King (fragment) (November 21, 1969)
DR6 -1.34 dB -9.37 dB 12:21 02-A Man A City (November 21, 1969)
DR6 -1.59 dB -9.60 dB 8:03 03-Epitaph (November 21, 1969)
DR5 -1.43 dB -8.21 dB 8:06 04-21st Century Schizoid Man (November 21, 1969)
DR6 -1.36 dB -9.56 dB 2:16 05-The Court Of The Crimson King (fragment) (November 22, 1969)
DR6 -1.27 dB -8.87 dB 12:19 06-A Man A City (November 22, 1969)
DR7 -0.37 dB -10.34 dB 8:32 07-Epitaph (November 22, 1969)
DR6 -2.12 dB -9.78 dB 7:57 08-21st Century Schizoid Man (November 22, 1969)
––––––––––––––––––––––––––––––––––––––––

Number of tracks: 8
Official DR value: DR6

Samplerate: 44100 Hz
Channels: 2
Bits per sample: 16
Bitrate: 787 kbps
Codec: FLAC

[CUETools log; Date: 21.10.2015 15:04:53; Version: 2.1.4]
[CTDB TOCID: ZQqa2psj_bDNneVoCiiBRnemTio-] found.
Track | CTDB Status
1 | (8/8) Accurately ripped
2 | (8/8) Accurately ripped
3 | (8/8) Accurately ripped
4 | (8/8) Accurately ripped
5 | (8/8) Accurately ripped
6 | (8/8) Accurately ripped
7 | (8/8) Accurately ripped
8 | (8/8) Accurately ripped
[AccurateRip ID: 00125944-007c6425-780e9208] found.
Track [ CRC | V2 ] Status
01 [290eb972|a5f75493] (03+00/16) Accurately ripped
02 [b34eb8d9|1b723d20] (03+00/16) Accurately ripped
03 [50d50a90|a2336433] (03+00/16) Accurately ripped
04 [f32ef508|87587cf9] (03+00/16) Accurately ripped
05 [76cfa3fe|cf45ea33] (03+00/17) Accurately ripped
06 [47f37472|a2fe07da] (03+00/16) Accurately ripped
07 [e9954455|249dd7d6] (03+00/16) Accurately ripped
08 [45e561b1|e82d1bdc] (03+00/16) Accurately ripped
Offsetted by 578:
01 [4644c276] (05/16) Accurately ripped
02 [63c86401] (05/16) Accurately ripped
03 [398209e9] (05/16) Accurately ripped
04 [7762e975] (05/16) Accurately ripped
05 [eb1f7881] (06/17) Accurately ripped
06 [a1d4f4a2] (05/16) Accurately ripped
07 [bf5b3bd9] (05/16) Accurately ripped
08 [14f22ddc] (05/16) Accurately ripped
Offsetted by 592:
01 [c31804a5] (00/16) No match (V2 was not tested)
02 [8606638d] (00/16) No match (V2 was not tested)
03 [75d60c54] (00/16) No match (V2 was not tested)
04 [4f3f7111] (00/16) No match (V2 was not tested)
05 [173c3411] (00/17) No match (V2 was not tested)
06 [46acf457] (00/16) No match (V2 was not tested)
07 [74020960] (00/16) No match (V2 was not tested)
08 [a331231a] (00/16) No match (V2 was not tested)

Track Peak [ CRC32 ] [W/O NULL] [ LOG ]
– 95,7 [7BA313B2] [EEA46A95] CRC32
01 82,2 [19F20716] [45E2AF7C]
02 85,7 [11437EFF] [B2D80F26]
03 83,2 [8A1ABD52] [D8C26659]
04 84,8 [666C3A5F] [ACF0E908]
05 85,5 [BBF0D8AE] [30A61C0D]
06 86,4 [2F0E46E7] [33862D40]
07 95,7 [27A25A51] [7139378F]
08 78,3 [6DB52B43] [4D649BD7]

King Crimson - The Collectors' King Crimson Volume Nine (2004)

Tracklist CD2:
King Crimson - 2004 - Live In Philadelphia, PA July 30. 1982

01. Thela Hun Ginjeet (06:47)
02. Red (06:06)
03. The Howler (05:01)
04. Frame By Frame (04:50)
05. Matte Kudasai (03:43)
06. The Sheltering Sky (09:12)
07. Discipline (05:35)
08. Elephant Talk (04:58)
09. Indiscipline (11:00)
10. Neurotica (05:48)
11. Heartbeat (05:17)
12. Sartori In Tangier (04:12)
13. Larks' Tongues In Aspic Part II (07:07)

Exact Audio Copy V1.0 beta 4 from 7. December 2014

EAC extraction logfile from 17. October 2015, 11:56

King Crimson / Live In Philadelphia, PA July 30. 1982

Used drive : LITE-ON DVDRW LH-20A1L Adapter: 6 ID: 0

Read mode : Secure
Utilize accurate stream : Yes
Defeat audio cache : Yes
Make use of C2 pointers : No

Read offset correction : 6
Overread into Lead-In and Lead-Out : No
Fill up missing offset samples with silence : Yes
Delete leading and trailing silent blocks : No
Null samples used in CRC calculations : Yes
Used interface : Installed external ASPI interface

Used output format : Internal WAV Routines
Sample format : 44.100 Hz; 16 Bit; Stereo


TOC of the extracted CD

Track | Start | Length | Start sector | End sector
––––––––––––––––––––––––––––-
1 | 0:00.00 | 7:14.66 | 0 | 32615
2 | 7:14.66 | 5:56.24 | 32616 | 59339
3 | 13:11.15 | 4:45.42 | 59340 | 80756
4 | 17:56.57 | 4:55.66 | 80757 | 102947
5 | 22:52.48 | 3:40.53 | 102948 | 119500
6 | 26:33.26 | 9:28.55 | 119501 | 162155
7 | 36:02.06 | 5:22.51 | 162156 | 186356
8 | 41:24.57 | 5:07.39 | 186357 | 209420
9 | 46:32.21 | 11:12.66 | 209421 | 259886
10 | 57:45.12 | 6:29.57 | 259887 | 289118
11 | 64:14.69 | 4:18.01 | 289119 | 308469
12 | 68:32.70 | 4:20.16 | 308470 | 327985
13 | 72:53.11 | 6:43.34 | 327986 | 358244


Range status and errors

Selected range

Filename Z:\data\hexonut\Seeding\King Crimson\2004-The Collectors' King Crimson Volume Nine\CD 2 - Live In Philadelphia, PA July 30. 1982\Live In Philadelphia, PA July 30. 1982.wav

Peak level 98.0 %
Extraction speed 10.4 X
Range quality 100.0 %
Test CRC BAC97041
Copy CRC BAC97041
Copy OK

No errors occurred


AccurateRip summary

Track 1 accurately ripped (confidence 3) [EF6AE838] (AR v1)
Track 2 accurately ripped (confidence 3) [6BB646E8] (AR v1)
Track 3 accurately ripped (confidence 3) [1059E9EB] (AR v1)
Track 4 accurately ripped (confidence 3) [49C20156] (AR v1)
Track 5 accurately ripped (confidence 3) [27E3D852] (AR v1)
Track 6 accurately ripped (confidence 3) [92AD9E74] (AR v1)
Track 7 accurately ripped (confidence 3) [CC023509] (AR v1)
Track 8 accurately ripped (confidence 3) [B18667C5] (AR v1)
Track 9 accurately ripped (confidence 3) [9F4B6D00] (AR v1)
Track 10 accurately ripped (confidence 3) [03E47751] (AR v1)
Track 11 accurately ripped (confidence 3) [E0CB34AE] (AR v1)
Track 12 accurately ripped (confidence 3) [CC39FC78] (AR v1)
Track 13 accurately ripped (confidence 3) [D7AA8F1F] (AR v1)

All tracks accurately ripped

End of status report

==== Log checksum 118E84BA19B9DEAFF1C6A57ABAB12AC618C594CC77CE01344D7A4370B62ACD32 ====

foobar2000 1.2.9 / Dynamic Range Meter 1.1.1
log date: 2015-10-21 15:35:08

––––––––––––––––––––––––––––––––––––––––
Analyzed: King Crimson / Live In Philadelphia, PA July 30. 1982
––––––––––––––––––––––––––––––––––––––––

DR Peak RMS Duration Track
––––––––––––––––––––––––––––––––––––––––
DR9 -0.21 dB -10.61 dB 7:15 01-Thela Hun Ginjeet
DR9 -0.27 dB -10.30 dB 5:56 02-Red
DR9 -0.31 dB -11.30 dB 4:46 03-The Howler
DR9 -0.28 dB -11.75 dB 4:56 04-Frame By Frame
DR10 -0.62 dB -13.24 dB 3:41 05-Matte Kudasai
DR9 -1.96 dB -14.69 dB 9:29 06-The Sheltering Sky
DR9 -0.30 dB -10.79 dB 5:23 07-Discipline
DR8 -0.23 dB -10.03 dB 5:08 08-Elephant Talk
DR8 -0.22 dB -12.25 dB 11:13 09-Indiscipline
DR8 -0.27 dB -10.15 dB 6:30 10-Neurotica
DR7 -0.17 dB -9.08 dB 4:18 11-Heartbeat
DR9 -0.31 dB -10.68 dB 4:20 12-Sartori In Tangier
DR8 -0.21 dB -9.96 dB 6:43 13-Larks' Tongues In Aspic Part II
––––––––––––––––––––––––––––––––––––––––

Number of tracks: 13
Official DR value: DR9

Samplerate: 44100 Hz
Channels: 2
Bits per sample: 16
Bitrate: 881 kbps
Codec: FLAC

[CUETools log; Date: 21.10.2015 15:07:12; Version: 2.1.4]
[CTDB TOCID: tkz27zZ3d7PgasmEHqROgnN4V6Q-] found.
Track | CTDB Status
1 | (26/26) Accurately ripped
2 | (26/26) Accurately ripped
3 | (26/26) Accurately ripped
4 | (26/26) Accurately ripped
5 | (25/26) Accurately ripped
6 | (26/26) Accurately ripped
7 | (26/26) Accurately ripped
8 | (26/26) Accurately ripped
9 | (26/26) Accurately ripped
10 | (26/26) Accurately ripped
11 | (25/26) Accurately ripped
12 | (25/26) Accurately ripped
13 | (25/26) Accurately ripped
[AccurateRip ID: 00261923-017e851f-d312a80d] found.
Track [ CRC | V2 ] Status
01 [ef6ae838|0622b82d] (03+00/44) Accurately ripped
02 [6bb646e8|6a38714c] (03+00/44) Accurately ripped
03 [1059e9eb|45742984] (03+00/44) Accurately ripped
04 [49c20156|72313370] (03+00/44) Accurately ripped
05 [27e3d852|79b5e960] (03+00/44) Accurately ripped
06 [92ad9e74|db1093c9] (03+00/44) Accurately ripped
07 [cc023509|af35ca03] (03+00/44) Accurately ripped
08 [b18667c5|767182fc] (03+00/44) Accurately ripped
09 [9f4b6d00|94b3fe74] (03+00/44) Accurately ripped
10 [03e47751|2f8d8ec8] (03+00/44) Accurately ripped
11 [e0cb34ae|6274bed4] (03+00/45) Accurately ripped
12 [cc39fc78|c0349831] (03+00/43) Accurately ripped
13 [d7aa8f1f|00331540] (03+00/44) Accurately ripped
Offsetted by -325:
01 [a439ed7b] (04/44) Accurately ripped
02 [6d68c5de] (04/44) Accurately ripped
03 [347dd2d7] (04/44) Accurately ripped
04 [73700220] (04/44) Accurately ripped
05 [b43de5ed] (04/44) Accurately ripped
06 [cef5f220] (04/44) Accurately ripped
07 [51ab54c0] (04/44) Accurately ripped
08 [0750b8a5] (04/44) Accurately ripped
09 [468500d9] (04/44) Accurately ripped
10 [b8820960] (04/44) Accurately ripped
11 [eb56842d] (04/45) Accurately ripped
12 [bd814f02] (04/43) Accurately ripped
13 [ea18be5c] (04/44) Accurately ripped
Offsetted by 578:
01 [dff58ec7] (20/44) Accurately ripped
02 [69f41036] (20/44) Accurately ripped
03 [f289106f] (20/44) Accurately ripped
04 [46ef7245] (20/44) Accurately ripped
05 [3ef71433] (20/44) Accurately ripped
06 [86819a0a] (20/44) Accurately ripped
07 [09046ed9] (20/44) Accurately ripped
08 [24826d12] (20/44) Accurately ripped
09 [04ceb1b2] (20/44) Accurately ripped
10 [ef1261ba] (20/44) Accurately ripped
11 [549d3cc1] (21/45) Accurately ripped
12 [3ed7efbb] (19/43) Accurately ripped
13 [4be2b8b8] (20/44) Accurately ripped
Offsetted by 321:
01 [a8d2e802] (00/44) No match (V2 was not tested)
02 [42aabd0f] (00/44) No match (V2 was not tested)
03 [659fc8cd] (00/44) No match (V2 was not tested)
04 [5bc4d6a2] (00/44) No match (V2 was not tested)
05 [cc5fda67] (00/44) No match (V2 was not tested)
06 [4dd050c1] (00/44) No match (V2 was not tested)
07 [27319e2d] (00/44) No match (V2 was not tested)
08 [f0a88f03] (00/44) No match (V2 was not tested)
09 [fc67ed87] (00/44) No match (V2 was not tested)
10 [bf7b3538] (00/44) No match (V2 was not tested)
11 [48f1d6bb] (00/45) No match (V2 was not tested)
12 [0efdb9a8] (00/43) No match (V2 was not tested)
13 [8529b42a] (00/44) No match (V2 was not tested)

Track Peak [ CRC32 ] [W/O NULL] [ LOG ]
– 98,0 [BAC97041] [58266595] CRC32
01 97,6 [D0803B3D] [3B457192]
02 96,9 [6DA9EBCB] [42538C03]
03 96,4 [9E7E1C02] [E6A6E1B8]
04 96,8 [7F8BA4EE] [C8B338F9]
05 93,0 [A13657B7] [21C0CF2B]
06 79,8 [05828C59] [8137C816]
07 96,6 [038FCD2D] [62824937]
08 97,4 [28917EEC] [B7A995E3]
09 97,4 [70D89450] [BA3D34D6]
10 96,9 [24677216] [1F9B72E7]
11 98,0 [B70E08BB] [567417CB]
12 96,5 [F595B8DF] [2041B95B]
13 97,6 [6A13273C] [80B690EB]

King Crimson - The Collectors' King Crimson Volume Nine (2004)

Tracklist CD3:
ProjeKct Three - 2004 - Live In Austin, TX March 25, 1999

01. Masque 3 (15:35)
02. Masque 11 (07:20)
03. X-Chayn-Jiz (08:39)
04. Hindu Fizz (02:33)
05. Heavy ConstruKction (04:40)
06. Introductory Soundscape (03:40)
07. Masque 8 (07:14)
08. Light ConstruKction (01:43)
09. Masque 2 (07:18)
10. CCCCCCs (08:58)
11. ProjeKction (04:33)
12. The Deception Of The Thrush (06:51)

Exact Audio Copy V1.0 beta 4 from 7. December 2014

EAC extraction logfile from 17. October 2015, 12:14

ProjeKct Three / Live In Austin, TX March 25, 1999

Used drive : PLEXTOR CD-R PX-240A Adapter: 0 ID: 0

Read mode : Secure
Utilize accurate stream : Yes
Defeat audio cache : Yes
Make use of C2 pointers : No

Read offset correction : 6
Overread into Lead-In and Lead-Out : No
Fill up missing offset samples with silence : Yes
Delete leading and trailing silent blocks : No
Null samples used in CRC calculations : Yes
Used interface : Installed external ASPI interface

Used output format : Internal WAV Routines
Sample format : 44.100 Hz; 16 Bit; Stereo


TOC of the extracted CD

Track | Start | Length | Start sector | End sector
––––––––––––––––––––––––––––-
1 | 0:00.00 | 15:37.66 | 0 | 70340
2 | 15:37.66 | 7:25.43 | 70341 | 103758
3 | 23:03.34 | 8:29.70 | 103759 | 142003
4 | 31:33.29 | 2:32.51 | 142004 | 153454
5 | 34:06.05 | 4:44.58 | 153455 | 174812
6 | 38:50.63 | 3:35.65 | 174813 | 191002
7 | 42:26.53 | 7:13.58 | 191003 | 223535
8 | 49:40.36 | 1:43.02 | 223536 | 231262
9 | 51:23.38 | 7:17.64 | 231263 | 264101
10 | 58:41.27 | 9:02.27 | 264102 | 304778
11 | 67:43.54 | 4:41.54 | 304779 | 325907
12 | 72:25.33 | 6:37.49 | 325908 | 355731


Range status and errors

Selected range

Filename Z:\data\hexonut\Seeding\King Crimson\2004-The Collectors' King Crimson Volume Nine\CD 3 - ProjeKct Three - Live In Austin, TX March 25, 1999\Live In Austin, TX March 25, 1999.wav

Peak level 96.3 %
Extraction speed 10.6 X
Range quality 100.0 %
Test CRC 7EA12293
Copy CRC 7EA12293
Copy OK

No errors occurred


AccurateRip summary

Track 1 accurately ripped (confidence 3) [C7F1EED3] (AR v1)
Track 2 accurately ripped (confidence 3) [CE8BA8B0] (AR v1)
Track 3 accurately ripped (confidence 3) [11D195A4] (AR v1)
Track 4 accurately ripped (confidence 3) [C83A2946] (AR v1)
Track 5 accurately ripped (confidence 3) [DE1B5674] (AR v1)
Track 6 accurately ripped (confidence 3) [3168B07C] (AR v1)
Track 7 accurately ripped (confidence 3) [EE6E3AB4] (AR v1)
Track 8 accurately ripped (confidence 3) [B06E9332] (AR v1)
Track 9 accurately ripped (confidence 3) [7C2A8503] (AR v1)
Track 10 accurately ripped (confidence 3) [D9699BCD] (AR v1)
Track 11 accurately ripped (confidence 3) [2EB382A4] (AR v1)
Track 12 accurately ripped (confidence 3) [AADE3BFB] (AR v1)

All tracks accurately ripped

End of status report

==== Log checksum 6AC61D8D40631AF6EBBC0898FF25C356A4E8D7955D83A3BBDF7E63F97CA11007 ====

foobar2000 1.2.9 / Dynamic Range Meter 1.1.1
log date: 2015-10-21 15:35:30

––––––––––––––––––––––––––––––––––––––––
Analyzed: ProjeKct Three / Live In Austin, TX March 25, 1999
––––––––––––––––––––––––––––––––––––––––

DR Peak RMS Duration Track
––––––––––––––––––––––––––––––––––––––––
DR7 -0.32 dB -9.16 dB 15:38 01-Masque 3
DR9 -0.61 dB -11.95 dB 7:26 02-Masque 11
DR8 -0.49 dB -10.04 dB 8:30 03-X-Chayn-Jiz
DR7 -0.56 dB -9.19 dB 2:33 04-Hindu Fizz
DR7 -0.51 dB -9.36 dB 4:45 05-Heavy ConstruKction
DR10 -4.31 dB -18.94 dB 3:36 06-Introductory Soundscape
DR8 -0.49 dB -10.17 dB 7:14 07-Masque 8
DR7 -0.92 dB -11.52 dB 1:43 08-Light ConstruKction
DR7 -0.43 dB -8.39 dB 7:18 09-Masque 2
DR7 -0.46 dB -9.30 dB 9:02 10-CCCCCCs
DR7 -0.49 dB -8.89 dB 4:42 11-ProjeKction
DR7 -0.59 dB -11.87 dB 6:38 12-The Deception Of The Thrush
––––––––––––––––––––––––––––––––––––––––

Number of tracks: 12
Official DR value: DR8

Samplerate: 44100 Hz
Channels: 2
Bits per sample: 16
Bitrate: 830 kbps
Codec: FLAC

[CUETools log; Date: 21.10.2015 15:12:42; Version: 2.1.4]
[CTDB TOCID: a1CxnpI.BgH2qwiG0.tjN4MR_Vc-] disk not present in database.
[AccurateRip ID: 0026c497-01586b1e-bd12870c] found.
Track [ CRC | V2 ] Status
01 [c7f1eed3|0b023922] (3+0/5) Accurately ripped
02 [ce8ba8b0|da81d0fa] (3+0/5) Accurately ripped
03 [11d195a4|fdf860e2] (3+0/5) Accurately ripped
04 [c83a2946|7dae449c] (3+0/5) Accurately ripped
05 [de1b5674|cf0a8531] (3+0/5) Accurately ripped
06 [3168b07c|65c0fba5] (3+0/5) Accurately ripped
07 [ee6e3ab4|dbb2b4b8] (3+0/5) Accurately ripped
08 [b06e9332|3b80f3b3] (3+0/5) Accurately ripped
09 [7c2a8503|de4924ff] (3+0/5) Accurately ripped
10 [d9699bcd|82ab8c51] (3+0/5) Accurately ripped
11 [2eb382a4|4d6d54f9] (3+0/5) Accurately ripped
12 [aade3bfb|215cec47] (3+0/5) Accurately ripped
Offsetted by 6:
01 [f4209abc] (2/5) Accurately ripped
02 [45e9222a] (2/5) Accurately ripped
03 [4b8b262c] (2/5) Accurately ripped
04 [18332a98] (2/5) Accurately ripped
05 [20b6873f] (2/5) Accurately ripped
06 [9f1522a9] (2/5) Accurately ripped
07 [e3ec9a57] (2/5) Accurately ripped
08 [f1c579c8] (2/5) Accurately ripped
09 [e4975498] (2/5) Accurately ripped
10 [5672eb6a] (2/5) Accurately ripped
11 [26f5938f] (2/5) Accurately ripped
12 [ff6c315c] (2/5) Accurately ripped

Track Peak [ CRC32 ] [W/O NULL] [ LOG ]
– 96,3 [7EA12293] [8D89F9EE] CRC32
01 96,3 [DB1F5B6D] [C6D417D6]
02 93,2 [F5B263AA] [E09A2370]
03 94,5 [6690ED44] [464D7DB8]
04 93,7 [C7795E16] [CB0F58CE]
05 94,3 [8897BAB7] [452D8ED9]
06 60,8 [25A02018] [CAF96DE9]
07 94,5 [C8362216] [3F618816]
08 89,9 [D97E7F58] [34E9C4FA]
09 95,1 [0CAB36E2] [4F9BAC6D]
10 94,8 [127E6B55] [AF32DF62]
11 94,4 [89E1FE60] [E447D1A7]
12 93,4 [E6F05A8C] [5CCC3C66]

All thanks go to hexonut
King Crimson - The Collectors' King Crimson Volume Nine (2004)

King Crimson in my Blog

Download King Crimson - The Collectors' King Crimson Volume Nine (2004):