Subcategories

The Cure - Assemblage (1991) 12 CD Box Set [Re-Up]

Posted By: Designol
The Cure - Assemblage (1991) 12 CD Box Set [Re-Up]

The Cure - Assemblage (1991) 12 CD Box Set
EAC | FLAC | Tracks (Cue&Log) ~ 3.17 Gb | Mp3 (CBR320) ~ 1.28 Gb | Scans ~ 147 Mb
Label: Fiction Records | # 511 124-2 | Time: 09:01:38
Alternative Rock, Gothic Rock, Post-Punk, New Wave

Rare 1991 French-only 12-CD set, comprising all their albums from Three Imaginary Boys to Disintegration in individual card wallet picture sleeves, plus 68-page deluxe illustrated booklet [all text in French], housed in a picture box with pull-out tray and die-cut band logo section with rotating wheel insert!

The Cure - Assemblage (1991) 12 CD Box Set [Re-Up]






The Cure - Assemblage (1991) 12 CD Box Set [Re-Up]

СD 1: Three Imaginary Boys (1979) [Time: 00:35:39]

Maybe it was youthful exuberance or perhaps it was the fact that the band itself was not pulling all the strings, Three Imaginary Boys is not only a very strong debut, but a near oddity (it's an admittedly "catchy" record) in the Cure catalog. More poppy and representative of the times than any other album during their long career, Three Imaginary Boys is a semi-detached bit of late-'70s English pop-punk. Angular and lyrically abstract, it's strong points are in its utter simplicity. There are no dirges here, no long suites, just short bursts of energy and a rather strange cover of Hendrix's "Foxy Lady." For some, this is the last good Cure record, many fans of this album being in no way prepared for the sparse emptiness and gloom that would be the cornerstone of future releases. For the most die-hard Cure-head, however, it's an interesting sidenote, hard to place in the general flow of the band's discography. Cure leader Robert Smith has voiced many times over his mixed feelings about the record, most notably the cover art (the three "representative" appliances on the cover, the lack of a real track listing – all the songs are represented with arty type pictures – and in no real order) and the production, which at times is admittedly a little muddy, but even that lends it a certain youthful charm. What the Cure would do next wasn't entirely obvious to the listener of this album, but there are some definite hints.

Review by Chris True, Allmusic.com

Tracklist:

01. 10.15 Saturday Night (03:41)
02. Accuracy (02:18)
03. Grinding Halt (02:49)
04. Another Day (03:44)
05. Object (03:03)
06. Subway Song (02:01)
07. Foxy Lady (02:29)
08. Meat Hook (02:18)
09. So What (02:37)
10. Fire in Cairo (03:23)
11. It's Not You (02:49)
12. Three Imaginary Boys (03:17)
13. The Weedy Burton (01:04)


Exact Audio Copy V1.0 beta 3 from 29. August 2011

EAC extraction logfile from 5. December 2013, 14:30

The Cure / Three Imaginary Boys

Used drive : ASUS DRW-24B1ST i Adapter: 2 ID: 0

Read mode : Secure
Utilize accurate stream : Yes
Defeat audio cache : Yes
Make use of C2 pointers : No

Read offset correction : 6
Overread into Lead-In and Lead-Out : No
Fill up missing offset samples with silence : Yes
Delete leading and trailing silent blocks : No
Null samples used in CRC calculations : Yes
Used interface : Native Win32 interface for Win NT & 2000
Gap handling : Appended to previous track

Used output format : User Defined Encoder
Selected bitrate : 896 kBit/s
Quality : High
Add ID3 tag : No
Command line compressor : C:\Program Files (x86)\Exact Audio Copy\FLAC\FLAC.EXE
Additional command line options : -6 -V -T "ARTIST=%artist%" -T "TITLE=%title%" -T "ALBUM=%albumtitle%" -T "DATE=%year%" -T "TRACKNUMBER=%tracknr%" -T "GENRE=%genre%" -T "COMMENT=%comment%" -T "BAND=%albuminterpret%" -T "ALBUMARTIST=%albuminterpret%" -T "COMPOSER=%composer%" %haslyrics%–tag-from-file=LYRICS="%lyricsfile%"%haslyrics% -T "DISCNUMBER=%cdnumber%" -T "TOTALDISCS=%totalcds%" -T "TOTALTRACKS=%numtracks%" %hascover%–picture="%coverfile%"%hascover% %source% -o %dest%


TOC of the extracted CD

Track | Start | Length | Start sector | End sector
––––––––––––––––––––––––––––-
1 | 0:00.33 | 3:41.25 | 33 | 16632
2 | 3:41.58 | 2:18.65 | 16633 | 27047
3 | 6:00.48 | 2:49.42 | 27048 | 39764
4 | 8:50.15 | 3:44.05 | 39765 | 56569
5 | 12:34.20 | 3:03.35 | 56570 | 70329
6 | 15:37.55 | 2:01.10 | 70330 | 79414
7 | 17:38.65 | 2:29.20 | 79415 | 90609
8 | 20:08.10 | 2:18.05 | 90610 | 100964
9 | 22:26.15 | 2:37.60 | 100965 | 112799
10 | 25:04.00 | 3:23.43 | 112800 | 128067
11 | 28:27.43 | 2:49.52 | 128068 | 140794
12 | 31:17.20 | 3:17.65 | 140795 | 155634
13 | 34:35.10 | 1:04.48 | 155635 | 160482


Track 1

Filename C:\EAC Saves\The Cure - Assemblage - 1991 (12CD FLAC)\01 - Three Imaginary Boys (1979)\01 - 10.15 Saturday Night.wav

Pre-gap length 0:00:02.33

Peak level 79.0 %
Extraction speed 5.1 X
Track quality 100.0 %
Test CRC B713D197
Copy CRC B713D197
Accurately ripped (confidence 44) [60881051] (AR v2)
Copy OK

Track 2

Filename C:\EAC Saves\The Cure - Assemblage - 1991 (12CD FLAC)\01 - Three Imaginary Boys (1979)\02 - Accuracy.wav

Peak level 66.5 %
Extraction speed 5.2 X
Track quality 100.0 %
Test CRC 4B1174BA
Copy CRC 4B1174BA
Accurately ripped (confidence 44) [1F59D855] (AR v2)
Copy OK

Track 3

Filename C:\EAC Saves\The Cure - Assemblage - 1991 (12CD FLAC)\01 - Three Imaginary Boys (1979)\03 - Grinding Halt.wav

Pre-gap length 0:00:01.50

Peak level 75.0 %
Extraction speed 5.7 X
Track quality 100.0 %
Test CRC 04B5D3F2
Copy CRC 04B5D3F2
Accurately ripped (confidence 43) [59863E79] (AR v2)
Copy OK

Track 4

Filename C:\EAC Saves\The Cure - Assemblage - 1991 (12CD FLAC)\01 - Three Imaginary Boys (1979)\04 - Another Day.wav

Peak level 74.8 %
Extraction speed 5.2 X
Track quality 99.9 %
Test CRC 8C57C82F
Copy CRC 8C57C82F
Accurately ripped (confidence 42) [F93B6B29] (AR v2)
Copy OK

Track 5

Filename C:\EAC Saves\The Cure - Assemblage - 1991 (12CD FLAC)\01 - Three Imaginary Boys (1979)\05 - Object.wav

Pre-gap length 0:00:01.70

Peak level 76.1 %
Extraction speed 6.6 X
Track quality 100.0 %
Test CRC 0B10F66F
Copy CRC 0B10F66F
Accurately ripped (confidence 44) [3B18AB5F] (AR v2)
Copy OK

Track 6

Filename C:\EAC Saves\The Cure - Assemblage - 1991 (12CD FLAC)\01 - Three Imaginary Boys (1979)\06 - Subway Song.wav

Pre-gap length 0:00:02.42

Peak level 58.4 %
Extraction speed 4.6 X
Track quality 99.9 %
Test CRC B7F74026
Copy CRC B7F74026
Accurately ripped (confidence 44) [96AB7657] (AR v2)
Copy OK

Track 7

Filename C:\EAC Saves\The Cure - Assemblage - 1991 (12CD FLAC)\01 - Three Imaginary Boys (1979)\07 - Foxy Lady.wav

Pre-gap length 0:00:02.62

Peak level 82.2 %
Extraction speed 6.8 X
Track quality 100.0 %
Test CRC 2E7591D5
Copy CRC 2E7591D5
Accurately ripped (confidence 44) [2744C0DF] (AR v2)
Copy OK

Track 8

Filename C:\EAC Saves\The Cure - Assemblage - 1991 (12CD FLAC)\01 - Three Imaginary Boys (1979)\08 - Meat Hook.wav

Peak level 63.3 %
Extraction speed 6.9 X
Track quality 100.0 %
Test CRC 10E5263B
Copy CRC 10E5263B
Accurately ripped (confidence 44) [09EF3E18] (AR v2)
Copy OK

Track 9

Filename C:\EAC Saves\The Cure - Assemblage - 1991 (12CD FLAC)\01 - Three Imaginary Boys (1979)\09 - So What.wav

Pre-gap length 0:00:00.17

Peak level 79.6 %
Extraction speed 7.3 X
Track quality 100.0 %
Test CRC A3DA816C
Copy CRC A3DA816C
Accurately ripped (confidence 44) [1CFE46AD] (AR v2)
Copy OK

Track 10

Filename C:\EAC Saves\The Cure - Assemblage - 1991 (12CD FLAC)\01 - Three Imaginary Boys (1979)\10 - Fire in Cairo.wav

Pre-gap length 0:00:01.72

Peak level 83.1 %
Extraction speed 8.0 X
Track quality 100.0 %
Test CRC DEEA504D
Copy CRC DEEA504D
Accurately ripped (confidence 44) [937BE4F3] (AR v2)
Copy OK

Track 11

Filename C:\EAC Saves\The Cure - Assemblage - 1991 (12CD FLAC)\01 - Three Imaginary Boys (1979)\11 - It's Not You.wav

Pre-gap length 0:00:01.65

Peak level 75.8 %
Extraction speed 8.0 X
Track quality 100.0 %
Test CRC 3A626982
Copy CRC 3A626982
Accurately ripped (confidence 44) [FC1AB3C9] (AR v2)
Copy OK

Track 12

Filename C:\EAC Saves\The Cure - Assemblage - 1991 (12CD FLAC)\01 - Three Imaginary Boys (1979)\12 - Three Imaginary Boys.wav

Peak level 100.0 %
Extraction speed 6.8 X
Track quality 99.9 %
Test CRC 829A6DE8
Copy CRC 829A6DE8
Accurately ripped (confidence 44) [4A4A8AF9] (AR v2)
Copy OK

Track 13

Filename C:\EAC Saves\The Cure - Assemblage - 1991 (12CD FLAC)\01 - Three Imaginary Boys (1979)\13 - The Weedy Burton.wav

Pre-gap length 0:00:02.52

Peak level 71.9 %
Extraction speed 6.4 X
Track quality 100.0 %
Test CRC 0A2026C9
Copy CRC 0A2026C9
Accurately ripped (confidence 44) [E185D85B] (AR v2)
Copy OK


All tracks accurately ripped

No errors occurred

End of status report

==== Log checksum D695C2AFDEA7A8A19E470365180CF75EDE9FC8D216617E05E7B99AABB8460DCC ====

foobar2000 1.3.8 / Dynamic Range Meter 1.1.1
log date: 2015-12-08 01:39:45

––––––––––––––––––––––––––––––––––––––––
Analyzed: The Cure / Three Imaginary Boys
––––––––––––––––––––––––––––––––––––––––

DR Peak RMS Duration Track
––––––––––––––––––––––––––––––––––––––––
DR12 -2.04 dB -18.92 dB 3:41 01-10.15 Saturday Night
DR13 -3.54 dB -19.14 dB 2:19 02-Accuracy
DR13 -2.49 dB -17.55 dB 2:50 03-Grinding Halt
DR14 -2.51 dB -21.29 dB 3:44 04-Another Day
DR13 -2.37 dB -16.53 dB 3:03 05-Object
DR11 -4.67 dB -22.88 dB 2:01 06-Subway Song
DR12 -1.70 dB -17.20 dB 2:29 07-Foxy Lady
DR12 -3.96 dB -18.59 dB 2:18 08-Meat Hook
DR11 -1.98 dB -15.11 dB 2:38 09-So What
DR14 -1.60 dB -17.66 dB 3:24 10-Fire in Cairo
DR13 -2.40 dB -16.85 dB 2:50 11-It's Not You
DR13 0.00 dB -15.81 dB 3:18 12-Three Imaginary Boys
DR13 -2.86 dB -19.73 dB 1:05 13-The Weedy Burton
––––––––––––––––––––––––––––––––––––––––

Number of tracks: 13
Official DR value: DR13

Samplerate: 44100 Hz
Channels: 2
Bits per sample: 16
Bitrate: 650 kbps
Codec: FLAC
================================================================================




The Cure - Assemblage (1991) 12 CD Box Set [Re-Up]

СD 2: Boys Don't Cry (1980) [Time: 00:33:40]

Falling somewhere between official release and compilation, Boys Don't Cry was released in February 1980 in hopes of increasing the band's exposure outside of the U.K. It captures the first phase of the band well, showcasing the angular new wave that had garnered them acclaim in England. The major difference separating this from the debut full-length (and thus qualifying it as an "official" release) is that unlike Three Imaginary Boys, the first three singles ("Killing an Arab," "Boys Don't Cry," and "Jumping Someone Else's Train") are included. A good starting point for getting up to speed on this era of the band, it works best when paired up with Three Imaginary Boys; then you'll get the complete picture.

Review by Chris True, Allmusic.com

Tracklist:

01. Boys Don't Cry (02:34)
02. Plastic Passion (02:15)
03. 10.15 Saturday Night (03:40)
04. Accuracy (02:18)
05. So What (02:30)
06. Jumping Someone Else's Train (02:56)
07. Subway Song (01:55)
08. Killing an Arab (02:22)
09. Fire in Cairo (03:22)
10. Another Day (03:43)
11. Grinding Halt (02:49)
12. Three Imaginary Boys (03:12)


Exact Audio Copy V1.0 beta 3 from 29. August 2011

EAC extraction logfile from 5. December 2013, 15:09

The Cure / Boys Don't Cry

Used drive : ASUS DRW-24B1ST i Adapter: 2 ID: 0

Read mode : Secure
Utilize accurate stream : Yes
Defeat audio cache : Yes
Make use of C2 pointers : No

Read offset correction : 6
Overread into Lead-In and Lead-Out : No
Fill up missing offset samples with silence : Yes
Delete leading and trailing silent blocks : No
Null samples used in CRC calculations : Yes
Used interface : Native Win32 interface for Win NT & 2000
Gap handling : Appended to previous track

Used output format : User Defined Encoder
Selected bitrate : 896 kBit/s
Quality : High
Add ID3 tag : No
Command line compressor : C:\Program Files (x86)\Exact Audio Copy\FLAC\FLAC.EXE
Additional command line options : -6 -V -T "ARTIST=%artist%" -T "TITLE=%title%" -T "ALBUM=%albumtitle%" -T "DATE=%year%" -T "TRACKNUMBER=%tracknr%" -T "GENRE=%genre%" -T "COMMENT=%comment%" -T "BAND=%albuminterpret%" -T "ALBUMARTIST=%albuminterpret%" -T "COMPOSER=%composer%" %haslyrics%–tag-from-file=LYRICS="%lyricsfile%"%haslyrics% -T "DISCNUMBER=%cdnumber%" -T "TOTALDISCS=%totalcds%" -T "TOTALTRACKS=%numtracks%" %hascover%–picture="%coverfile%"%hascover% %source% -o %dest%


TOC of the extracted CD

Track | Start | Length | Start sector | End sector
––––––––––––––––––––––––––––-
1 | 0:00.33 | 2:34.65 | 33 | 11647
2 | 2:35.23 | 2:15.05 | 11648 | 21777
3 | 4:50.28 | 3:40.02 | 21778 | 38279
4 | 8:30.30 | 2:18.15 | 38280 | 48644
5 | 10:48.45 | 2:30.20 | 48645 | 59914
6 | 13:18.65 | 2:56.70 | 59915 | 73184
7 | 16:15.60 | 1:55.05 | 73185 | 81814
8 | 18:10.65 | 2:22.55 | 81815 | 92519
9 | 20:33.45 | 3:22.38 | 92520 | 107707
10 | 23:56.08 | 3:43.05 | 107708 | 124437
11 | 27:39.13 | 2:49.52 | 124438 | 137164
12 | 30:28.65 | 3:12.00 | 137165 | 151564


Track 1

Filename C:\EAC Saves\The Cure - Assemblage - 1991 (12CD FLAC)\02 - Boys Don't Cry (1980)\01 - Boys Don't Cry.wav

Pre-gap length 0:00:02.33

Peak level 87.9 %
Extraction speed 4.8 X
Track quality 100.0 %
Test CRC 85EF7761
Copy CRC 85EF7761
Accurately ripped (confidence 67) [8CE7119B] (AR v2)
Copy OK

Track 2

Filename C:\EAC Saves\The Cure - Assemblage - 1991 (12CD FLAC)\02 - Boys Don't Cry (1980)\02 - Plastic Passion.wav

Peak level 98.6 %
Extraction speed 4.9 X
Track quality 100.0 %
Test CRC 960FF4F9
Copy CRC 960FF4F9
Accurately ripped (confidence 68) [E6FEC658] (AR v2)
Copy OK

Track 3

Filename C:\EAC Saves\The Cure - Assemblage - 1991 (12CD FLAC)\02 - Boys Don't Cry (1980)\03 - 10.15 Saturday Night.wav

Peak level 100.0 %
Extraction speed 5.8 X
Track quality 100.0 %
Test CRC 6BD34099
Copy CRC 6BD34099
Accurately ripped (confidence 67) [8A5AC24E] (AR v2)
Copy OK

Track 4

Filename C:\EAC Saves\The Cure - Assemblage - 1991 (12CD FLAC)\02 - Boys Don't Cry (1980)\04 - Accuracy.wav

Peak level 98.2 %
Extraction speed 5.7 X
Track quality 100.0 %
Test CRC 71FD860B
Copy CRC 71FD860B
Accurately ripped (confidence 67) [F7970001] (AR v2)
Copy OK

Track 5

Filename C:\EAC Saves\The Cure - Assemblage - 1991 (12CD FLAC)\02 - Boys Don't Cry (1980)\05 - So What.wav

Pre-gap length 0:00:01.60

Peak level 79.8 %
Extraction speed 6.1 X
Track quality 100.0 %
Test CRC AB6ED768
Copy CRC AB6ED768
Accurately ripped (confidence 68) [2F0DEFD1] (AR v2)
Copy OK

Track 6

Filename C:\EAC Saves\The Cure - Assemblage - 1991 (12CD FLAC)\02 - Boys Don't Cry (1980)\06 - Jumping Someone Else's Train.wav

Pre-gap length 0:00:00.64

Peak level 86.9 %
Extraction speed 5.2 X
Track quality 99.9 %
Test CRC 16F89060
Copy CRC 16F89060
Accurately ripped (confidence 68) [BAFE5023] (AR v2)
Copy OK

Track 7

Filename C:\EAC Saves\The Cure - Assemblage - 1991 (12CD FLAC)\02 - Boys Don't Cry (1980)\07 - Subway Song.wav

Peak level 81.7 %
Extraction speed 6.2 X
Track quality 100.0 %
Test CRC C7BCC421
Copy CRC C7BCC421
Accurately ripped (confidence 68) [C5CDB59A] (AR v2)
Copy OK

Track 8

Filename C:\EAC Saves\The Cure - Assemblage - 1991 (12CD FLAC)\02 - Boys Don't Cry (1980)\08 - Killing an Arab.wav

Pre-gap length 0:00:01.02

Peak level 90.7 %
Extraction speed 5.2 X
Track quality 99.9 %
Test CRC 6A978708
Copy CRC 6A978708
Accurately ripped (confidence 69) [ED97B503] (AR v2)
Copy OK

Track 9

Filename C:\EAC Saves\The Cure - Assemblage - 1991 (12CD FLAC)\02 - Boys Don't Cry (1980)\09 - Fire in Cairo.wav

Peak level 88.3 %
Extraction speed 6.1 X
Track quality 99.9 %
Test CRC 3C3EFBA4
Copy CRC 3C3EFBA4
Accurately ripped (confidence 68) [7BD0B919] (AR v2)
Copy OK

Track 10

Filename C:\EAC Saves\The Cure - Assemblage - 1991 (12CD FLAC)\02 - Boys Don't Cry (1980)\10 - Another Day.wav

Pre-gap length 0:00:00.10

Peak level 97.8 %
Extraction speed 6.6 X
Track quality 99.9 %
Test CRC 7EB6ECCD
Copy CRC 7EB6ECCD
Accurately ripped (confidence 68) [46BA73F7] (AR v2)
Copy OK

Track 11

Filename C:\EAC Saves\The Cure - Assemblage - 1991 (12CD FLAC)\02 - Boys Don't Cry (1980)\11 - Grinding Halt.wav

Peak level 95.5 %
Extraction speed 7.9 X
Track quality 100.0 %
Test CRC 499A964B
Copy CRC 499A964B
Accurately ripped (confidence 67) [85F74E5D] (AR v2)
Copy OK

Track 12

Filename C:\EAC Saves\The Cure - Assemblage - 1991 (12CD FLAC)\02 - Boys Don't Cry (1980)\12 - Three Imaginary Boys.wav

Pre-gap length 0:00:00.42

Peak level 91.4 %
Extraction speed 8.4 X
Track quality 100.0 %
Test CRC E2EB55BB
Copy CRC E2EB55BB
Accurately ripped (confidence 66) [F6C7BF29] (AR v2)
Copy OK


All tracks accurately ripped

No errors occurred

End of status report

==== Log checksum 6A5D25405BFDD0C8C28529D45A35B6A079EAE138A816E8B35897897D64E05F93 ====

foobar2000 1.3.8 / Dynamic Range Meter 1.1.1
log date: 2015-12-08 01:40:12

––––––––––––––––––––––––––––––––––––––––
Analyzed: The Cure / Boys Don't Cry
––––––––––––––––––––––––––––––––––––––––

DR Peak RMS Duration Track
––––––––––––––––––––––––––––––––––––––––
DR13 -1.12 dB -15.55 dB 2:35 01-Boys Don't Cry
DR14 -0.12 dB -16.24 dB 2:15 02-Plastic Passion
DR14 0.00 dB -18.41 dB 3:40 03-10.15 Saturday Night
DR13 -0.15 dB -16.28 dB 2:18 04-Accuracy
DR12 -1.95 dB -15.96 dB 2:30 05-So What
DR12 -1.22 dB -15.72 dB 2:57 06-Jumping Someone Else's Train
DR9 -1.75 dB -18.48 dB 1:55 07-Subway Song
DR14 -0.84 dB -17.62 dB 2:23 08-Killing an Arab
DR14 -1.07 dB -17.08 dB 3:23 09-Fire in Cairo
DR14 -0.19 dB -19.24 dB 3:43 10-Another Day
DR13 -0.40 dB -15.81 dB 2:50 11-Grinding Halt
DR14 -0.78 dB -17.18 dB 3:12 12-Three Imaginary Boys
––––––––––––––––––––––––––––––––––––––––

Number of tracks: 12
Official DR value: DR13

Samplerate: 44100 Hz
Channels: 2
Bits per sample: 16
Bitrate: 754 kbps
Codec: FLAC
================================================================================




The Cure - Assemblage (1991) 12 CD Box Set [Re-Up]

СD 3: Seventeen Seconds (1980) [Time: 00:35:40]

It's hard to believe that the Cure could release an album even more sparse than Three Imaginary Boys, but here's the proof. The lineup change that saw funkstery bassist Michael Dempsey squeezed out in favor of the more specific playing of (eventually the longest serving member outside Robert Smith) Simon Gallup, and the addition of keyboardist Mathieu Hartley resulted in the band becoming more rigid in sound, and more disciplined in attitude. While it is not the study in loss that Faith would become, or the descent into madness of Pornography, it is a perfect precursor to those collections. In a sense, Seventeen Seconds is the beginning of a trilogy of sorts, the emptiness that leads to the questioning and eventual madness of the subsequent work. Mostly forgotten outside of the unforgettable single "A Forest," Seventeen Seconds is an even, subtle work that grows on the listener over time. Sure, the Cure did better work, but for a new lineup and a newfound sense of independence, Robert Smith already shows that he knows what he's doing. From short instrumental pieces to robotic pop, Seventeen Seconds is where the Cure shed all the outside input and became their own band.

Review by Chris True, Allmusic.com

Tracklist:

01. A Reflection (02:08)
02. Play for Today (03:41)
03. Secrets (03:20)
04. In Your House (04:08)
05. Three (02:36)
06. The Final Sound (00:52)
07. A Forest (05:55)
08. M (03:03)
09. At Night (05:54)
10. Seventeen Seconds (04:01)


Exact Audio Copy V1.0 beta 3 from 29. August 2011

EAC extraction logfile from 5. December 2013, 16:21

The Cure / Seventeen Seconds

Used drive : ASUS DRW-24B1ST i Adapter: 2 ID: 0

Read mode : Secure
Utilize accurate stream : Yes
Defeat audio cache : Yes
Make use of C2 pointers : No

Read offset correction : 6
Overread into Lead-In and Lead-Out : No
Fill up missing offset samples with silence : Yes
Delete leading and trailing silent blocks : No
Null samples used in CRC calculations : Yes
Used interface : Native Win32 interface for Win NT & 2000
Gap handling : Appended to previous track

Used output format : User Defined Encoder
Selected bitrate : 896 kBit/s
Quality : High
Add ID3 tag : No
Command line compressor : C:\Program Files (x86)\Exact Audio Copy\FLAC\FLAC.EXE
Additional command line options : -6 -V -T "ARTIST=%artist%" -T "TITLE=%title%" -T "ALBUM=%albumtitle%" -T "DATE=%year%" -T "TRACKNUMBER=%tracknr%" -T "GENRE=%genre%" -T "COMMENT=%comment%" -T "BAND=%albuminterpret%" -T "ALBUMARTIST=%albuminterpret%" -T "COMPOSER=%composer%" %haslyrics%–tag-from-file=LYRICS="%lyricsfile%"%haslyrics% -T "DISCNUMBER=%cdnumber%" -T "TOTALDISCS=%totalcds%" -T "TOTALTRACKS=%numtracks%" %hascover%–picture="%coverfile%"%hascover% %source% -o %dest%


TOC of the extracted CD

Track | Start | Length | Start sector | End sector
––––––––––––––––––––––––––––-
1 | 0:00.32 | 2:08.53 | 32 | 9684
2 | 2:09.10 | 3:41.05 | 9685 | 26264
3 | 5:50.15 | 3:20.02 | 26265 | 41266
4 | 9:10.17 | 4:08.30 | 41267 | 59896
5 | 13:18.47 | 2:36.43 | 59897 | 71639
6 | 15:55.15 | 0:52.17 | 71640 | 75556
7 | 16:47.32 | 5:55.00 | 75557 | 102181
8 | 22:42.32 | 3:03.53 | 102182 | 115959
9 | 25:46.10 | 5:54.12 | 115960 | 142521
10 | 31:40.22 | 4:01.10 | 142522 | 160606


Track 1

Filename C:\EAC Saves\The Cure - Assemblage - 1991 (12CD FLAC)\03 - Seventeen Seconds (1980)\01 - A Reflection.wav

Pre-gap length 0:00:02.32

Peak level 54.3 %
Extraction speed 4.5 X
Track quality 100.0 %
Test CRC CB33D271
Copy CRC CB33D271
Accurately ripped (confidence 57) [F5DB898B] (AR v2)
Copy OK

Track 2

Filename C:\EAC Saves\The Cure - Assemblage - 1991 (12CD FLAC)\03 - Seventeen Seconds (1980)\02 - Play for Today.wav

Peak level 100.0 %
Extraction speed 4.5 X
Track quality 99.9 %
Test CRC FBA8203E
Copy CRC FBA8203E
Accurately ripped (confidence 58) [7C757AE8] (AR v2)
Copy OK

Track 3

Filename C:\EAC Saves\The Cure - Assemblage - 1991 (12CD FLAC)\03 - Seventeen Seconds (1980)\03 - Secrets.wav

Pre-gap length 0:00:02.08

Peak level 85.0 %
Extraction speed 5.8 X
Track quality 100.0 %
Test CRC FC6A81E3
Copy CRC FC6A81E3
Accurately ripped (confidence 58) [DB746503] (AR v2)
Copy OK

Track 4

Filename C:\EAC Saves\The Cure - Assemblage - 1991 (12CD FLAC)\03 - Seventeen Seconds (1980)\04 - In Your House.wav

Pre-gap length 0:00:01.02

Peak level 98.0 %
Extraction speed 6.5 X
Track quality 100.0 %
Test CRC 340F6A0D
Copy CRC 340F6A0D
Accurately ripped (confidence 59) [56821BC7] (AR v2)
Copy OK

Track 5

Filename C:\EAC Saves\The Cure - Assemblage - 1991 (12CD FLAC)\03 - Seventeen Seconds (1980)\05 - Three.wav

Pre-gap length 0:00:02.02

Peak level 97.8 %
Extraction speed 6.4 X
Track quality 100.0 %
Test CRC B82DF1A2
Copy CRC B82DF1A2
Accurately ripped (confidence 58) [E2CC747B] (AR v2)
Copy OK

Track 6

Filename C:\EAC Saves\The Cure - Assemblage - 1991 (12CD FLAC)\03 - Seventeen Seconds (1980)\06 - The Final Sound.wav

Pre-gap length 0:00:01.00

Peak level 31.1 %
Extraction speed 4.7 X
Track quality 100.0 %
Test CRC 409C8CB0
Copy CRC 409C8CB0
Accurately ripped (confidence 58) [029CAA96] (AR v2)
Copy OK

Track 7

Filename C:\EAC Saves\The Cure - Assemblage - 1991 (12CD FLAC)\03 - Seventeen Seconds (1980)\07 - A Forest.wav

Peak level 100.0 %
Extraction speed 7.8 X
Track quality 100.0 %
Test CRC 64D93165
Copy CRC 64D93165
Accurately ripped (confidence 56) [7E821B47] (AR v2)
Copy OK

Track 8

Filename C:\EAC Saves\The Cure - Assemblage - 1991 (12CD FLAC)\03 - Seventeen Seconds (1980)\08 - M.wav

Pre-gap length 0:00:00.27

Peak level 98.2 %
Extraction speed 7.6 X
Track quality 100.0 %
Test CRC C98D32F9
Copy CRC C98D32F9
Accurately ripped (confidence 58) [874F2005] (AR v2)
Copy OK

Track 9

Filename C:\EAC Saves\The Cure - Assemblage - 1991 (12CD FLAC)\03 - Seventeen Seconds (1980)\09 - At Night.wav

Pre-gap length 0:00:00.45

Peak level 80.1 %
Extraction speed 8.7 X
Track quality 100.0 %
Test CRC D9997EAC
Copy CRC D9997EAC
Accurately ripped (confidence 56) [7014B51F] (AR v2)
Copy OK

Track 10

Filename C:\EAC Saves\The Cure - Assemblage - 1991 (12CD FLAC)\03 - Seventeen Seconds (1980)\10 - Seventeen Seconds.wav

Peak level 96.4 %
Extraction speed 8.7 X
Track quality 100.0 %
Test CRC 3158EFFB
Copy CRC 3158EFFB
Accurately ripped (confidence 57) [02ACA99D] (AR v2)
Copy OK


All tracks accurately ripped

No errors occurred

End of status report

==== Log checksum 9CD82F03A6347C009874BBF3BF18A7F113666ED034F481C762219B048D989B7C ====

foobar2000 1.3.8 / Dynamic Range Meter 1.1.1
log date: 2015-12-08 01:40:37

––––––––––––––––––––––––––––––––––––––––
Analyzed: The Cure / Seventeen Seconds
––––––––––––––––––––––––––––––––––––––––

DR Peak RMS Duration Track
––––––––––––––––––––––––––––––––––––––––
DR16 -5.29 dB -24.63 dB 2:09 01-A Reflection
DR12 0.00 dB -14.14 dB 3:41 02-Play for Today
DR15 -1.41 dB -17.67 dB 3:20 03-Secrets
DR13 -0.17 dB -15.57 dB 4:08 04-In Your House
DR13 -0.19 dB -18.05 dB 2:37 05-Three
DR13 -10.14 dB -28.09 dB 0:52 06-The Final Sound
DR12 0.00 dB -14.75 dB 5:55 07-A Forest
DR14 -0.15 dB -15.77 dB 3:04 08-M
DR15 -1.92 dB -18.56 dB 5:54 09-At Night
DR14 -0.31 dB -17.76 dB 4:01 10-Seventeen Seconds
––––––––––––––––––––––––––––––––––––––––

Number of tracks: 10
Official DR value: DR14

Samplerate: 44100 Hz
Channels: 2
Bits per sample: 16
Bitrate: 714 kbps
Codec: FLAC
================================================================================




The Cure - Assemblage (1991) 12 CD Box Set [Re-Up]

СD 4: Faith (1981) [Time: 00:36:58]

Certainly not the "darkest" the Cure would eventually get, Faith is, as represented by the cover art, one of the most "gray" records out there. Melancholy and despondent (the feel of funerals and old churches just oozes from this record) without the anger that would over take Pornography, Faith comes off as not just a collection of songs, but as a full piece. "The Holy Hour," "All Cats Are Grey," and the spectacular "Faith" are slow atmospheric pieces that take the softer elements from Seventeen Seconds, and – when sidled up next to faster tracks like the single "Primary" and "Doubt" – paint an overall picture of the ups and downs contained within a greater depressive period. But it's not all gloomy keyboards and minimalist percussion, Faith is also a milestone for Robert Smith lyrically, branching out into questions of faith and spirituality he never quite touched on so well ever again. A depressing record, certainly, but also one of the most underrated and beautiful albums the Cure put together. They would not touch on this sort of lush sadness so well again until 1989's Disintegration.

Review by Chris True, Allmusic.com

Tracklist:

01. The Holy Hour (04:26)
02. Primary (03:35)
03. Other Voices (04:28)
04. All Cats Are Grey (05:28)
05. The Funeral Party (04:14)
06. Doubt (03:11)
07. The Drowning Man (04:50)
08. Faith (06:43)


Exact Audio Copy V1.0 beta 3 from 29. August 2011

EAC extraction logfile from 5. December 2013, 17:01

The Cure / Faith

Used drive : ASUS DRW-24B1ST i Adapter: 2 ID: 0

Read mode : Secure
Utilize accurate stream : Yes
Defeat audio cache : Yes
Make use of C2 pointers : No

Read offset correction : 6
Overread into Lead-In and Lead-Out : No
Fill up missing offset samples with silence : Yes
Delete leading and trailing silent blocks : No
Null samples used in CRC calculations : Yes
Used interface : Native Win32 interface for Win NT & 2000
Gap handling : Appended to previous track

Used output format : User Defined Encoder
Selected bitrate : 896 kBit/s
Quality : High
Add ID3 tag : No
Command line compressor : C:\Program Files (x86)\Exact Audio Copy\FLAC\FLAC.EXE
Additional command line options : -6 -V -T "ARTIST=%artist%" -T "TITLE=%title%" -T "ALBUM=%albumtitle%" -T "DATE=%year%" -T "TRACKNUMBER=%tracknr%" -T "GENRE=%genre%" -T "COMMENT=%comment%" -T "BAND=%albuminterpret%" -T "ALBUMARTIST=%albuminterpret%" -T "COMPOSER=%composer%" %haslyrics%–tag-from-file=LYRICS="%lyricsfile%"%haslyrics% -T "DISCNUMBER=%cdnumber%" -T "TOTALDISCS=%totalcds%" -T "TOTALTRACKS=%numtracks%" %hascover%–picture="%coverfile%"%hascover% %source% -o %dest%


TOC of the extracted CD

Track | Start | Length | Start sector | End sector
––––––––––––––––––––––––––––-
1 | 0:00.33 | 4:26.25 | 33 | 20007
2 | 4:26.58 | 3:35.62 | 20008 | 36194
3 | 8:02.45 | 4:28.30 | 36195 | 56324
4 | 12:31.00 | 5:28.18 | 56325 | 80942
5 | 17:59.18 | 4:14.60 | 80943 | 100052
6 | 22:14.03 | 3:11.60 | 100053 | 114437
7 | 25:25.63 | 4:50.07 | 114438 | 136194
8 | 30:15.70 | 6:43.00 | 136195 | 166419


Track 1

Filename C:\EAC Saves\The Cure - Assemblage - 1991 (12CD FLAC)\04 - Faith (1981)\01 - The Holy Hour.wav

Pre-gap length 0:00:02.33

Peak level 70.3 %
Extraction speed 5.3 X
Track quality 100.0 %
Test CRC E376130D
Copy CRC E376130D
Accurately ripped (confidence 39) [14CCAB9F] (AR v2)
Copy OK

Track 2

Filename C:\EAC Saves\The Cure - Assemblage - 1991 (12CD FLAC)\04 - Faith (1981)\02 - Primary.wav

Peak level 78.1 %
Extraction speed 5.7 X
Track quality 100.0 %
Test CRC C707890D
Copy CRC C707890D
Accurately ripped (confidence 39) [E3E2C4BE] (AR v2)
Copy OK

Track 3

Filename C:\EAC Saves\The Cure - Assemblage - 1991 (12CD FLAC)\04 - Faith (1981)\03 - Other Voices.wav

Peak level 75.8 %
Extraction speed 6.4 X
Track quality 100.0 %
Test CRC DD448248
Copy CRC DD448248
Accurately ripped (confidence 39) [544BEA04] (AR v2)
Copy OK

Track 4

Filename C:\EAC Saves\The Cure - Assemblage - 1991 (12CD FLAC)\04 - Faith (1981)\04 - All Cats Are Grey.wav

Peak level 60.8 %
Extraction speed 7.1 X
Track quality 100.0 %
Test CRC FDAFCBEF
Copy CRC FDAFCBEF
Accurately ripped (confidence 38) [4AE5CC6F] (AR v2)
Copy OK

Track 5

Filename C:\EAC Saves\The Cure - Assemblage - 1991 (12CD FLAC)\04 - Faith (1981)\05 - The Funeral Party.wav

Peak level 73.4 %
Extraction speed 7.5 X
Track quality 100.0 %
Test CRC 1AEB00EF
Copy CRC 1AEB00EF
Accurately ripped (confidence 39) [D60B55FA] (AR v2)
Copy OK

Track 6

Filename C:\EAC Saves\The Cure - Assemblage - 1991 (12CD FLAC)\04 - Faith (1981)\06 - Doubt.wav

Peak level 82.9 %
Extraction speed 7.6 X
Track quality 100.0 %
Test CRC 6352CA23
Copy CRC 6352CA23
Accurately ripped (confidence 39) [BAE91CA3] (AR v2)
Copy OK

Track 7

Filename C:\EAC Saves\The Cure - Assemblage - 1991 (12CD FLAC)\04 - Faith (1981)\07 - The Drowning Man.wav

Peak level 68.4 %
Extraction speed 8.4 X
Track quality 100.0 %
Test CRC 60CAFA0A
Copy CRC 60CAFA0A
Accurately ripped (confidence 39) [55765DF5] (AR v2)
Copy OK

Track 8

Filename C:\EAC Saves\The Cure - Assemblage - 1991 (12CD FLAC)\04 - Faith (1981)\08 - Faith.wav

Peak level 66.1 %
Extraction speed 9.2 X
Track quality 100.0 %
Test CRC 05EA3839
Copy CRC 05EA3839
Accurately ripped (confidence 39) [758254A6] (AR v2)
Copy OK


All tracks accurately ripped

No errors occurred

End of status report

==== Log checksum 38A63D3AC695311DD0580B5042C90E47351315598186BA4538C7F00A5C5CDB7D ====

foobar2000 1.3.8 / Dynamic Range Meter 1.1.1
log date: 2015-12-08 01:41:10

––––––––––––––––––––––––––––––––––––––––
Analyzed: The Cure / Faith
––––––––––––––––––––––––––––––––––––––––

DR Peak RMS Duration Track
––––––––––––––––––––––––––––––––––––––––
DR12 -3.05 dB -17.78 dB 4:26 01-The Holy Hour
DR12 -2.15 dB -14.94 dB 3:36 02-Primary
DR12 -2.40 dB -16.35 dB 4:28 03-Other Voices
DR12 -4.32 dB -17.94 dB 5:28 04-All Cats Are Grey
DR11 -2.68 dB -17.04 dB 4:15 05-The Funeral Party
DR11 -1.62 dB -14.56 dB 3:12 06-Doubt
DR12 -3.29 dB -17.58 dB 4:50 07-The Drowning Man
DR13 -3.58 dB -19.16 dB 6:43 08-Faith
––––––––––––––––––––––––––––––––––––––––

Number of tracks: 8
Official DR value: DR12

Samplerate: 44100 Hz
Channels: 2
Bits per sample: 16
Bitrate: 782 kbps
Codec: FLAC
================================================================================




The Cure - Assemblage (1991) 12 CD Box Set [Re-Up]

СD 5: Pornography (1982) [Time: 00:43:19]

Later hailed as one of the key goth rock albums of the '80s and considered by many hardcore Cure fans to be the band's best album, Pornography was largely dismissed upon its 1982 release, witheringly reviewed as a leaden slab of whining and moping. The truth, as usual, is somewhere in between: Pornography is much better than most mainstream critics of the time thought, but in retrospect, it's not the masterpiece some fans have claimed it to be. The overall sound is thick and murky, but too muddy to be effectively atmospheric in the way that the more dynamic Disintegration managed a few years later. For every powerful track like the doomy opener "One Hundred Years" and the clattering, desolate single "The Hanging Garden," there's a sound-over-substance piece of filler like "The Figurehead," which sounds suitably bleak but doesn't have the musical or emotional heft this sort of music requires. Pornography is an often intriguing listen, but it's just a bit too uneven to be considered a classic.

Review by Stewart Mason, Allmusic.com

Tracklist:

01. One Hundred Years (06:40)
02. A Short Term Effect (04:22)
03. The Hanging Garden (04:33)
04. Siamese Twins (05:29)
05. The Figurehead (06:14)
06. A Strange Day (05:04)
07. Cold (04:27)
08. Pornography (06:27)


Exact Audio Copy V1.0 beta 3 from 29. August 2011

EAC extraction logfile from 5. December 2013, 17:20

The Cure / Pornography

Used drive : ASUS DRW-24B1ST i Adapter: 2 ID: 0

Read mode : Secure
Utilize accurate stream : Yes
Defeat audio cache : Yes
Make use of C2 pointers : No

Read offset correction : 6
Overread into Lead-In and Lead-Out : No
Fill up missing offset samples with silence : Yes
Delete leading and trailing silent blocks : No
Null samples used in CRC calculations : Yes
Used interface : Native Win32 interface for Win NT & 2000
Gap handling : Appended to previous track

Used output format : User Defined Encoder
Selected bitrate : 896 kBit/s
Quality : High
Add ID3 tag : No
Command line compressor : C:\Program Files (x86)\Exact Audio Copy\FLAC\FLAC.EXE
Additional command line options : -6 -V -T "ARTIST=%artist%" -T "TITLE=%title%" -T "ALBUM=%albumtitle%" -T "DATE=%year%" -T "TRACKNUMBER=%tracknr%" -T "GENRE=%genre%" -T "COMMENT=%comment%" -T "BAND=%albuminterpret%" -T "ALBUMARTIST=%albuminterpret%" -T "COMPOSER=%composer%" %haslyrics%–tag-from-file=LYRICS="%lyricsfile%"%haslyrics% -T "DISCNUMBER=%cdnumber%" -T "TOTALDISCS=%totalcds%" -T "TOTALTRACKS=%numtracks%" %hascover%–picture="%coverfile%"%hascover% %source% -o %dest%


TOC of the extracted CD

Track | Start | Length | Start sector | End sector
––––––––––––––––––––––––––––-
1 | 0:00.33 | 6:40.20 | 33 | 30052
2 | 6:40.53 | 4:22.47 | 30053 | 49749
3 | 11:03.25 | 4:33.30 | 49750 | 70254
4 | 15:36.55 | 5:29.43 | 70255 | 94972
5 | 21:06.23 | 6:14.72 | 94973 | 123094
6 | 27:21.20 | 5:04.48 | 123095 | 145942
7 | 32:25.68 | 4:27.05 | 145943 | 165972
8 | 36:52.73 | 6:27.35 | 165973 | 195032


Track 1

Filename C:\EAC Saves\The Cure - Assemblage - 1991 (12CD FLAC)\05 - Pornography (1982)\01 - One Hundred Years.wav

Pre-gap length 0:00:02.33

Peak level 91.6 %
Extraction speed 5.7 X
Track quality 100.0 %
Test CRC 15294374
Copy CRC 15294374
Accurately ripped (confidence 50) [FF752BF4] (AR v2)
Copy OK

Track 2

Filename C:\EAC Saves\The Cure - Assemblage - 1991 (12CD FLAC)\05 - Pornography (1982)\02 - A Short Term Effect.wav

Pre-gap length 0:00:00.30

Peak level 93.2 %
Extraction speed 5.3 X
Track quality 99.9 %
Test CRC 8565E40B
Copy CRC 8565E40B
Accurately ripped (confidence 51) [4F0BAC4E] (AR v2)
Copy OK

Track 3

Filename C:\EAC Saves\The Cure - Assemblage - 1991 (12CD FLAC)\05 - Pornography (1982)\03 - The Hanging Garden.wav

Peak level 97.6 %
Extraction speed 6.8 X
Track quality 100.0 %
Test CRC 80829B97
Copy CRC 80829B97
Accurately ripped (confidence 51) [EFCD7B73] (AR v2)
Copy OK

Track 4

Filename C:\EAC Saves\The Cure - Assemblage - 1991 (12CD FLAC)\05 - Pornography (1982)\04 - Siamese Twins.wav

Pre-gap length 0:00:01.10

Peak level 89.8 %
Extraction speed 7.6 X
Track quality 100.0 %
Test CRC 66BE3735
Copy CRC 66BE3735
Accurately ripped (confidence 52) [40F107D0] (AR v2)
Copy OK

Track 5

Filename C:\EAC Saves\The Cure - Assemblage - 1991 (12CD FLAC)\05 - Pornography (1982)\05 - The Figurehead.wav

Pre-gap length 0:00:01.38

Peak level 98.8 %
Extraction speed 8.3 X
Track quality 100.0 %
Test CRC 19E54B0A
Copy CRC 19E54B0A
Accurately ripped (confidence 50) [68EA4DA6] (AR v2)
Copy OK

Track 6

Filename C:\EAC Saves\The Cure - Assemblage - 1991 (12CD FLAC)\05 - Pornography (1982)\06 - A Strange Day.wav

Peak level 87.6 %
Extraction speed 8.7 X
Track quality 100.0 %
Test CRC E1B7AE1D
Copy CRC E1B7AE1D
Accurately ripped (confidence 51) [11206C48] (AR v2)
Copy OK

Track 7

Filename C:\EAC Saves\The Cure - Assemblage - 1991 (12CD FLAC)\05 - Pornography (1982)\07 - Cold.wav

Peak level 91.0 %
Extraction speed 9.0 X
Track quality 100.0 %
Test CRC AA539839
Copy CRC AA539839
Accurately ripped (confidence 51) [CACDCFDB] (AR v2)
Copy OK

Track 8

Filename C:\EAC Saves\The Cure - Assemblage - 1991 (12CD FLAC)\05 - Pornography (1982)\08 - Pornography.wav

Pre-gap length 0:00:00.50

Peak level 88.3 %
Extraction speed 8.6 X
Track quality 99.9 %
Test CRC 6AF9BA2D
Copy CRC 6AF9BA2D
Accurately ripped (confidence 52) [95E52636] (AR v2)
Copy OK


All tracks accurately ripped

No errors occurred

End of status report

==== Log checksum 3DDA6EC1F3C31A7DEE426F1D16F372A72CF69159404791D0D5814CBC412387F7 ====

foobar2000 1.3.8 / Dynamic Range Meter 1.1.1
log date: 2015-12-08 01:41:43

––––––––––––––––––––––––––––––––––––––––
Analyzed: The Cure / Pornography
––––––––––––––––––––––––––––––––––––––––

DR Peak RMS Duration Track
––––––––––––––––––––––––––––––––––––––––
DR12 -0.76 dB -14.54 dB 6:40 01-One Hundred Years
DR12 -0.61 dB -14.47 dB 4:23 02-A Short Term Effect
DR12 -0.21 dB -14.80 dB 4:33 03-The Hanging Garden
DR13 -0.93 dB -15.71 dB 5:30 04-Siamese Twins
DR13 -0.10 dB -14.42 dB 6:15 05-The Figurehead
DR12 -1.14 dB -15.58 dB 5:05 06-A Strange Day
DR11 -0.82 dB -14.29 dB 4:27 07-Cold
DR12 -1.08 dB -15.64 dB 6:27 08-Pornography
––––––––––––––––––––––––––––––––––––––––

Number of tracks: 8
Official DR value: DR12

Samplerate: 44100 Hz
Channels: 2
Bits per sample: 16
Bitrate: 730 kbps
Codec: FLAC
================================================================================




The Cure - Assemblage (1991) 12 CD Box Set [Re-Up]

СD 6: Concert (1984) [Time: 00:42:27]

Though it is best experienced across the later video/DVD release, the Cure's first ever live album, from U.K. concerts during the 1984 The Top tour, catches the band in exhilaratingly uncompromising mood. The band's first full album since their post-Pornography breakup, The Top found Robert Smith still striving to shake off the mantel that had once cloaked the Cure in such blackness – "Shake Dog Shake" and "Give Me It," both from the new album, emerge as highlights here, no matter how desperately you want to hear the older songs that complete the collection. Compared to all that the Cure would become, Concert is often regarded as a dour album. Audiences, too, needed to be reconditioned, and the playful symphonics that would shortly become the band's stock-in-trade simply wouldn't have worked at this point. What you get instead, then, is a rough, punk-edged sound, one that reaches absurd proportions on the closing "Killing an Arab," but which jars "Primary," "The Walk," and "A Forest" as well. It's not a wholly disruptive sensation once you become accustomed to it, but anyone whose vision of the Cure was forged from their studio output or, indeed, the various subsequent live albums should approach Concert with care. The initial U.K. cassette run, incidentally, added a full album's worth of bonus tracks in the form of the archive-scraping Curiosity. Of invaluable aid and interest to collectors, it is an even rougher portrait of the group than the main attraction, but includes definitive airings of "At Night" and "Funeral Party," plus the otherwise unavailable "Forever."

Review by Dave Thompson, Allmusic.com

Tracklist:

01. Shake Dog Shake (04:14)
02. Primary (03:29)
03. Charlotte Sometimes (04:06)
04. The Hanging Garden (04:05)
05. Give Me It (02:49)
06. The Walk (03:31)
07. One Hundred Years (06:48)
08. A Forest (06:46)
09. 10:15 Saturday Night (03:44)
10. Killing an Arab (02:51)


Exact Audio Copy V1.0 beta 3 from 29. August 2011

EAC extraction logfile from 5. December 2013, 19:52

The Cure / Concert - The Cure Live

Used drive : ASUS DRW-24B1ST i Adapter: 2 ID: 0

Read mode : Secure
Utilize accurate stream : Yes
Defeat audio cache : Yes
Make use of C2 pointers : No

Read offset correction : 6
Overread into Lead-In and Lead-Out : No
Fill up missing offset samples with silence : Yes
Delete leading and trailing silent blocks : No
Null samples used in CRC calculations : Yes
Used interface : Native Win32 interface for Win NT & 2000
Gap handling : Appended to previous track

Used output format : User Defined Encoder
Selected bitrate : 896 kBit/s
Quality : High
Add ID3 tag : No
Command line compressor : C:\Program Files (x86)\Exact Audio Copy\FLAC\FLAC.EXE
Additional command line options : -6 -V -T "ARTIST=%artist%" -T "TITLE=%title%" -T "ALBUM=%albumtitle%" -T "DATE=%year%" -T "TRACKNUMBER=%tracknr%" -T "GENRE=%genre%" -T "COMMENT=%comment%" -T "BAND=%albuminterpret%" -T "ALBUMARTIST=%albuminterpret%" -T "COMPOSER=%composer%" %haslyrics%–tag-from-file=LYRICS="%lyricsfile%"%haslyrics% -T "DISCNUMBER=%cdnumber%" -T "TOTALDISCS=%totalcds%" -T "TOTALTRACKS=%numtracks%" %hascover%–picture="%coverfile%"%hascover% %source% -o %dest%


TOC of the extracted CD

Track | Start | Length | Start sector | End sector
––––––––––––––––––––––––––––-
1 | 0:00.32 | 4:14.63 | 32 | 19144
2 | 4:15.20 | 3:29.50 | 19145 | 34869
3 | 7:44.70 | 4:06.50 | 34870 | 53369
4 | 11:51.45 | 4:05.12 | 53370 | 71756
5 | 15:56.57 | 2:49.25 | 71757 | 84456
6 | 18:46.07 | 3:31.38 | 84457 | 100319
7 | 22:17.45 | 6:48.62 | 100320 | 130981
8 | 29:06.32 | 6:46.13 | 130982 | 161444
9 | 35:52.45 | 3:44.50 | 161445 | 178294
10 | 39:37.20 | 2:51.12 | 178295 | 191131


Track 1

Filename C:\EAC Saves\The Cure - Assemblage - 1991 (12CD FLAC)\06 - Concert (1984)\01 - Shake Dog Shake.wav

Pre-gap length 0:00:02.32

Peak level 79.1 %
Extraction speed 5.3 X
Track quality 100.0 %
Test CRC B03EF849
Copy CRC B03EF849
Accurately ripped (confidence 34) [01CCE931] (AR v2)
Copy OK

Track 2

Filename C:\EAC Saves\The Cure - Assemblage - 1991 (12CD FLAC)\06 - Concert (1984)\02 - Primary.wav

Pre-gap length 0:00:00.25

Peak level 100.0 %
Extraction speed 5.7 X
Track quality 100.0 %
Test CRC 8FA82EC1
Copy CRC 8FA82EC1
Accurately ripped (confidence 36) [F721CE6C] (AR v2)
Copy OK

Track 3

Filename C:\EAC Saves\The Cure - Assemblage - 1991 (12CD FLAC)\06 - Concert (1984)\03 - Charlotte Sometimes.wav

Pre-gap length 0:00:00.25

Peak level 89.3 %
Extraction speed 5.3 X
Track quality 99.9 %
Test CRC A809DDEC
Copy CRC A809DDEC
Accurately ripped (confidence 36) [B6C209C2] (AR v2)
Copy OK

Track 4

Filename C:\EAC Saves\The Cure - Assemblage - 1991 (12CD FLAC)\06 - Concert (1984)\04 - The Hanging Garden.wav

Pre-gap length 0:00:00.25

Peak level 98.3 %
Extraction speed 6.8 X
Track quality 100.0 %
Test CRC CFD962FA
Copy CRC CFD962FA
Accurately ripped (confidence 36) [46EA2788] (AR v2)
Copy OK

Track 5

Filename C:\EAC Saves\The Cure - Assemblage - 1991 (12CD FLAC)\06 - Concert (1984)\05 - Give Me It.wav

Pre-gap length 0:00:00.25

Peak level 100.0 %
Extraction speed 5.3 X
Track quality 99.9 %
Test CRC 20726B40
Copy CRC 20726B40
Accurately ripped (confidence 36) [2682642A] (AR v2)
Copy OK

Track 6

Filename C:\EAC Saves\The Cure - Assemblage - 1991 (12CD FLAC)\06 - Concert (1984)\06 - The Walk.wav

Pre-gap length 0:00:03.12

Peak level 83.0 %
Extraction speed 6.0 X
Track quality 99.9 %
Test CRC 7347C30F
Copy CRC 7347C30F
Accurately ripped (confidence 34) [BC87BB91] (AR v2)
Copy OK

Track 7

Filename C:\EAC Saves\The Cure - Assemblage - 1991 (12CD FLAC)\06 - Concert (1984)\07 - One Hundred Years.wav

Pre-gap length 0:00:00.25

Peak level 86.7 %
Extraction speed 8.5 X
Track quality 100.0 %
Test CRC 040CCA06
Copy CRC 040CCA06
Accurately ripped (confidence 35) [52A2CC60] (AR v2)
Copy OK

Track 8

Filename C:\EAC Saves\The Cure - Assemblage - 1991 (12CD FLAC)\06 - Concert (1984)\08 - A Forest.wav

Pre-gap length 0:00:00.25

Peak level 83.6 %
Extraction speed 9.1 X
Track quality 100.0 %
Test CRC 4B68ADB3
Copy CRC 4B68ADB3
Accurately ripped (confidence 32) [0DEA9DC0] (AR v2)
Copy OK

Track 9

Filename C:\EAC Saves\The Cure - Assemblage - 1991 (12CD FLAC)\06 - Concert (1984)\09 - 10-15 Saturday Night.wav

Pre-gap length 0:00:00.25

Peak level 100.0 %
Extraction speed 9.0 X
Track quality 100.0 %
Test CRC 943111EA
Copy CRC 943111EA
Accurately ripped (confidence 33) [A7890616] (AR v2)
Copy OK

Track 10

Filename C:\EAC Saves\The Cure - Assemblage - 1991 (12CD FLAC)\06 - Concert (1984)\10 - Killing an Arab.wav

Pre-gap length 0:00:00.25

Peak level 94.0 %
Extraction speed 8.8 X
Track quality 100.0 %
Test CRC 45C7DFD4
Copy CRC 45C7DFD4
Accurately ripped (confidence 35) [80921C5B] (AR v2)
Copy OK


All tracks accurately ripped

No errors occurred

End of status report

==== Log checksum DFCD568A6E054708DD2B68A354578BA45854BA010C651F2C4830AF8057B157DC ====

foobar2000 1.3.8 / Dynamic Range Meter 1.1.1
log date: 2015-12-08 01:42:14

––––––––––––––––––––––––––––––––––––––––
Analyzed: The Cure / Concert - The Cure Live
––––––––––––––––––––––––––––––––––––––––

DR Peak RMS Duration Track
––––––––––––––––––––––––––––––––––––––––
DR11 -2.03 dB -15.45 dB 4:15 01-Shake Dog Shake
DR17 0.00 dB -18.03 dB 3:30 02-Primary
DR15 -0.98 dB -17.45 dB 4:07 03-Charlotte Sometimes
DR15 -0.14 dB -17.32 dB 4:05 04-The Hanging Garden
DR13 0.00 dB -15.90 dB 2:49 05-Give Me It
DR15 -1.62 dB -17.76 dB 3:32 06-The Walk
DR12 -1.24 dB -15.56 dB 6:49 07-One Hundred Years
DR13 -1.55 dB -16.98 dB 6:46 08-A Forest
DR15 0.00 dB -17.55 dB 3:45 09-10:15 Saturday Night
DR14 -0.53 dB -16.36 dB 2:51 10-Killing an Arab
––––––––––––––––––––––––––––––––––––––––

Number of tracks: 10
Official DR value: DR14

Samplerate: 44100 Hz
Channels: 2
Bits per sample: 16
Bitrate: 852 kbps
Codec: FLAC
================================================================================




The Cure - Assemblage (1991) 12 CD Box Set [Re-Up]

СD 7: The Top (1984) [Time: 00:40:54]

Recorded in the midst of Robert Smith's tenuous tenure with Siouxsie and the Banshees, The Top is arguably the most hedonistic record the Cure ever produced. Essentially Smith and Lol Tolhurst working with studio musicians (this being the period when the Cure's lineup was never assured), it's an album obviously recorded under stress, drink, and drugs. More wildly experimental musically than anything before it, it laid the foundations for the Cure's pattern of unpigeonholable albums that were to erase their reputation built by Pornography and eventually culminating in Kiss Me, Kiss Me, Kiss Me. That said, it's still very much a Cure record. Heavy on the percussion and quaint keyboard effects that were so big in the '80s, the melodies ("The Caterpillar," "Shake Dog Shake") are unmistakably Robert Smith. The big change this time around is his ability to fuse the paranoia and neuroses of former work (Pornography) with his newfound use of pop melody and outside influences (i.e., world travels, sounds, instruments) to moderate success ("Wailing Wall," "Piggy in the Mirror"). A more psychedelic descent than Pornography, The Top is a transition, never really feeling like a full-length release, but it does meld all former phases of Rob and company, which would fully gel on The Head on the Door. At best an imperfect record, The Top is a necessary step in the evolution of the band.

Review by Chris True, Allmusic.com

Tracklist:

01. Shake Dog Shake (04:55)
02. Bird Mad Girl (04:05)
03. Wailing Wall (05:17)
04. Give Me It (03:42)
05. Dressing Up (02:51)
06. The Caterpillar (03:40)
07. Piggy in the Mirror (03:40)
08. The Empty World (02:36)
09. Bananafishbones (03:12)
10. The Top (06:52)


Exact Audio Copy V1.0 beta 3 from 29. August 2011

EAC extraction logfile from 5. December 2013, 17:56

The Cure / The Top

Used drive : ASUS DRW-24B1ST i Adapter: 2 ID: 0

Read mode : Secure
Utilize accurate stream : Yes
Defeat audio cache : Yes
Make use of C2 pointers : No

Read offset correction : 6
Overread into Lead-In and Lead-Out : No
Fill up missing offset samples with silence : Yes
Delete leading and trailing silent blocks : No
Null samples used in CRC calculations : Yes
Used interface : Native Win32 interface for Win NT & 2000
Gap handling : Appended to previous track

Used output format : User Defined Encoder
Selected bitrate : 896 kBit/s
Quality : High
Add ID3 tag : No
Command line compressor : C:\Program Files (x86)\Exact Audio Copy\FLAC\FLAC.EXE
Additional command line options : -6 -V -T "ARTIST=%artist%" -T "TITLE=%title%" -T "ALBUM=%albumtitle%" -T "DATE=%year%" -T "TRACKNUMBER=%tracknr%" -T "GENRE=%genre%" -T "COMMENT=%comment%" -T "BAND=%albuminterpret%" -T "ALBUMARTIST=%albuminterpret%" -T "COMPOSER=%composer%" %haslyrics%–tag-from-file=LYRICS="%lyricsfile%"%haslyrics% -T "DISCNUMBER=%cdnumber%" -T "TOTALDISCS=%totalcds%" -T "TOTALTRACKS=%numtracks%" %hascover%–picture="%coverfile%"%hascover% %source% -o %dest%


TOC of the extracted CD

Track | Start | Length | Start sector | End sector
––––––––––––––––––––––––––––-
1 | 0:00.33 | 4:55.07 | 33 | 22164
2 | 4:55.40 | 4:05.20 | 22165 | 40559
3 | 9:00.60 | 5:17.48 | 40560 | 64382
4 | 14:18.33 | 3:42.62 | 64383 | 81094
5 | 18:01.20 | 2:51.58 | 81095 | 93977
6 | 20:53.03 | 3:40.55 | 93978 | 110532
7 | 24:33.58 | 3:40.70 | 110533 | 127102
8 | 28:14.53 | 2:36.05 | 127103 | 138807
9 | 30:50.58 | 3:12.20 | 138808 | 153227
10 | 34:03.03 | 6:52.05 | 153228 | 184132


Track 1

Filename C:\EAC Saves\The Cure - Assemblage - 1991 (12CD FLAC)\07 - The Top (1984)\01 - Shake Dog Shake.wav

Pre-gap length 0:00:02.33

Peak level 88.8 %
Extraction speed 5.4 X
Track quality 100.0 %
Test CRC 01E3DF22
Copy CRC 01E3DF22
Accurately ripped (confidence 4) [BFD6903F] (AR v2)
Copy OK

Track 2

Filename C:\EAC Saves\The Cure - Assemblage - 1991 (12CD FLAC)\07 - The Top (1984)\02 - Bird Mad Girl.wav

Peak level 86.7 %
Extraction speed 6.0 X
Track quality 100.0 %
Test CRC 73FC3D93
Copy CRC 73FC3D93
Accurately ripped (confidence 4) [9BDF091C] (AR v2)
Copy OK

Track 3

Filename C:\EAC Saves\The Cure - Assemblage - 1991 (12CD FLAC)\07 - The Top (1984)\03 - Wailing Wall.wav

Peak level 86.7 %
Extraction speed 6.8 X
Track quality 100.0 %
Test CRC 14959FCE
Copy CRC 14959FCE
Accurately ripped (confidence 4) [9BEE845C] (AR v2)
Copy OK

Track 4

Filename C:\EAC Saves\The Cure - Assemblage - 1991 (12CD FLAC)\07 - The Top (1984)\04 - Give Me It.wav

Peak level 82.3 %
Extraction speed 7.0 X
Track quality 100.0 %
Test CRC BBDD1BF3
Copy CRC BBDD1BF3
Accurately ripped (confidence 4) [65203817] (AR v2)
Copy OK

Track 5

Filename C:\EAC Saves\The Cure - Assemblage - 1991 (12CD FLAC)\07 - The Top (1984)\05 - Dressing Up.wav

Peak level 62.7 %
Extraction speed 7.1 X
Track quality 100.0 %
Test CRC 3A4BAFE7
Copy CRC 3A4BAFE7
Accurately ripped (confidence 4) [9A850607] (AR v2)
Copy OK

Track 6

Filename C:\EAC Saves\The Cure - Assemblage - 1991 (12CD FLAC)\07 - The Top (1984)\06 - The Caterpillar.wav

Pre-gap length 0:00:03.10

Peak level 68.1 %
Extraction speed 6.3 X
Track quality 99.9 %
Test CRC E01571D4
Copy CRC E01571D4
Accurately ripped (confidence 4) [A01154ED] (AR v2)
Copy OK

Track 7

Filename C:\EAC Saves\The Cure - Assemblage - 1991 (12CD FLAC)\07 - The Top (1984)\07 - Piggy in the Mirror.wav

Pre-gap length 0:00:00.35

Peak level 70.8 %
Extraction speed 7.9 X
Track quality 100.0 %
Test CRC BC4A87A8
Copy CRC BC4A87A8
Accurately ripped (confidence 4) [EBE26571] (AR v2)
Copy OK

Track 8

Filename C:\EAC Saves\The Cure - Assemblage - 1991 (12CD FLAC)\07 - The Top (1984)\08 - The Empty World.wav

Pre-gap length 0:00:02.30

Peak level 65.4 %
Extraction speed 7.7 X
Track quality 100.0 %
Test CRC 0469676B
Copy CRC 0469676B
Accurately ripped (confidence 4) [719831BE] (AR v2)
Copy OK

Track 9

Filename C:\EAC Saves\The Cure - Assemblage - 1991 (12CD FLAC)\07 - The Top (1984)\09 - Bananafishbones.wav

Pre-gap length 0:00:00.40

Peak level 79.5 %
Extraction speed 8.3 X
Track quality 100.0 %
Test CRC DD0FBBAF
Copy CRC DD0FBBAF
Accurately ripped (confidence 4) [A2725E6A] (AR v2)
Copy OK

Track 10

Filename C:\EAC Saves\The Cure - Assemblage - 1991 (12CD FLAC)\07 - The Top (1984)\10 - The Top.wav

Pre-gap length 0:00:01.20

Peak level 88.0 %
Extraction speed 9.6 X
Track quality 100.0 %
Test CRC 4AB084FE
Copy CRC 4AB084FE
Accurately ripped (confidence 4) [7861C42B] (AR v2)
Copy OK


All tracks accurately ripped

No errors occurred

End of status report

==== Log checksum 3BBEF18BFDF533A2400BA62DE7508B48BF002C9E6040A51D606C0332F0A80D98 ====

foobar2000 1.3.8 / Dynamic Range Meter 1.1.1
log date: 2015-12-08 01:42:49

––––––––––––––––––––––––––––––––––––––––
Analyzed: The Cure / The Top
––––––––––––––––––––––––––––––––––––––––

DR Peak RMS Duration Track
––––––––––––––––––––––––––––––––––––––––
DR13 -1.02 dB -16.34 dB 4:55 01-Shake Dog Shake
DR14 -1.24 dB -17.77 dB 4:05 02-Bird Mad Girl
DR14 -1.23 dB -17.98 dB 5:18 03-Wailing Wall
DR12 -1.69 dB -15.24 dB 3:43 04-Give Me It
DR12 -4.05 dB -19.25 dB 2:52 05-Dressing Up
DR14 -3.34 dB -18.82 dB 3:41 06-The Caterpillar
DR13 -2.99 dB -18.71 dB 3:41 07-Piggy in the Mirror
DR12 -3.68 dB -18.29 dB 2:36 08-The Empty World
DR12 -1.98 dB -16.19 dB 3:12 09-Bananafishbones
DR15 -1.10 dB -17.86 dB 6:52 10-The Top
––––––––––––––––––––––––––––––––––––––––

Number of tracks: 10
Official DR value: DR13

Samplerate: 44100 Hz
Channels: 2
Bits per sample: 16
Bitrate: 814 kbps
Codec: FLAC
================================================================================




The Cure - Assemblage (1991) 12 CD Box Set [Re-Up]

СD 8: Japanese Whispers (1983) [Time: 00:28:38]

After the fallout both psychologically and physically of Pornography, it looked unlikely that anyone would hear from the Cure ever again. Surprisingly, from 1982-1983 Robert Smith and (now keyboardist) Lol Tolhurst put out some of the catchiest singles of their career. "Let's Go to Bed," "The Walk," and "The Lovecats" were not only singles that got the Cure radio play and made them a household name, but more importantly marked the next phase in the music of the Cure, which would reach its peak with albums like Head on the Door and Kiss Me, Kiss Me, Kiss Me. Dropping the stripped-down darkness of Faith and Pornography, the songs on Japanese Whispers (the aforementioned singles from that era, including all the B-sides) are light, dancy, and at times jazzy. Adding new keyboard sounds, old-timey percussion, standup bass, and some damn silly lyrics rejuvenated Robert Smith and sent him on a course that would cement his role as one of the most interesting musicians to emerge from the '80s underground. Japanese Whispers is one of those rare releases when a singles collection works just as well as a standard-issue album.

Review by Chris True, Allmusic.com

Tracklist:

01. Lets Go to Bed (03:34)
02. The Dream (03:12)
03. Just One Kiss (04:09)
04. The Upstairs Room (03:30)
05. The Walk (03:30)
06. Speak My Language (02:40)
07. Lament (04:20)
08. The Love Cats (03:40)


Exact Audio Copy V1.0 beta 3 from 29. August 2011

EAC extraction logfile from 5. December 2013, 18:48

The Cure / Japanese Whispers

Used drive : ASUS DRW-24B1ST i Adapter: 2 ID: 0

Read mode : Secure
Utilize accurate stream : Yes
Defeat audio cache : Yes
Make use of C2 pointers : No

Read offset correction : 6
Overread into Lead-In and Lead-Out : No
Fill up missing offset samples with silence : Yes
Delete leading and trailing silent blocks : No
Null samples used in CRC calculations : Yes
Used interface : Native Win32 interface for Win NT & 2000
Gap handling : Appended to previous track

Used output format : User Defined Encoder
Selected bitrate : 896 kBit/s
Quality : High
Add ID3 tag : No
Command line compressor : C:\Program Files (x86)\Exact Audio Copy\FLAC\FLAC.EXE
Additional command line options : -6 -V -T "ARTIST=%artist%" -T "TITLE=%title%" -T "ALBUM=%albumtitle%" -T "DATE=%year%" -T "TRACKNUMBER=%tracknr%" -T "GENRE=%genre%" -T "COMMENT=%comment%" -T "BAND=%albuminterpret%" -T "ALBUMARTIST=%albuminterpret%" -T "COMPOSER=%composer%" %haslyrics%–tag-from-file=LYRICS="%lyricsfile%"%haslyrics% -T "DISCNUMBER=%cdnumber%" -T "TOTALDISCS=%totalcds%" -T "TOTALTRACKS=%numtracks%" %hascover%–picture="%coverfile%"%hascover% %source% -o %dest%


TOC of the extracted CD

Track | Start | Length | Start sector | End sector
––––––––––––––––––––––––––––-
1 | 0:00.33 | 3:34.12 | 33 | 16094
2 | 3:34.45 | 3:12.63 | 16095 | 30557
3 | 6:47.33 | 4:09.37 | 30558 | 49269
4 | 10:56.70 | 3:30.13 | 49270 | 65032
5 | 14:27.08 | 3:30.37 | 65033 | 80819
6 | 17:57.45 | 2:40.38 | 80820 | 92857
7 | 20:38.08 | 4:20.55 | 92858 | 112412
8 | 24:58.63 | 3:40.07 | 112413 | 128919


Track 1

Filename C:\EAC Saves\The Cure - Assemblage - 1991 (12CD FLAC)\08 - Japanese Whispers (1983)\01 - Lets Go to Bed.wav

Pre-gap length 0:00:02.33

Peak level 84.2 %
Extraction speed 1.8 X
Track quality 100.0 %
Test CRC B17412EA
Copy CRC B17412EA
Accurately ripped (confidence 53) [842C1C99] (AR v2)
Copy OK

Track 2

Filename C:\EAC Saves\The Cure - Assemblage - 1991 (12CD FLAC)\08 - Japanese Whispers (1983)\02 - The Dream.wav

Peak level 74.9 %
Extraction speed 2.0 X
Track quality 100.0 %
Test CRC CE03F24C
Copy CRC CE03F24C
Accurately ripped (confidence 53) [DB0877CE] (AR v2)
Copy OK

Track 3

Filename C:\EAC Saves\The Cure - Assemblage - 1991 (12CD FLAC)\08 - Japanese Whispers (1983)\03 - Just One Kiss.wav

Pre-gap length 0:00:00.50

Peak level 82.3 %
Extraction speed 2.2 X
Track quality 100.0 %
Test CRC 123DA437
Copy CRC 123DA437
Accurately ripped (confidence 53) [C5C83E5B] (AR v2)
Copy OK

Track 4

Filename C:\EAC Saves\The Cure - Assemblage - 1991 (12CD FLAC)\08 - Japanese Whispers (1983)\04 - The Upstairs Room.wav

Peak level 76.0 %
Extraction speed 1.7 X
Track quality 99.9 %
Test CRC 01F761B1
Copy CRC 01F761B1
Accurately ripped (confidence 51) [A554278E] (AR v2)
Copy OK

Track 5

Filename C:\EAC Saves\The Cure - Assemblage - 1991 (12CD FLAC)\08 - Japanese Whispers (1983)\05 - The Walk.wav

Peak level 78.2 %
Extraction speed 1.8 X
Track quality 99.9 %
Test CRC A28A5C51
Copy CRC A28A5C51
Accurately ripped (confidence 53) [C60FAA69] (AR v2)
Copy OK

Track 6

Filename C:\EAC Saves\The Cure - Assemblage - 1991 (12CD FLAC)\08 - Japanese Whispers (1983)\06 - Speak My Language.wav

Pre-gap length 0:00:00.62

Peak level 70.6 %
Extraction speed 2.5 X
Track quality 100.0 %
Test CRC DA4A81AD
Copy CRC DA4A81AD
Accurately ripped (confidence 53) [8D8F16A4] (AR v2)
Copy OK

Track 7

Filename C:\EAC Saves\The Cure - Assemblage - 1991 (12CD FLAC)\08 - Japanese Whispers (1983)\07 - Lament.wav

Peak level 70.2 %
Extraction speed 2.8 X
Track quality 100.0 %
Test CRC 0288B498
Copy CRC 0288B498
Accurately ripped (confidence 52) [3E02CE63] (AR v2)
Copy OK

Track 8

Filename C:\EAC Saves\The Cure - Assemblage - 1991 (12CD FLAC)\08 - Japanese Whispers (1983)\08 - The Love Cats.wav

Peak level 84.6 %
Extraction speed 2.1 X
Track quality 99.9 %
Test CRC E4AA4F1D
Copy CRC E4AA4F1D
Accurately ripped (confidence 52) [1EF82068] (AR v2)
Copy OK


All tracks accurately ripped

No errors occurred

End of status report

==== Log checksum 043FAC20FFE3FB2782353E75FD70EFCD654CBAAD88F39F7863AFC7CCB1E28925 ====

foobar2000 1.3.8 / Dynamic Range Meter 1.1.1
log date: 2015-12-08 01:43:10

––––––––––––––––––––––––––––––––––––––––
Analyzed: The Cure / Japanese Whispers
––––––––––––––––––––––––––––––––––––––––

DR Peak RMS Duration Track
––––––––––––––––––––––––––––––––––––––––
DR15 -1.49 dB -19.32 dB 3:34 01-Lets Go to Bed
DR14 -2.50 dB -18.55 dB 3:13 02-The Dream
DR13 -1.68 dB -20.06 dB 4:09 03-Just One Kiss
DR13 -2.37 dB -17.77 dB 3:30 04-The Upstairs Room
DR13 -2.13 dB -18.96 dB 3:30 05-The Walk
DR13 -3.01 dB -18.99 dB 2:41 06-Speak My Language
DR12 -3.07 dB -17.24 dB 4:21 07-Lament
DR14 -1.45 dB -17.71 dB 3:40 08-The Love Cats
––––––––––––––––––––––––––––––––––––––––

Number of tracks: 8
Official DR value: DR13

Samplerate: 44100 Hz
Channels: 2
Bits per sample: 16
Bitrate: 854 kbps
Codec: FLAC
================================================================================




The Cure - Assemblage (1991) 12 CD Box Set [Re-Up]

СD 9: The Head on the Door (1985) [Time: 00:37:46]

After recording one of their darkest albums, 1984's The Top, the Cure regrouped and shuffled their lineup, which changed their musical direction rather radically. While the band always had a pop element in their sound and even recorded one of the lightest songs of the '80s, "The Lovecats," The Head on the Door is where they become a hitmaking machine. The shiny, sleek production and laser-sharp melodies of "Inbetween Days" and "Close to Me" helped them become modern rock radio staples and the inspired videos had them in heavy rotation on MTV. The rest of the record didn't suffer for hooks and inventive arrangements either, making even the gloomiest songs like "Screw" and "Kyoto Song" sound radio-ready, and the inventive arrangements (the flamenco guitars and castanets of "The Blood," the lengthy and majestic intro to "Push," the swirling vocals on "The Baby Screams") give the album a musical depth previous efforts lacked. All without sacrificing an ounce of the emotion of the past, which songs as quietly desperate as "A Night Like This" and "Sinking" illustrate. With The Head on the Door, Robert Smith figured out how to make gloom and doom danceable and popular to both alternative and mainstream rock audiences. It was a feat the band managed to pull off for many years afterward, but never as concisely or as impressively as they did here.

Review by Tim Sendra, Allmusic.com

Tracklist:

01. In Between Days (02:57)
02. Kyoto Song (04:16)
03. The Blood (03:43)
04. Six Different Ways (03:18)
05. Push (04:33)
06. The Baby Screams (03:44)
07. Close to Me (03:24)
08. A Night Like This (04:15)
09. Screw (02:38)
10. Sinking (04:53)


Exact Audio Copy V1.0 beta 3 from 29. August 2011

EAC extraction logfile from 5. December 2013, 19:38

The Cure / The Head on the Door

Used drive : ASUS DRW-24B1ST i Adapter: 2 ID: 0

Read mode : Secure
Utilize accurate stream : Yes
Defeat audio cache : Yes
Make use of C2 pointers : No

Read offset correction : 6
Overread into Lead-In and Lead-Out : No
Fill up missing offset samples with silence : Yes
Delete leading and trailing silent blocks : No
Null samples used in CRC calculations : Yes
Used interface : Native Win32 interface for Win NT & 2000
Gap handling : Appended to previous track

Used output format : User Defined Encoder
Selected bitrate : 896 kBit/s
Quality : High
Add ID3 tag : No
Command line compressor : C:\Program Files (x86)\Exact Audio Copy\FLAC\FLAC.EXE
Additional command line options : -6 -V -T "ARTIST=%artist%" -T "TITLE=%title%" -T "ALBUM=%albumtitle%" -T "DATE=%year%" -T "TRACKNUMBER=%tracknr%" -T "GENRE=%genre%" -T "COMMENT=%comment%" -T "BAND=%albuminterpret%" -T "ALBUMARTIST=%albuminterpret%" -T "COMPOSER=%composer%" %haslyrics%–tag-from-file=LYRICS="%lyricsfile%"%haslyrics% -T "DISCNUMBER=%cdnumber%" -T "TOTALDISCS=%totalcds%" -T "TOTALTRACKS=%numtracks%" %hascover%–picture="%coverfile%"%hascover% %source% -o %dest%


TOC of the extracted CD

Track | Start | Length | Start sector | End sector
––––––––––––––––––––––––––––-
1 | 0:00.33 | 2:57.27 | 33 | 13334
2 | 2:57.60 | 4:16.28 | 13335 | 32562
3 | 7:14.13 | 3:43.30 | 32563 | 49317
4 | 10:57.43 | 3:18.65 | 49318 | 64232
5 | 14:16.33 | 4:33.32 | 64233 | 84739
6 | 18:49.65 | 3:44.43 | 84740 | 101582
7 | 22:34.33 | 3:24.00 | 101583 | 116882
8 | 25:58.33 | 4:15.62 | 116883 | 136069
9 | 30:14.20 | 2:38.58 | 136070 | 147977
10 | 32:53.03 | 4:53.72 | 147978 | 170024


Track 1

Filename C:\EAC Saves\The Cure - Assemblage - 1991 (12CD FLAC)\09 - The Head on the Door (1985)\01 - In Between Days.wav

Pre-gap length 0:00:02.33

Peak level 93.3 %
Extraction speed 1.7 X
Track quality 100.0 %
Test CRC 21DA0090
Copy CRC 21DA0090
Accurately ripped (confidence 66) [D2D6D975] (AR v2)
Copy OK

Track 2

Filename C:\EAC Saves\The Cure - Assemblage - 1991 (12CD FLAC)\09 - The Head on the Door (1985)\02 - Kyoto Song.wav

Pre-gap length 0:00:00.27

Peak level 93.3 %
Extraction speed 2.0 X
Track quality 100.0 %
Test CRC 065585EE
Copy CRC 065585EE
Accurately ripped (confidence 66) [53B57264] (AR v2)
Copy OK

Track 3

Filename C:\EAC Saves\The Cure - Assemblage - 1991 (12CD FLAC)\09 - The Head on the Door (1985)\03 - The Blood.wav

Peak level 93.3 %
Extraction speed 1.6 X
Track quality 99.9 %
Test CRC 82108F4B
Copy CRC 82108F4B
Accurately ripped (confidence 66) [E784DD92] (AR v2)
Copy OK

Track 4

Filename C:\EAC Saves\The Cure - Assemblage - 1991 (12CD FLAC)\09 - The Head on the Door (1985)\04 - Six Different Ways.wav

Peak level 89.2 %
Extraction speed 1.6 X
Track quality 99.9 %
Test CRC 82CA8B32
Copy CRC 82CA8B32
Accurately ripped (confidence 66) [66766A62] (AR v2)
Copy OK

Track 5

Filename C:\EAC Saves\The Cure - Assemblage - 1991 (12CD FLAC)\09 - The Head on the Door (1985)\05 - Push.wav

Pre-gap length 0:00:01.53

Peak level 92.5 %
Extraction speed 2.6 X
Track quality 100.0 %
Test CRC 6C7683BF
Copy CRC 6C7683BF
Accurately ripped (confidence 67) [86B97B88] (AR v2)
Copy OK

Track 6

Filename C:\EAC Saves\The Cure - Assemblage - 1991 (12CD FLAC)\09 - The Head on the Door (1985)\06 - The Baby Screams.wav

Pre-gap length 0:00:03.17

Peak level 93.3 %
Extraction speed 2.7 X
Track quality 100.0 %
Test CRC C70B69C3
Copy CRC C70B69C3
Accurately ripped (confidence 68) [4659CCDD] (AR v2)
Copy OK

Track 7

Filename C:\EAC Saves\The Cure - Assemblage - 1991 (12CD FLAC)\09 - The Head on the Door (1985)\07 - Close to Me.wav

Peak level 81.4 %
Extraction speed 2.8 X
Track quality 100.0 %
Test CRC CACB21C9
Copy CRC CACB21C9
Accurately ripped (confidence 68) [F120B920] (AR v2)
Copy OK

Track 8

Filename C:\EAC Saves\The Cure - Assemblage - 1991 (12CD FLAC)\09 - The Head on the Door (1985)\08 - A Night Like This.wav

Pre-gap length 0:00:01.10

Peak level 93.3 %
Extraction speed 3.0 X
Track quality 100.0 %
Test CRC 8B267424
Copy CRC 8B267424
Accurately ripped (confidence 67) [19B7B63B] (AR v2)
Copy OK

Track 9

Filename C:\EAC Saves\The Cure - Assemblage - 1991 (12CD FLAC)\09 - The Head on the Door (1985)\09 - Screw.wav

Peak level 91.3 %
Extraction speed 2.9 X
Track quality 100.0 %
Test CRC 785C3C29
Copy CRC 785C3C29
Accurately ripped (confidence 67) [67994C17] (AR v2)
Copy OK

Track 10

Filename C:\EAC Saves\The Cure - Assemblage - 1991 (12CD FLAC)\09 - The Head on the Door (1985)\10 - Sinking.wav

Pre-gap length 0:00:01.63

Peak level 93.3 %
Extraction speed 3.3 X
Track quality 100.0 %
Test CRC AA20DDFD
Copy CRC AA20DDFD
Accurately ripped (confidence 66) [FE3C520E] (AR v2)
Copy OK


All tracks accurately ripped

No errors occurred

End of status report

==== Log checksum 8DFA717399BB8BBD9AC75B28C61EDFAB57F4F3EA1021D6AA3460D905C06648E2 ====

foobar2000 1.3.8 / Dynamic Range Meter 1.1.1
log date: 2015-12-08 01:43:37

––––––––––––––––––––––––––––––––––––––––
Analyzed: The Cure / The Head on the Door
––––––––––––––––––––––––––––––––––––––––

DR Peak RMS Duration Track
––––––––––––––––––––––––––––––––––––––––
DR11 -0.60 dB -13.85 dB 2:57 01-In Between Days
DR12 -0.60 dB -14.93 dB 4:16 02-Kyoto Song
DR13 -0.60 dB -14.68 dB 3:43 03-The Blood
DR14 -0.99 dB -16.34 dB 3:19 04-Six Different Ways
DR12 -0.68 dB -15.03 dB 4:33 05-Push
DR12 -0.60 dB -14.89 dB 3:45 06-The Baby Screams
DR14 -1.78 dB -17.12 dB 3:24 07-Close to Me
DR12 -0.60 dB -14.02 dB 4:16 08-A Night Like This
DR13 -0.79 dB -15.00 dB 2:39 09-Screw
DR11 -0.60 dB -13.70 dB 4:54 10-Sinking
––––––––––––––––––––––––––––––––––––––––

Number of tracks: 10
Official DR value: DR12

Samplerate: 44100 Hz
Channels: 2
Bits per sample: 16
Bitrate: 820 kbps
Codec: FLAC
================================================================================




The Cure - Assemblage (1991) 12 CD Box Set [Re-Up]

СD 10: Staring at the Sea - The Singles (1986) [Time: 01:01:58]

Staring at the Sea: The Singles collects all of the Cure's biggest U.K. hits and best-known songs from the late '70s and early '80s. Spanning from "Killing an Arab" and "Boys Don't Cry," to "The Lovecats," "In Between Days," and "Close to Me," Staring at the Sea captures some of the finest – and most influential – post-punk music. At their best, the Cure were nervy, intellectual, catchy, and foreboding, all at once. No matter how carefully crafted the Cure's individual albums were, their finest moments occurred on singles like these, when they distilled their essence into surprisingly catchy, but decidedly left-of-center, pop singles. Staring at the Sea not only selects highlights from their uneven early albums, it collects many of the group's terrific non-LP singles. It's a definitive retrospective of the Cure and is one of the finest albums of the '80s.

Review by Stephen Thomas Erlewine, Allmusic.com

Tracklist:

01. Killing an Arab (02:21)
02. 10.15 Saturday Night (03:38)
03. Boys Don't Cry (02:35)
04. Jumping Someone Else's Train (02:55)
05. A Forest (04:55)
06. Play for Today (03:39)
07. Primary (03:35)
08. Other Voices (04:28)
09. Charlotte Sometimes (04:14)
10. The Hanging Garden (04:22)
11. Let's Go to Bed (03:33)
12. The Walk (03:29)
13. The Love Cats (03:39)
14. The Caterpillar (03:40)
15. In-Between Days (02:56)
16. Close to Me (03:40)
17. A Night Like This (04:11)


Exact Audio Copy V1.0 beta 3 from 29. August 2011

EAC extraction logfile from 5. December 2013, 20:20

The Cure / Staring at the Sea - The Singles

Used drive : ASUS DRW-24B1ST i Adapter: 2 ID: 0

Read mode : Secure
Utilize accurate stream : Yes
Defeat audio cache : Yes
Make use of C2 pointers : No

Read offset correction : 6
Overread into Lead-In and Lead-Out : No
Fill up missing offset samples with silence : Yes
Delete leading and trailing silent blocks : No
Null samples used in CRC calculations : Yes
Used interface : Native Win32 interface for Win NT & 2000
Gap handling : Appended to previous track

Used output format : User Defined Encoder
Selected bitrate : 896 kBit/s
Quality : High
Add ID3 tag : No
Command line compressor : C:\Program Files (x86)\Exact Audio Copy\FLAC\FLAC.EXE
Additional command line options : -6 -V -T "ARTIST=%artist%" -T "TITLE=%title%" -T "ALBUM=%albumtitle%" -T "DATE=%year%" -T "TRACKNUMBER=%tracknr%" -T "GENRE=%genre%" -T "COMMENT=%comment%" -T "BAND=%albuminterpret%" -T "ALBUMARTIST=%albuminterpret%" -T "COMPOSER=%composer%" %haslyrics%–tag-from-file=LYRICS="%lyricsfile%"%haslyrics% -T "DISCNUMBER=%cdnumber%" -T "TOTALDISCS=%totalcds%" -T "TOTALTRACKS=%numtracks%" %hascover%–picture="%coverfile%"%hascover% %source% -o %dest%


TOC of the extracted CD

Track | Start | Length | Start sector | End sector
––––––––––––––––––––––––––––-
1 | 0:00.32 | 2:21.70 | 32 | 10676
2 | 2:22.27 | 3:38.45 | 10677 | 27071
3 | 6:00.72 | 2:35.03 | 27072 | 38699
4 | 8:36.00 | 2:55.52 | 38700 | 51876
5 | 11:31.52 | 4:55.03 | 51877 | 74004
6 | 16:26.55 | 3:39.30 | 74005 | 90459
7 | 20:06.10 | 3:35.52 | 90460 | 106636
8 | 23:41.62 | 4:28.65 | 106637 | 126801
9 | 28:10.52 | 4:14.08 | 126802 | 145859
10 | 32:24.60 | 4:22.27 | 145860 | 165536
11 | 36:47.12 | 3:33.48 | 165537 | 181559
12 | 40:20.60 | 3:29.57 | 181560 | 197291
13 | 43:50.42 | 3:39.53 | 197292 | 213769
14 | 47:30.20 | 3:40.20 | 213770 | 230289
15 | 51:10.40 | 2:56.52 | 230290 | 243541
16 | 54:07.17 | 3:40.40 | 243542 | 260081
17 | 57:47.57 | 4:11.28 | 260082 | 278934


Track 1

Filename C:\EAC Saves\The Cure - Assemblage - 1991 (12CD FLAC)\10 - Staring at the Sea - The Singles (1986)\01 - Killing an Arab.wav

Pre-gap length 0:00:02.32

Peak level 95.5 %
Extraction speed 5.0 X
Track quality 100.0 %
Test CRC BFE8D8C6
Copy CRC BFE8D8C6
Accurately ripped (confidence 98) [EF25D40F] (AR v2)
Copy OK

Track 2

Filename C:\EAC Saves\The Cure - Assemblage - 1991 (12CD FLAC)\10 - Staring at the Sea - The Singles (1986)\02 - 10.15 Saturday Night.wav

Peak level 95.0 %
Extraction speed 5.9 X
Track quality 100.0 %
Test CRC 000F1FAB
Copy CRC 000F1FAB
Accurately ripped (confidence 98) [7D4132DD] (AR v2)
Copy OK

Track 3

Filename C:\EAC Saves\The Cure - Assemblage - 1991 (12CD FLAC)\10 - Staring at the Sea - The Singles (1986)\03 - Boys Don't Cry.wav

Peak level 93.3 %
Extraction speed 4.6 X
Track quality 99.9 %
Test CRC 6155727A
Copy CRC 6155727A
Accurately ripped (confidence 101) [C4B40AEB] (AR v2)
Copy OK

Track 4

Filename C:\EAC Saves\The Cure - Assemblage - 1991 (12CD FLAC)\10 - Staring at the Sea - The Singles (1986)\04 - Jumping Someone Else's Train.wav

Peak level 97.2 %
Extraction speed 6.4 X
Track quality 100.0 %
Test CRC 983D2585
Copy CRC 983D2585
Accurately ripped (confidence 99) [A6A7DD1E] (AR v2)
Copy OK

Track 5

Filename C:\EAC Saves\The Cure - Assemblage - 1991 (12CD FLAC)\10 - Staring at the Sea - The Singles (1986)\05 - A Forest.wav

Peak level 100.0 %
Extraction speed 7.4 X
Track quality 100.0 %
Test CRC C175D7CD
Copy CRC C175D7CD
Accurately ripped (confidence 99) [6A59F2E9] (AR v2)
Copy OK

Track 6

Filename C:\EAC Saves\The Cure - Assemblage - 1991 (12CD FLAC)\10 - Staring at the Sea - The Singles (1986)\06 - Play for Today.wav

Peak level 100.0 %
Extraction speed 7.7 X
Track quality 100.0 %
Test CRC 36810F16
Copy CRC 36810F16
Accurately ripped (confidence 99) [A9ADCFCF] (AR v2)
Copy OK

Track 7

Filename C:\EAC Saves\The Cure - Assemblage - 1991 (12CD FLAC)\10 - Staring at the Sea - The Singles (1986)\07 - Primary.wav

Pre-gap length 0:00:00.43

Peak level 98.0 %
Extraction speed 8.0 X
Track quality 100.0 %
Test CRC 180042EF
Copy CRC 180042EF
Accurately ripped (confidence 98) [0862BE66] (AR v2)
Copy OK

Track 8

Filename C:\EAC Saves\The Cure - Assemblage - 1991 (12CD FLAC)\10 - Staring at the Sea - The Singles (1986)\08 - Other Voices.wav

Pre-gap length 0:00:00.67

Peak level 97.6 %
Extraction speed 8.7 X
Track quality 100.0 %
Test CRC 6C9C8FD4
Copy CRC 6C9C8FD4
Accurately ripped (confidence 97) [5867853E] (AR v2)
Copy OK

Track 9

Filename C:\EAC Saves\The Cure - Assemblage - 1991 (12CD FLAC)\10 - Staring at the Sea - The Singles (1986)\09 - Charlotte Sometimes.wav

Pre-gap length 0:00:00.60

Peak level 96.0 %
Extraction speed 9.0 X
Track quality 100.0 %
Test CRC 9704FC90
Copy CRC 9704FC90
Accurately ripped (confidence 98) [E19C753A] (AR v2)
Copy OK

Track 10

Filename C:\EAC Saves\The Cure - Assemblage - 1991 (12CD FLAC)\10 - Staring at the Sea - The Singles (1986)\10 - The Hanging Garden.wav

Pre-gap length 0:00:00.20

Peak level 93.0 %
Extraction speed 9.4 X
Track quality 100.0 %
Test CRC 738E1C38
Copy CRC 738E1C38
Accurately ripped (confidence 98) [68BCA968] (AR v2)
Copy OK

Track 11

Filename C:\EAC Saves\The Cure - Assemblage - 1991 (12CD FLAC)\10 - Staring at the Sea - The Singles (1986)\11 - Let's Go to Bed.wav

Pre-gap length 0:00:00.47

Peak level 100.0 %
Extraction speed 9.5 X
Track quality 100.0 %
Test CRC 9CD541E3
Copy CRC 9CD541E3
Accurately ripped (confidence 98) [6EA30664] (AR v2)
Copy OK

Track 12

Filename C:\EAC Saves\The Cure - Assemblage - 1991 (12CD FLAC)\10 - Staring at the Sea - The Singles (1986)\12 - The Walk.wav

Pre-gap length 0:00:00.20

Peak level 97.6 %
Extraction speed 9.8 X
Track quality 100.0 %
Test CRC FE34413F
Copy CRC FE34413F
Accurately ripped (confidence 99) [0657A498] (AR v2)
Copy OK

Track 13

Filename C:\EAC Saves\The Cure - Assemblage - 1991 (12CD FLAC)\10 - Staring at the Sea - The Singles (1986)\13 - The Love Cats.wav

Pre-gap length 0:00:00.50

Peak level 100.0 %
Extraction speed 10.1 X
Track quality 100.0 %
Test CRC AE77BDE9
Copy CRC AE77BDE9
Accurately ripped (confidence 99) [95EF7148] (AR v2)
Copy OK

Track 14

Filename C:\EAC Saves\The Cure - Assemblage - 1991 (12CD FLAC)\10 - Staring at the Sea - The Singles (1986)\14 - The Caterpillar.wav

Pre-gap length 0:00:01.20

Peak level 96.8 %
Extraction speed 10.4 X
Track quality 100.0 %
Test CRC 00BC54A3
Copy CRC 00BC54A3
Accurately ripped (confidence 97) [130ED5B5] (AR v2)
Copy OK

Track 15

Filename C:\EAC Saves\The Cure - Assemblage - 1991 (12CD FLAC)\10 - Staring at the Sea - The Singles (1986)\15 - In-Between Days.wav

Pre-gap length 0:00:01.03

Peak level 100.0 %
Extraction speed 10.2 X
Track quality 100.0 %
Test CRC 154FEF30
Copy CRC 154FEF30
Accurately ripped (confidence 99) [9B061EAE] (AR v2)
Copy OK

Track 16

Filename C:\EAC Saves\The Cure - Assemblage - 1991 (12CD FLAC)\10 - Staring at the Sea - The Singles (1986)\16 - Close to Me.wav

Pre-gap length 0:00:00.05

Peak level 90.7 %
Extraction speed 10.9 X
Track quality 100.0 %
Test CRC FF687B08
Copy CRC FF687B08
Accurately ripped (confidence 99) [6690F027] (AR v2)
Copy OK

Track 17

Filename C:\EAC Saves\The Cure - Assemblage - 1991 (12CD FLAC)\10 - Staring at the Sea - The Singles (1986)\17 - A Night Like This.wav

Pre-gap length 0:00:01.05

Peak level 100.0 %
Extraction speed 11.3 X
Track quality 100.0 %
Test CRC 01B56769
Copy CRC 01B56769
Accurately ripped (confidence 94) [195080A5] (AR v2)
Copy OK


All tracks accurately ripped

No errors occurred

End of status report

==== Log checksum 59C874905E2EBC2647C44FE3FD10B98D23B826B9620C619AF1BCCB8D9DEEB8B2 ====

foobar2000 1.3.8 / Dynamic Range Meter 1.1.1
log date: 2015-12-08 01:44:22

––––––––––––––––––––––––––––––––––––––––
Analyzed: The Cure / Staring at the Sea - The Singles
––––––––––––––––––––––––––––––––––––––––

DR Peak RMS Duration Track
––––––––––––––––––––––––––––––––––––––––
DR15 -0.40 dB -17.97 dB 2:22 01-Killing an Arab
DR14 -0.44 dB -18.97 dB 3:39 02-10.15 Saturday Night
DR13 -0.60 dB -15.24 dB 2:35 03-Boys Don't Cry
DR12 -0.24 dB -15.35 dB 2:56 04-Jumping Someone Else's Train
DR15 0.00 dB -17.38 dB 4:55 05-A Forest
DR13 0.00 dB -15.31 dB 3:39 06-Play for Today
DR13 -0.17 dB -14.71 dB 3:36 07-Primary
DR13 -0.20 dB -17.11 dB 4:29 08-Other Voices
DR11 -0.35 dB -13.81 dB 4:14 09-Charlotte Sometimes
DR12 -0.62 dB -13.85 dB 4:22 10-The Hanging Garden
DR14 0.00 dB -15.17 dB 3:34 11-Let's Go to Bed
DR13 -0.21 dB -15.57 dB 3:30 12-The Walk
DR13 0.00 dB -14.69 dB 3:40 13-The Love Cats
DR14 -0.28 dB -15.94 dB 3:40 14-The Caterpillar
DR11 0.00 dB -12.50 dB 2:57 15-In-Between Days
DR12 -0.85 dB -14.87 dB 3:41 16-Close to Me
DR13 0.00 dB -14.51 dB 4:11 17-A Night Like This
––––––––––––––––––––––––––––––––––––––––

Number of tracks: 17
Official DR value: DR13

Samplerate: 44100 Hz
Channels: 2
Bits per sample: 16
Bitrate: 869 kbps
Codec: FLAC
================================================================================




The Cure - Assemblage (1991) 12 CD Box Set [Re-Up]

СD 11: Kiss Me, Kiss Me, Kiss Me (1987) [Time: 01:12:07]

Simultaneously more accessible and ambitious than any of the Cure's previous albums, the double album Kiss Me, Kiss Me, Kiss Me finds Robert Smith expanding his pop vocabulary by tentatively adding bigger guitars, the occasional horn section, lite-funk rhythms, and string sections. It's eclectic, to be sure, but it's also a mess, bouncing from idea to idea and refusing to develop some of the most intriguing detours. Even if Kiss Me doesn't quite gel, its best moments – including the deceptively bouncy "Why Can't I Be You?" and the stately "Just Like Heaven" – are remarkable and help make the album one of the group's very best.

Review by Stephen Thomas Erlewine, Allmusic.com

Tracklist:

01. The Kiss (06:15)
02. Catch (02:44)
03. Torture (04:18)
04. If Only Tonight We Could Sleep (04:53)
05. Why Can't I Be You? (03:14)
06. How Beautiful You Are (05:14)
07. Snakepit (06:59)
08. Just Like Heaven (03:32)
09. All I Want (05:22)
10. Hot Hot Hot!!! (03:35)
11. One More Time (04:32)
12. Like Cockatoos (03:40)
13. Icing Sugar (03:49)
14. The Perfect Girl (02:35)
15. A Thousand Hours (03:24)
16. Shiver and Shake (03:29)
17. Fight (04:27)


Exact Audio Copy V1.0 beta 3 from 29. August 2011

EAC extraction logfile from 5. December 2013, 20:50

The Cure / Kiss Me, Kiss Me, Kiss Me

Used drive : ASUS DRW-24B1ST i Adapter: 2 ID: 0

Read mode : Secure
Utilize accurate stream : Yes
Defeat audio cache : Yes
Make use of C2 pointers : No

Read offset correction : 6
Overread into Lead-In and Lead-Out : No
Fill up missing offset samples with silence : Yes
Delete leading and trailing silent blocks : No
Null samples used in CRC calculations : Yes
Used interface : Native Win32 interface for Win NT & 2000
Gap handling : Appended to previous track

Used output format : User Defined Encoder
Selected bitrate : 896 kBit/s
Quality : High
Add ID3 tag : No
Command line compressor : C:\Program Files (x86)\Exact Audio Copy\FLAC\FLAC.EXE
Additional command line options : -6 -V -T "ARTIST=%artist%" -T "TITLE=%title%" -T "ALBUM=%albumtitle%" -T "DATE=%year%" -T "TRACKNUMBER=%tracknr%" -T "GENRE=%genre%" -T "COMMENT=%comment%" -T "BAND=%albuminterpret%" -T "ALBUMARTIST=%albuminterpret%" -T "COMPOSER=%composer%" %haslyrics%–tag-from-file=LYRICS="%lyricsfile%"%haslyrics% -T "DISCNUMBER=%cdnumber%" -T "TOTALDISCS=%totalcds%" -T "TOTALTRACKS=%numtracks%" %hascover%–picture="%coverfile%"%hascover% %source% -o %dest%


TOC of the extracted CD

Track | Start | Length | Start sector | End sector
––––––––––––––––––––––––––––-
1 | 0:00.33 | 6:15.02 | 33 | 28159
2 | 6:15.35 | 2:44.13 | 28160 | 40472
3 | 8:59.48 | 4:18.20 | 40473 | 59842
4 | 13:17.68 | 4:53.20 | 59843 | 81837
5 | 18:11.13 | 3:14.35 | 81838 | 96422
6 | 21:25.48 | 5:14.17 | 96423 | 119989
7 | 26:39.65 | 6:59.18 | 119990 | 151432
8 | 33:39.08 | 3:32.65 | 151433 | 167397
9 | 37:11.73 | 5:22.35 | 167398 | 191582
10 | 42:34.33 | 3:35.27 | 191583 | 207734
11 | 46:09.60 | 4:32.25 | 207735 | 228159
12 | 50:42.10 | 3:40.08 | 228160 | 244667
13 | 54:22.18 | 3:49.17 | 244668 | 261859
14 | 58:11.35 | 2:35.13 | 261860 | 273497
15 | 60:46.48 | 3:24.02 | 273498 | 288799
16 | 64:10.50 | 3:29.58 | 288800 | 304532
17 | 67:40.33 | 4:27.62 | 304533 | 324619


Track 1

Filename C:\EAC Saves\The Cure - Assemblage - 1991 (12CD FLAC)\11 - Kiss Me, Kiss Me, Kiss Me (1987)\01 - The Kiss.wav

Pre-gap length 0:00:02.33

Peak level 80.9 %
Extraction speed 6.4 X
Track quality 100.0 %
Test CRC EE3FEDB3
Copy CRC EE3FEDB3
Accurately ripped (confidence 34) [3778A595] (AR v2)
Copy OK

Track 2

Filename C:\EAC Saves\The Cure - Assemblage - 1991 (12CD FLAC)\11 - Kiss Me, Kiss Me, Kiss Me (1987)\02 - Catch.wav

Pre-gap length 0:00:00.02

Peak level 72.4 %
Extraction speed 6.4 X
Track quality 100.0 %
Test CRC E721445E
Copy CRC E721445E
Accurately ripped (confidence 34) [E5ECCBAE] (AR v2)
Copy OK

Track 3

Filename C:\EAC Saves\The Cure - Assemblage - 1991 (12CD FLAC)\11 - Kiss Me, Kiss Me, Kiss Me (1987)\03 - Torture.wav

Pre-gap length 0:00:01.00

Peak level 95.3 %
Extraction speed 6.2 X
Track quality 99.9 %
Test CRC F372D513
Copy CRC F372D513
Accurately ripped (confidence 34) [D1A9C720] (AR v2)
Copy OK

Track 4

Filename C:\EAC Saves\The Cure - Assemblage - 1991 (12CD FLAC)\11 - Kiss Me, Kiss Me, Kiss Me (1987)\04 - If Only Tonight We Could Sleep.wav

Pre-gap length 0:00:02.43

Peak level 86.6 %
Extraction speed 7.9 X
Track quality 100.0 %
Test CRC 38730BD3
Copy CRC 38730BD3
Accurately ripped (confidence 34) [D1B84D6B] (AR v2)
Copy OK

Track 5

Filename C:\EAC Saves\The Cure - Assemblage - 1991 (12CD FLAC)\11 - Kiss Me, Kiss Me, Kiss Me (1987)\05 - Why Can't I Be You_.wav

Pre-gap length 0:00:01.48

Peak level 97.7 %
Extraction speed 8.0 X
Track quality 100.0 %
Test CRC 1F8A4E31
Copy CRC 1F8A4E31
Accurately ripped (confidence 33) [E850CD08] (AR v2)
Copy OK

Track 6

Filename C:\EAC Saves\The Cure - Assemblage - 1991 (12CD FLAC)\11 - Kiss Me, Kiss Me, Kiss Me (1987)\06 - How Beautiful You Are.wav

Pre-gap length 0:00:01.35

Peak level 100.0 %
Extraction speed 9.0 X
Track quality 100.0 %
Test CRC 1B6C7E5B
Copy CRC 1B6C7E5B
Accurately ripped (confidence 31) [B4759377] (AR v2)
Copy OK

Track 7

Filename C:\EAC Saves\The Cure - Assemblage - 1991 (12CD FLAC)\11 - Kiss Me, Kiss Me, Kiss Me (1987)\07 - Snakepit.wav

Pre-gap length 0:00:01.70

Peak level 100.0 %
Extraction speed 9.8 X
Track quality 100.0 %
Test CRC F3E5F82E
Copy CRC F3E5F82E
Accurately ripped (confidence 34) [58E281D4] (AR v2)
Copy OK

Track 8

Filename C:\EAC Saves\The Cure - Assemblage - 1991 (12CD FLAC)\11 - Kiss Me, Kiss Me, Kiss Me (1987)\08 - Just Like Heaven.wav

Pre-gap length 0:00:01.53

Peak level 94.8 %
Extraction speed 9.6 X
Track quality 100.0 %
Test CRC 935A06A3
Copy CRC 935A06A3
Accurately ripped (confidence 35) [2427D0FB] (AR v2)
Copy OK

Track 9

Filename C:\EAC Saves\The Cure - Assemblage - 1991 (12CD FLAC)\11 - Kiss Me, Kiss Me, Kiss Me (1987)\09 - All I Want.wav

Pre-gap length 0:00:01.15

Peak level 73.2 %
Extraction speed 10.5 X
Track quality 100.0 %
Test CRC D2EC71E3
Copy CRC D2EC71E3
Accurately ripped (confidence 33) [D125974F] (AR v2)
Copy OK

Track 10

Filename C:\EAC Saves\The Cure - Assemblage - 1991 (12CD FLAC)\11 - Kiss Me, Kiss Me, Kiss Me (1987)\10 - Hot Hot Hot!!!.wav

Pre-gap length 0:00:01.38

Peak level 83.7 %
Extraction speed 10.3 X
Track quality 100.0 %
Test CRC A55F542B
Copy CRC A55F542B
Accurately ripped (confidence 34) [392AB2CD] (AR v2)
Copy OK

Track 11

Filename C:\EAC Saves\The Cure - Assemblage - 1991 (12CD FLAC)\11 - Kiss Me, Kiss Me, Kiss Me (1987)\11 - One More Time.wav

Pre-gap length 0:00:02.02

Peak level 59.1 %
Extraction speed 11.1 X
Track quality 100.0 %
Test CRC 18666BFC
Copy CRC 18666BFC
Accurately ripped (confidence 33) [B6C30CCE] (AR v2)
Copy OK

Track 12

Filename C:\EAC Saves\The Cure - Assemblage - 1991 (12CD FLAC)\11 - Kiss Me, Kiss Me, Kiss Me (1987)\12 - Like Cockatoos.wav

Pre-gap length 0:00:00.65

Peak level 80.1 %
Extraction speed 8.9 X
Track quality 99.9 %
Test CRC 0E2EEDEF
Copy CRC 0E2EEDEF
Accurately ripped (confidence 33) [C626A587] (AR v2)
Copy OK

Track 13

Filename C:\EAC Saves\The Cure - Assemblage - 1991 (12CD FLAC)\11 - Kiss Me, Kiss Me, Kiss Me (1987)\13 - Icing Sugar.wav

Peak level 95.3 %
Extraction speed 11.4 X
Track quality 100.0 %
Test CRC 08A0AC9F
Copy CRC 08A0AC9F
Accurately ripped (confidence 34) [BA8AB543] (AR v2)
Copy OK

Track 14

Filename C:\EAC Saves\The Cure - Assemblage - 1991 (12CD FLAC)\11 - Kiss Me, Kiss Me, Kiss Me (1987)\14 - The Perfect Girl.wav

Peak level 96.0 %
Extraction speed 10.8 X
Track quality 100.0 %
Test CRC BCCA325F
Copy CRC BCCA325F
Accurately ripped (confidence 31) [8035626C] (AR v2)
Copy OK

Track 15

Filename C:\EAC Saves\The Cure - Assemblage - 1991 (12CD FLAC)\11 - Kiss Me, Kiss Me, Kiss Me (1987)\15 - A Thousand Hours.wav

Pre-gap length 0:00:01.43

Peak level 88.4 %
Extraction speed 11.6 X
Track quality 100.0 %
Test CRC B5D12D49
Copy CRC B5D12D49
Accurately ripped (confidence 33) [5D96F3B3] (AR v2)
Copy OK

Track 16

Filename C:\EAC Saves\The Cure - Assemblage - 1991 (12CD FLAC)\11 - Kiss Me, Kiss Me, Kiss Me (1987)\16 - Shiver and Shake.wav

Pre-gap length 0:00:01.05

Peak level 98.4 %
Extraction speed 11.9 X
Track quality 100.0 %
Test CRC 4C2CD9AA
Copy CRC 4C2CD9AA
Accurately ripped (confidence 33) [478393FD] (AR v2)
Copy OK

Track 17

Filename C:\EAC Saves\The Cure - Assemblage - 1991 (12CD FLAC)\11 - Kiss Me, Kiss Me, Kiss Me (1987)\17 - Fight.wav

Pre-gap length 0:00:01.25

Peak level 100.0 %
Extraction speed 12.6 X
Track quality 100.0 %
Test CRC A27C81E8
Copy CRC A27C81E8
Accurately ripped (confidence 32) [32A30723] (AR v2)
Copy OK


All tracks accurately ripped

No errors occurred

End of status report

==== Log checksum 6B6C4E3F73C1F24EB01966C8C9ECF7925C2AC51281082FC8400592C76E79F7B5 ====

foobar2000 1.3.8 / Dynamic Range Meter 1.1.1
log date: 2015-12-08 01:45:14

––––––––––––––––––––––––––––––––––––––––
Analyzed: The Cure / Kiss Me, Kiss Me, Kiss Me
––––––––––––––––––––––––––––––––––––––––

DR Peak RMS Duration Track
––––––––––––––––––––––––––––––––––––––––
DR11 -1.84 dB -14.42 dB 6:15 01-The Kiss
DR12 -2.79 dB -17.20 dB 2:44 02-Catch
DR12 -0.42 dB -14.47 dB 4:18 03-Torture
DR13 -1.25 dB -17.21 dB 4:53 04-If Only Tonight We Could Sleep
DR12 -0.20 dB -13.88 dB 3:14 05-Why Can't I Be You?
DR13 0.00 dB -14.85 dB 5:14 06-How Beautiful You Are
DR13 0.00 dB -15.75 dB 6:59 07-Snakepit
DR12 -0.46 dB -14.56 dB 3:33 08-Just Like Heaven
DR11 -2.71 dB -15.64 dB 5:22 09-All I Want
DR14 -1.54 dB -17.26 dB 3:35 10-Hot Hot Hot!!!
DR12 -4.56 dB -17.98 dB 4:32 11-One More Time
DR12 -1.92 dB -17.74 dB 3:40 12-Like Cockatoos
DR12 -0.41 dB -14.48 dB 3:49 13-Icing Sugar
DR12 -0.35 dB -14.37 dB 2:35 14-The Perfect Girl
DR12 -1.06 dB -16.39 dB 3:24 15-A Thousand Hours
DR12 -0.13 dB -15.03 dB 3:30 16-Shiver and Shake
DR12 0.00 dB -14.77 dB 4:28 17-Fight
––––––––––––––––––––––––––––––––––––––––

Number of tracks: 17
Official DR value: DR12

Samplerate: 44100 Hz
Channels: 2
Bits per sample: 16
Bitrate: 908 kbps
Codec: FLAC
================================================================================




The Cure - Assemblage (1991) 12 CD Box Set [Re-Up]

СD 12: Disintegration (1989) [Time: 01:12:25]

Expanding the latent arena rock sensibilities that peppered Kiss Me, Kiss Me, Kiss Me by slowing them down and stretching them to the breaking point, the Cure reached the peak of their popularity with the crawling, darkly seductive Disintegration. It's a hypnotic, mesmerizing record, comprised almost entirely of epics like the soaring, icy "Pictures of You." The handful of pop songs, like the concise and utterly charming "Love Song," don't alleviate the doom-laden atmosphere. the Cure's gloomy soundscapes have rarely sounded so alluring, however, and the songs – from the pulsating, ominous "Fascination Street" to the eerie, string-laced "Lullaby" – have rarely been so well-constructed and memorable. It's fitting that Disintegration was their commercial breakthrough, since, in many ways, the album is the culmination of all the musical directions the Cure were pursuing over the course of the '80s.

Review by Stephen Thomas Erlewine, Allmusic.com

Tracklist:

01. Plainsong (05:15)
02. Pictures of You (07:28)
03. Closedown (04:21)
04. Love Song (03:30)
05. Last Dance (04:47)
06. Lullaby (04:12)
07. Fascination Street (05:16)
08. Prayers for Rain (06:07)
09. The Same Deep Water as You (09:22)
10. Disintegration (08:23)
11. Homesick (07:09)
12. Untitled (06:30)


Exact Audio Copy V1.0 beta 3 from 29. August 2011

EAC extraction logfile from 5. December 2013, 21:14

The Cure / Disintegration

Used drive : ASUS DRW-24B1ST i Adapter: 2 ID: 0

Read mode : Secure
Utilize accurate stream : Yes
Defeat audio cache : Yes
Make use of C2 pointers : No

Read offset correction : 6
Overread into Lead-In and Lead-Out : No
Fill up missing offset samples with silence : Yes
Delete leading and trailing silent blocks : No
Null samples used in CRC calculations : Yes
Used interface : Native Win32 interface for Win NT & 2000
Gap handling : Appended to previous track

Used output format : User Defined Encoder
Selected bitrate : 896 kBit/s
Quality : High
Add ID3 tag : No
Command line compressor : C:\Program Files (x86)\Exact Audio Copy\FLAC\FLAC.EXE
Additional command line options : -6 -V -T "ARTIST=%artist%" -T "TITLE=%title%" -T "ALBUM=%albumtitle%" -T "DATE=%year%" -T "TRACKNUMBER=%tracknr%" -T "GENRE=%genre%" -T "COMMENT=%comment%" -T "BAND=%albuminterpret%" -T "ALBUMARTIST=%albuminterpret%" -T "COMPOSER=%composer%" %haslyrics%–tag-from-file=LYRICS="%lyricsfile%"%haslyrics% -T "DISCNUMBER=%cdnumber%" -T "TOTALDISCS=%totalcds%" -T "TOTALTRACKS=%numtracks%" %hascover%–picture="%coverfile%"%hascover% %source% -o %dest%


TOC of the extracted CD

Track | Start | Length | Start sector | End sector
––––––––––––––––––––––––––––-
1 | 0:00.33 | 5:15.57 | 33 | 23714
2 | 5:16.15 | 7:28.48 | 23715 | 57362
3 | 12:44.63 | 4:21.07 | 57363 | 76944
4 | 17:05.70 | 3:30.18 | 76945 | 92712
5 | 20:36.13 | 4:47.00 | 92713 | 114237
6 | 25:23.13 | 4:12.50 | 114238 | 133187
7 | 29:35.63 | 5:16.20 | 133188 | 156907
8 | 34:52.08 | 6:07.60 | 156908 | 184492
9 | 40:59.68 | 9:22.30 | 184493 | 226672
10 | 50:22.23 | 8:23.65 | 226673 | 264462
11 | 58:46.13 | 7:09.05 | 264463 | 296642
12 | 65:55.18 | 6:30.22 | 296643 | 325914


Track 1

Filename C:\EAC Saves\The Cure - Assemblage - 1991 (12CD FLAC)\12 - Disintegration (1989)\01 - Plainsong.wav

Pre-gap length 0:00:02.33

Peak level 79.3 %
Extraction speed 6.1 X
Track quality 100.0 %
Test CRC 7104DACC
Copy CRC 7104DACC
Accurately ripped (confidence 200) [0B376CDC] (AR v2)
Copy OK

Track 2

Filename C:\EAC Saves\The Cure - Assemblage - 1991 (12CD FLAC)\12 - Disintegration (1989)\02 - Pictures of You.wav

Pre-gap length 0:00:01.37

Peak level 96.3 %
Extraction speed 7.3 X
Track quality 100.0 %
Test CRC 1BBF0B19
Copy CRC 1BBF0B19
Accurately ripped (confidence 200) [B0B7444A] (AR v2)
Copy OK

Track 3

Filename C:\EAC Saves\The Cure - Assemblage - 1991 (12CD FLAC)\12 - Disintegration (1989)\03 - Closedown.wav

Pre-gap length 0:00:01.65

Peak level 86.8 %
Extraction speed 7.6 X
Track quality 100.0 %
Test CRC B42F5F19
Copy CRC B42F5F19
Accurately ripped (confidence 200) [B23419B3] (AR v2)
Copy OK

Track 4

Filename C:\EAC Saves\The Cure - Assemblage - 1991 (12CD FLAC)\12 - Disintegration (1989)\04 - Love Song.wav

Pre-gap length 0:00:03.67

Peak level 93.0 %
Extraction speed 7.8 X
Track quality 100.0 %
Test CRC 136520E8
Copy CRC 136520E8
Accurately ripped (confidence 200) [9A3FFCEA] (AR v2)
Copy OK

Track 5

Filename C:\EAC Saves\The Cure - Assemblage - 1991 (12CD FLAC)\12 - Disintegration (1989)\05 - Last Dance.wav

Pre-gap length 0:00:03.60

Peak level 100.0 %
Extraction speed 8.6 X
Track quality 100.0 %
Test CRC CDD114BC
Copy CRC CDD114BC
Accurately ripped (confidence 200) [5BB3EA03] (AR v2)
Copy OK

Track 6

Filename C:\EAC Saves\The Cure - Assemblage - 1991 (12CD FLAC)\12 - Disintegration (1989)\06 - Lullaby.wav

Pre-gap length 0:00:03.70

Peak level 100.0 %
Extraction speed 7.4 X
Track quality 99.9 %
Test CRC BD0B01FB
Copy CRC BD0B01FB
Accurately ripped (confidence 200) [CB016DB0] (AR v2)
Copy OK

Track 7

Filename C:\EAC Saves\The Cure - Assemblage - 1991 (12CD FLAC)\12 - Disintegration (1989)\07 - Fascination Street.wav

Pre-gap length 0:00:05.05

Peak level 92.0 %
Extraction speed 9.6 X
Track quality 100.0 %
Test CRC 4D6E5A20
Copy CRC 4D6E5A20
Accurately ripped (confidence 200) [73FBB8B6] (AR v2)
Copy OK

Track 8

Filename C:\EAC Saves\The Cure - Assemblage - 1991 (12CD FLAC)\12 - Disintegration (1989)\08 - Prayers for Rain.wav

Pre-gap length 0:00:03.60

Peak level 100.0 %
Extraction speed 10.2 X
Track quality 100.0 %
Test CRC 23241191
Copy CRC 23241191
Accurately ripped (confidence 200) [264FB58F] (AR v2)
Copy OK

Track 9

Filename C:\EAC Saves\The Cure - Assemblage - 1991 (12CD FLAC)\12 - Disintegration (1989)\09 - The Same Deep Water as You.wav

Pre-gap length 0:00:02.45

Peak level 86.2 %
Extraction speed 10.3 X
Track quality 99.9 %
Test CRC A7985940
Copy CRC A7985940
Accurately ripped (confidence 200) [BFD5C141] (AR v2)
Copy OK

Track 10

Filename C:\EAC Saves\The Cure - Assemblage - 1991 (12CD FLAC)\12 - Disintegration (1989)\10 - Disintegration.wav

Pre-gap length 0:00:01.35

Peak level 100.0 %
Extraction speed 11.9 X
Track quality 100.0 %
Test CRC D39DCA66
Copy CRC D39DCA66
Accurately ripped (confidence 200) [94B8227C] (AR v2)
Copy OK

Track 11

Filename C:\EAC Saves\The Cure - Assemblage - 1991 (12CD FLAC)\12 - Disintegration (1989)\11 - Homesick.wav

Pre-gap length 0:00:03.10

Peak level 94.7 %
Extraction speed 12.4 X
Track quality 100.0 %
Test CRC 6657A30D
Copy CRC 6657A30D
Accurately ripped (confidence 200) [3215FA40] (AR v2)
Copy OK

Track 12

Filename C:\EAC Saves\The Cure - Assemblage - 1991 (12CD FLAC)\12 - Disintegration (1989)\12 - Untitled.wav

Pre-gap length 0:00:03.38

Peak level 86.2 %
Extraction speed 12.7 X
Track quality 100.0 %
Test CRC 1A35BB5A
Copy CRC 1A35BB5A
Accurately ripped (confidence 200) [59ABA7CB] (AR v2)
Copy OK


All tracks accurately ripped

No errors occurred

End of status report

==== Log checksum 6A2CB46794A9493D68652FFBEC0EA16F863AFACB5156E49BF084AC8CE03B653C ====

foobar2000 1.3.8 / Dynamic Range Meter 1.1.1
log date: 2015-12-08 01:46:06

––––––––––––––––––––––––––––––––––––––––
Analyzed: The Cure / Disintegration
––––––––––––––––––––––––––––––––––––––––

DR Peak RMS Duration Track
––––––––––––––––––––––––––––––––––––––––
DR11 -2.01 dB -14.61 dB 5:16 01-Plainsong
DR13 -0.32 dB -15.08 dB 7:29 02-Pictures of You
DR11 -1.23 dB -14.18 dB 4:21 03-Closedown
DR13 -0.62 dB -15.75 dB 3:30 04-Love Song
DR12 0.00 dB -14.32 dB 4:47 05-Last Dance
DR14 0.00 dB -16.96 dB 4:13 06-Lullaby
DR11 -0.72 dB -13.52 dB 5:16 07-Fascination Street
DR11 0.00 dB -14.66 dB 6:08 08-Prayers for Rain
DR12 -1.29 dB -15.45 dB 9:22 09-The Same Deep Water as You
DR11 0.00 dB -13.67 dB 8:24 10-Disintegration
DR12 -0.47 dB -16.16 dB 7:09 11-Homesick
DR13 -1.28 dB -16.90 dB 6:30 12-Untitled
––––––––––––––––––––––––––––––––––––––––

Number of tracks: 12
Official DR value: DR12

Samplerate: 44100 Hz
Channels: 2
Bits per sample: 16
Bitrate: 748 kbps
Codec: FLAC
================================================================================


The Cure - Assemblage (1991) 12 CD Box Set [Re-Up]




All thanks to original releaser - Soumac

More interesting music in My Blog