Tags
Language
Tags

VA - 70's Dinner Party (2008) 3CD Set

Posted By:
VA - 70's Dinner Party (2008) 3CD Set

VA - 70's Dinner Party (2008) 3CD Set
EAC | FLAC | Tracks (Cue&Log) ~ 1.19 Gb | Mp3 (CBR320) ~ 431 Mb | Scans ~ 92 Mb
Pop, Pop Rock, R&B, Funk, Disco | Label: Sony BMG | # 88697325362 | 03:08:34

54 tracks, 3 CD nostalgic collection to bring back fond memories from the golden decade of the seventies. Features Manhattan Transfer, Leo Sayer, Donna Summer, ELO, Kiki Dee, 10CC, Cliff Richard, Minnie Riperton, Andrew Gold, Demis Roussos, Boz Scaggs, Eric Carmen, Crystal Gayle, Sally Oldfield, Tina Charles, David Soul, Art Garfunkel & many more.

Tracklist:

CD1 (01:05:33)

01. Manhattan Transfer - Chanson D'Amour (2:57)
02. Demis Roussos - Forever And Ever (3:37)
03. David Soul - Don't Give Up On Us (3:37)
04. Dean Friedman With Denise Marsa - Lucky Stars (4:01)
05. Donna Summer - Love To Love You (3:23)
06. Baccara - Yes Sir, I Can Boogie (4:35)
07. Raffaella Carra - Do It, Do It Again (2:45)
08. La Belle Epoque - Black Is Black (5:11)
09. Carole Bayer Sager - You're Moving Out Today (3:34)
10. Electric Light Orchestra - Livin' Thing (3:33)
11. Chicago - If You Leave Me Now (3:55)
12. Kiki Dee - Amoureuse (4:08)
13. Drupi - Vado Via (4:05)
14. Crystal Gayle - Don't It Make My Brown Eyes Blue (2:31)
15. The Three Degrees - When Will I See You Again (3:02)
16. Minnie Riperton - Lovin' You (3:23)
17. Frankie Valli - My Eyes Adored You (3:32)
18. Art Garfunkel - I Only Have Eyes For You (3:42)


CD2 (00:59:35)

01. Captain & Tennille - Do That To Me One More Time (3:50)
02. Helen Reddy - Angie Baby (3:28)
03. Dolly Parton - Here You Come Again (2:56)
04. Barry Manilow - Daybreak (3:07)
05. Tom Jones - She's A Lady (2:54)
06. Biddu - Summer Of '42 (3:41)
07. The New Edition - Get A Little Sand Between Your Toes (3:11)
08. Guys 'N' Dolls - There's A Whole Lot Of Loving (3:15)
09. The New Seekers - You Won't Find Another Fool Like Me (3:10)
10. 10CC - The Things We Do For Love (3:19)
11. Nilsson - Without You (3:19)
12. Eric Carmen - All By Myself (4:34)
13. Andrew Gold - Never Let Her Slip Away (3:27)
14. Samantha Sang - Emotion (3:55)
15. Bernie Flint - I Don't Want To Put A Hold On You (2:56)
16. Sally Oldfield - Mirrors (3:31)
17. Sailor - Girls, Girls, Girls (3:04)
18. Meri Wilson - Telephone Man (2:00)


CD3 (01:03:25)

01. Leo Sayer - You Make Me Feel Like Dancing (3:42)
02. Tina Charles - I Love To Love (3:05)
03. Patsy Gallant - From New York To L.A. (3:45)
04. Patrick Juvet - Got A Feeling (3:44)
05. Marshall Hain - Dancing In The City (3:46)
06. Boz Scaggs - Lido Shuffle (3:42)
07. Jigsaw - Sky High (2:54)
08. Pilot - Magic (3:04)
09. Clout - Substitute (3:28)
10. Bonnie Tyler - Lost In France (3:56)
11. Dana - Fairytale (3:07)
12. Stephanie De Sykes - Born With A Smile On My Face (3:13)
13. Scott Fitzgerald & Yvonne Keeley - If I Had Words (3:49)
14. Liverpool Express - Every Man Must Have A Dream (3:57)
15. Sad Cafe - Every Day Hurts (4:05)
16. Judie Tzuke - Stay With Me Till Dawn (3:54)
17. Telly Savalas - If (3:08)
18. James Galway - Annie's Song (3:07)


Exact Audio Copy V1.0 beta 3 from 29. August 2011

EAC extraction logfile from 2. December 2014, 21:49

Various Artists / 70's Dinner Party

Used drive : Optiarc DVD RW AD-7280S Adapter: 3 ID: 0

Read mode : Secure
Utilize accurate stream : Yes
Defeat audio cache : Yes
Make use of C2 pointers : No

Read offset correction : 48
Overread into Lead-In and Lead-Out : No
Fill up missing offset samples with silence : Yes
Delete leading and trailing silent blocks : No
Null samples used in CRC calculations : Yes
Used interface : Native Win32 interface for Win NT & 2000
Gap handling : Appended to previous track

Used output format : User Defined Encoder
Selected bitrate : 768 kBit/s
Quality : High
Add ID3 tag : No
Command line compressor : C:\Program Files\Exact Audio Copy\Flac\flac.exe
Additional command line options : -V -8 -T "Genre=%genre%" -T "Artist=%artist%" -T "Title=%title%" -T "Album=%albumtitle%" -T "Date=%year%" -T "Tracknumber=%tracknr%" -T "Comment=%comment%" %source%


TOC of the extracted CD

Track | Start | Length | Start sector | End sector
––––––––––––––––––––––––––––-
1 | 0:00.00 | 2:57.24 | 0 | 13298
2 | 2:57.24 | 3:37.35 | 13299 | 29608
3 | 6:34.59 | 3:37.19 | 29609 | 45902
4 | 10:12.03 | 4:01.31 | 45903 | 64008
5 | 14:13.34 | 3:23.32 | 64009 | 79265
6 | 17:36.66 | 4:35.05 | 79266 | 99895
7 | 22:11.71 | 2:44.47 | 99896 | 112242
8 | 24:56.43 | 5:11.36 | 112243 | 135603
9 | 30:08.04 | 3:33.53 | 135604 | 151631
10 | 33:41.57 | 3:33.33 | 151632 | 167639
11 | 37:15.15 | 3:54.64 | 167640 | 185253
12 | 41:10.04 | 4:07.60 | 185254 | 203838
13 | 45:17.64 | 4:04.61 | 203839 | 222199
14 | 49:22.50 | 2:31.29 | 222200 | 233553
15 | 51:54.04 | 3:01.71 | 233554 | 247199
16 | 54:56.00 | 3:22.71 | 247200 | 262420
17 | 58:18.71 | 3:31.66 | 262421 | 278311
18 | 61:50.62 | 3:42.25 | 278312 | 294986


Track 1

Filename D:\CD\Various Artists - 70's Dinner Party (2008)\CD1\01. Manhattan Transfer - Chanson D'Amour.wav

Pre-gap length 0:00:02.00

Peak level 99.8 %
Extraction speed 2.3 X
Track quality 100.0 %
Test CRC 250AFBB7
Copy CRC 250AFBB7
Accurately ripped (confidence 4) [B76B0875] (AR v2)
Copy OK

Track 2

Filename D:\CD\Various Artists - 70's Dinner Party (2008)\CD1\02. Demis Roussos - Forever And Ever.wav

Pre-gap length 0:00:00.69

Peak level 83.1 %
Extraction speed 2.3 X
Track quality 99.9 %
Test CRC 8DD1E3B8
Copy CRC 8DD1E3B8
Accurately ripped (confidence 4) [57DA8B10] (AR v2)
Copy OK

Track 3

Filename D:\CD\Various Artists - 70's Dinner Party (2008)\CD1\03. David Soul - Don't Give Up On Us.wav

Pre-gap length 0:00:01.45

Peak level 100.0 %
Extraction speed 2.8 X
Track quality 100.0 %
Test CRC 6B2281DB
Copy CRC 6B2281DB
Accurately ripped (confidence 4) [092C77F0] (AR v2)
Copy OK

Track 4

Filename D:\CD\Various Artists - 70's Dinner Party (2008)\CD1\04. Dean Friedman With Denise Marsa - Lucky Stars.wav

Pre-gap length 0:00:01.36

Peak level 99.8 %
Extraction speed 3.1 X
Track quality 100.0 %
Test CRC 2B0A604D
Copy CRC 2B0A604D
Accurately ripped (confidence 4) [D87C2D6E] (AR v2)
Copy OK

Track 5

Filename D:\CD\Various Artists - 70's Dinner Party (2008)\CD1\05. Donna Summer - Love To Love You.wav

Pre-gap length 0:00:00.72

Peak level 90.8 %
Extraction speed 3.2 X
Track quality 100.0 %
Test CRC B8111E6F
Copy CRC B8111E6F
Accurately ripped (confidence 4) [183712B2] (AR v2)
Copy OK

Track 6

Filename D:\CD\Various Artists - 70's Dinner Party (2008)\CD1\06. Baccara - Yes Sir, I Can Boogie.wav

Pre-gap length 0:00:00.57

Peak level 96.6 %
Extraction speed 3.5 X
Track quality 100.0 %
Test CRC 109F85E4
Copy CRC 109F85E4
Accurately ripped (confidence 4) [A76A676B] (AR v2)
Copy OK

Track 7

Filename D:\CD\Various Artists - 70's Dinner Party (2008)\CD1\07. Raffaella Carra - Do It, Do It Again.wav

Pre-gap length 0:00:00.66

Peak level 99.8 %
Extraction speed 3.4 X
Track quality 100.0 %
Test CRC B6A57A82
Copy CRC B6A57A82
Accurately ripped (confidence 4) [7391CD7D] (AR v2)
Copy OK

Track 8

Filename D:\CD\Various Artists - 70's Dinner Party (2008)\CD1\08. La Belle Epoque - Black Is Black.wav

Pre-gap length 0:00:01.17

Peak level 100.0 %
Extraction speed 3.9 X
Track quality 100.0 %
Test CRC 489B9C47
Copy CRC 489B9C47
Accurately ripped (confidence 4) [DE811538] (AR v2)
Copy OK

Track 9

Filename D:\CD\Various Artists - 70's Dinner Party (2008)\CD1\09. Carole Bayer Sager - You're Moving Out Today.wav

Pre-gap length 0:00:01.51

Peak level 100.0 %
Extraction speed 3.9 X
Track quality 100.0 %
Test CRC 31155532
Copy CRC 31155532
Accurately ripped (confidence 4) [F42CF53E] (AR v2)
Copy OK

Track 10

Filename D:\CD\Various Artists - 70's Dinner Party (2008)\CD1\10. Electric Light Orchestra - Livin' Thing.wav

Pre-gap length 0:00:00.66

Peak level 99.8 %
Extraction speed 3.6 X
Track quality 99.9 %
Test CRC BB3F55A4
Copy CRC BB3F55A4
Accurately ripped (confidence 4) [E4D99326] (AR v2)
Copy OK

Track 11

Filename D:\CD\Various Artists - 70's Dinner Party (2008)\CD1\11. Chicago - If You Leave Me Now.wav

Pre-gap length 0:00:00.54

Peak level 98.8 %
Extraction speed 4.3 X
Track quality 100.0 %
Test CRC 650CFD62
Copy CRC 650CFD62
Accurately ripped (confidence 4) [B22AA7E2] (AR v2)
Copy OK

Track 12

Filename D:\CD\Various Artists - 70's Dinner Party (2008)\CD1\12. Kiki Dee - Amoureuse.wav

Pre-gap length 0:00:01.51

Peak level 97.7 %
Extraction speed 4.4 X
Track quality 100.0 %
Test CRC 115609AC
Copy CRC 115609AC
Accurately ripped (confidence 4) [2DAF8E17] (AR v2)
Copy OK

Track 13

Filename D:\CD\Various Artists - 70's Dinner Party (2008)\CD1\13. Drupi - Vado Via.wav

Pre-gap length 0:00:01.51

Peak level 93.2 %
Extraction speed 4.6 X
Track quality 100.0 %
Test CRC C140A2B2
Copy CRC C140A2B2
Accurately ripped (confidence 4) [5BAC08F5] (AR v2)
Copy OK

Track 14

Filename D:\CD\Various Artists - 70's Dinner Party (2008)\CD1\14. Crystal Gayle - Don't It Make My Brown Eyes Blue.wav

Pre-gap length 0:00:01.51

Peak level 99.8 %
Extraction speed 3.6 X
Track quality 99.9 %
Test CRC BE057FAC
Copy CRC BE057FAC
Accurately ripped (confidence 4) [80822525] (AR v2)
Copy OK

Track 15

Filename D:\CD\Various Artists - 70's Dinner Party (2008)\CD1\15. The Three Degrees - When Will I See You Again.wav

Pre-gap length 0:00:01.15

Peak level 99.8 %
Extraction speed 4.0 X
Track quality 99.9 %
Test CRC 22F916E0
Copy CRC 22F916E0
Accurately ripped (confidence 4) [12F90A6E] (AR v2)
Copy OK

Track 16

Filename D:\CD\Various Artists - 70's Dinner Party (2008)\CD1\16. Minnie Riperton - Lovin' You.wav

Pre-gap length 0:00:01.51

Peak level 99.8 %
Extraction speed 4.8 X
Track quality 100.0 %
Test CRC B75E361A
Copy CRC B75E361A
Accurately ripped (confidence 4) [005E6455] (AR v2)
Copy OK

Track 17

Filename D:\CD\Various Artists - 70's Dinner Party (2008)\CD1\17. Frankie Valli - My Eyes Adored You.wav

Pre-gap length 0:00:01.24

Peak level 99.8 %
Extraction speed 4.9 X
Track quality 100.0 %
Test CRC 088238B2
Copy CRC 088238B2
Accurately ripped (confidence 4) [4E7AE286] (AR v2)
Copy OK

Track 18

Filename D:\CD\Various Artists - 70's Dinner Party (2008)\CD1\18. Art Garfunkel - I Only Have Eyes For You.wav

Pre-gap length 0:00:00.30

Peak level 99.8 %
Extraction speed 5.0 X
Track quality 100.0 %
Test CRC 37461C82
Copy CRC 37461C82
Accurately ripped (confidence 4) [1A510C52] (AR v2)
Copy OK


All tracks accurately ripped

No errors occurred

End of status report

–– CUETools DB Plugin V2.1.3

[CTDB TOCID: WqrlB2zj9lfW3IWpfFeWdbQ9zGY-] found, Submit result: WqrlB2zj9lfW3IWpfFeWdbQ9zGY- has been confirmed
[72964e66] (8/8) Accurately ripped


==== Log checksum 8F5E1559A943265C27B223B03847142093F10AAE2D2338AF9D025898DE9D3237 ====

[CUETools log; Date: 29.11.2018 15:20:37; Version: 2.1.4]
[CTDB TOCID: WqrlB2zj9lfW3IWpfFeWdbQ9zGY-] found.
Track | CTDB Status
1 | (9/9) Accurately ripped
2 | (9/9) Accurately ripped
3 | (9/9) Accurately ripped
4 | (9/9) Accurately ripped
5 | (9/9) Accurately ripped
6 | (9/9) Accurately ripped
7 | (9/9) Accurately ripped
8 | (9/9) Accurately ripped
9 | (9/9) Accurately ripped
10 | (9/9) Accurately ripped
11 | (9/9) Accurately ripped
12 | (9/9) Accurately ripped
13 | (9/9) Accurately ripped
14 | (9/9) Accurately ripped
15 | (9/9) Accurately ripped
16 | (9/9) Accurately ripped
17 | (9/9) Accurately ripped
18 | (9/9) Accurately ripped
[AccurateRip ID: 002b2274-0240a312-fc0f5d12] found.
Track [ CRC | V2 ] Status
01 [04a5ff6a|b76b0875] (09+09/18) Accurately ripped
02 [f8b77973|57da8b10] (09+09/18) Accurately ripped
03 [8620938f|092c77f0] (09+09/18) Accurately ripped
04 [4910c10b|d87c2d6e] (09+09/18) Accurately ripped
05 [2c03b245|183712b2] (09+09/18) Accurately ripped
06 [d703a300|a76a676b] (09+09/18) Accurately ripped
07 [40c9fdc4|7391cd7d] (08+09/17) Accurately ripped
08 [a8ac129d|de811538] (09+09/18) Accurately ripped
09 [10492dfa|f42cf53e] (09+09/18) Accurately ripped
10 [ba2ff117|e4d99326] (09+09/18) Accurately ripped
11 [73e76f53|b22aa7e2] (09+09/18) Accurately ripped
12 [34977177|2daf8e17] (09+09/18) Accurately ripped
13 [e65d1cfb|5bac08f5] (09+09/18) Accurately ripped
14 [1f9a9d6d|80822525] (08+09/17) Accurately ripped
15 [6e643bc8|12f90a6e] (09+09/18) Accurately ripped
16 [bb4ad8f2|005e6455] (09+09/18) Accurately ripped
17 [94932275|4e7ae286] (09+09/18) Accurately ripped
18 [b2a79858|1a510c52] (09+09/18) Accurately ripped

Track Peak [ CRC32 ] [W/O NULL] [ LOG ]
– 100,0 [4E11B8AD] [22361E1B]
01 99,8 [250AFBB7] [B79F5AAF] CRC32
02 83,1 [8DD1E3B8] [35D83E48] CRC32
03 100,0 [6B2281DB] [2AE69F1A] CRC32
04 99,8 [2B0A604D] [7720D898] CRC32
05 90,8 [B8111E6F] [0BB2A149] CRC32
06 96,6 [109F85E4] [363D2D5A] CRC32
07 99,8 [B6A57A82] [04A897CD] CRC32
08 100,0 [489B9C47] [07E16A66] CRC32
09 100,0 [31155532] [637DCB50] CRC32
10 99,8 [BB3F55A4] [21B0B4C2] CRC32
11 98,8 [650CFD62] [68049951] CRC32
12 97,7 [115609AC] [4BE3BF66] CRC32
13 93,2 [C140A2B2] [C74EE9B2] CRC32
14 99,8 [BE057FAC] [C4F42A07] CRC32
15 99,8 [22F916E0] [B996A285] CRC32
16 99,8 [B75E361A] [A9E37793] CRC32
17 99,8 [088238B2] [A5CFD19A] CRC32
18 99,8 [37461C82] [05016435] CRC32

foobar2000 1.2 / Dynamic Range Meter 1.1.1
log date: 2018-11-29 15:22:19

––––––––––––––––––––––––––––––––––––––––
Analyzed: Art Garfunkel / 70's Dinner Party (1)
Baccara / 70's Dinner Party (2)
Carole Bayer Sager / 70's Dinner Party (3)
Chicago / 70's Dinner Party (4)
Crystal Gayle / 70's Dinner Party (5)
David Soul / 70's Dinner Party (6)
Dean Friedman With Denise Marsa / 70's Dinner Party (7)
Demis Roussos / 70's Dinner Party (8)
Donna Summer / 70's Dinner Party (9)
Drupi / 70's Dinner Party (10)
Electric Light Orchestra / 70's Dinner Party (11)
Frankie Valli / 70's Dinner Party (12)
Kiki Dee / 70's Dinner Party (13)
La Belle Epoque / 70's Dinner Party (14)
Manhattan Transfer / 70's Dinner Party (15)
Minnie Riperton / 70's Dinner Party (16)
Raffaella Carra / 70's Dinner Party (17)
The Three Degrees / 70's Dinner Party (18)
––––––––––––––––––––––––––––––––––––––––

DR Peak RMS Duration Track
––––––––––––––––––––––––––––––––––––––––
DR11 -0.01 dB -13.32 dB 3:42 18-I Only Have Eyes For You
DR9 -0.30 dB -10.39 dB 4:35 06-Yes Sir, I Can Boogie
DR10 0.00 dB -11.34 dB 3:34 09-You're Moving Out Today
DR10 -0.10 dB -11.67 dB 3:55 11-If You Leave Me Now
DR11 -0.01 dB -12.39 dB 2:31 14-Don't It Make My Brown Eyes Blue
DR10 0.00 dB -12.25 dB 3:37 03-Don't Give Up On Us
DR10 -0.01 dB -13.00 dB 4:01 04-Lucky Stars
DR8 -1.60 dB -11.09 dB 3:37 02-Forever And Ever
DR10 -0.83 dB -12.80 dB 3:23 05-Love To Love You
DR7 -0.61 dB -11.53 dB 4:05 13-Vado Via
DR9 -0.01 dB -11.72 dB 3:33 10-Livin' Thing
DR11 -0.01 dB -14.57 dB 3:32 17-My Eyes Adored You
DR8 -0.20 dB -11.66 dB 4:08 12-Amoureuse
DR9 0.00 dB -10.53 dB 5:11 08-Black Is Black
DR9 -0.01 dB -11.93 dB 2:57 01-Chanson D'Amour
DR9 -0.01 dB -11.42 dB 3:23 16-Lovin' You
DR8 -0.01 dB -10.58 dB 2:45 07-Do It, Do It Again
DR8 -0.01 dB -11.16 dB 3:02 15-When Will I See You Again
––––––––––––––––––––––––––––––––––––––––

Number of tracks: 18
Official DR value: DR9

Samplerate: 44100 Hz
Channels: 2
Bits per sample: 16
Bitrate: 851 kbps
Codec: FLAC
================================================================================


Exact Audio Copy V1.0 beta 3 from 29. August 2011

EAC extraction logfile from 2. December 2014, 22:33

Various Artists / 70's Dinner Party: (Disc 2 of 3)

Used drive : Optiarc DVD RW AD-7280S Adapter: 3 ID: 0

Read mode : Secure
Utilize accurate stream : Yes
Defeat audio cache : Yes
Make use of C2 pointers : No

Read offset correction : 48
Overread into Lead-In and Lead-Out : No
Fill up missing offset samples with silence : Yes
Delete leading and trailing silent blocks : No
Null samples used in CRC calculations : Yes
Used interface : Native Win32 interface for Win NT & 2000
Gap handling : Appended to previous track

Used output format : User Defined Encoder
Selected bitrate : 768 kBit/s
Quality : High
Add ID3 tag : No
Command line compressor : C:\Program Files\Exact Audio Copy\Flac\flac.exe
Additional command line options : -V -8 -T "Genre=%genre%" -T "Artist=%artist%" -T "Title=%title%" -T "Album=%albumtitle%" -T "Date=%year%" -T "Tracknumber=%tracknr%" -T "Comment=%comment%" %source%


TOC of the extracted CD

Track | Start | Length | Start sector | End sector
––––––––––––––––––––––––––––-
1 | 0:00.00 | 3:49.46 | 0 | 17220
2 | 3:49.46 | 3:28.18 | 17221 | 32838
3 | 7:17.64 | 2:55.62 | 32839 | 46025
4 | 10:13.51 | 3:07.14 | 46026 | 60064
5 | 13:20.65 | 2:53.48 | 60065 | 73087
6 | 16:14.38 | 3:40.53 | 73088 | 89640
7 | 19:55.16 | 3:10.66 | 89641 | 103956
8 | 23:06.07 | 3:14.64 | 103957 | 118570
9 | 26:20.71 | 3:10.15 | 118571 | 132835
10 | 29:31.11 | 3:19.00 | 132836 | 147760
11 | 32:50.11 | 3:19.10 | 147761 | 162695
12 | 36:09.21 | 4:33.43 | 162696 | 183213
13 | 40:42.64 | 3:26.63 | 183214 | 198726
14 | 44:09.52 | 3:54.55 | 198727 | 216331
15 | 48:04.32 | 2:56.31 | 216332 | 229562
16 | 51:00.63 | 3:31.03 | 229563 | 245390
17 | 54:31.66 | 3:03.60 | 245391 | 259175
18 | 57:35.51 | 1:59.61 | 259176 | 268161


Track 1

Filename D:\CD\Various Artists - 70's Dinner Party (2008)\CD2\01. Captain & Tennille - Do That To Me One More Time.wav

Pre-gap length 0:00:02.00

Peak level 99.8 %
Extraction speed 2.3 X
Track quality 100.0 %
Test CRC A8F4465A
Copy CRC A8F4465A
Accurately ripped (confidence 4) [ED0C9769] (AR v2)
Copy OK

Track 2

Filename D:\CD\Various Artists - 70's Dinner Party (2008)\CD2\02. Helen Reddy - Angie Baby.wav

Pre-gap length 0:00:00.64

Peak level 99.8 %
Extraction speed 2.5 X
Track quality 100.0 %
Test CRC 934A23A4
Copy CRC 934A23A4
Accurately ripped (confidence 4) [D7EAAAC2] (AR v2)
Copy OK

Track 3

Filename D:\CD\Various Artists - 70's Dinner Party (2008)\CD2\03. Dolly Parton - Here You Come Again.wav

Pre-gap length 0:00:01.15

Peak level 82.7 %
Extraction speed 2.6 X
Track quality 100.0 %
Test CRC 9B18D2EF
Copy CRC 9B18D2EF
Accurately ripped (confidence 4) [C28AA61D] (AR v2)
Copy OK

Track 4

Filename D:\CD\Various Artists - 70's Dinner Party (2008)\CD2\04. Barry Manilow - Daybreak.wav

Pre-gap length 0:00:00.39

Peak level 97.3 %
Extraction speed 2.8 X
Track quality 100.0 %
Test CRC C1910CFE
Copy CRC C1910CFE
Accurately ripped (confidence 4) [F11D6964] (AR v2)
Copy OK

Track 5

Filename D:\CD\Various Artists - 70's Dinner Party (2008)\CD2\05. Tom Jones - She's A Lady.wav

Pre-gap length 0:00:01.24

Peak level 92.2 %
Extraction speed 2.5 X
Track quality 99.9 %
Test CRC 96E7A23C
Copy CRC 96E7A23C
Accurately ripped (confidence 4) [A4C5166A] (AR v2)
Copy OK

Track 6

Filename D:\CD\Various Artists - 70's Dinner Party (2008)\CD2\06. Biddu - Summer Of '42.wav

Pre-gap length 0:00:02.16

Peak level 93.8 %
Extraction speed 3.2 X
Track quality 100.0 %
Test CRC 48D1ED81
Copy CRC 48D1ED81
Accurately ripped (confidence 4) [22A07B70] (AR v2)
Copy OK

Track 7

Filename D:\CD\Various Artists - 70's Dinner Party (2008)\CD2\07. The New Edition - Get A Little Sand Between Your Toes.wav

Pre-gap length 0:00:01.51

Peak level 99.8 %
Extraction speed 2.9 X
Track quality 99.9 %
Test CRC E4E8C8CD
Copy CRC E4E8C8CD
Accurately ripped (confidence 4) [1D8D0A6E] (AR v2)
Copy OK

Track 8

Filename D:\CD\Various Artists - 70's Dinner Party (2008)\CD2\08. Guys 'N' Dolls - There's A Whole Lot Of Loving.wav

Pre-gap length 0:00:01.33

Peak level 99.8 %
Extraction speed 3.0 X
Track quality 99.9 %
Test CRC 5988512E
Copy CRC 5988512E
Accurately ripped (confidence 4) [91C0A5C2] (AR v2)
Copy OK

Track 9

Filename D:\CD\Various Artists - 70's Dinner Party (2008)\CD2\09. The New Seekers - You Won't Find Another Fool Like Me.wav

Pre-gap length 0:00:01.51

Peak level 90.9 %
Extraction speed 3.1 X
Track quality 99.9 %
Test CRC 73356903
Copy CRC 73356903
Accurately ripped (confidence 4) [720D8683] (AR v2)
Copy OK

Track 10

Filename D:\CD\Various Artists - 70's Dinner Party (2008)\CD2\10. 10CC - The Things We Do For Love.wav

Pre-gap length 0:00:01.21

Peak level 93.5 %
Extraction speed 3.8 X
Track quality 100.0 %
Test CRC E1E09EB0
Copy CRC E1E09EB0
Accurately ripped (confidence 4) [F44CF3CB] (AR v2)
Copy OK

Track 11

Filename D:\CD\Various Artists - 70's Dinner Party (2008)\CD2\11. Nilsson - Without You.wav

Pre-gap length 0:00:01.12

Peak level 98.9 %
Extraction speed 3.9 X
Track quality 100.0 %
Test CRC D42AD060
Copy CRC D42AD060
Accurately ripped (confidence 4) [35FEF688] (AR v2)
Copy OK

Track 12

Filename D:\CD\Various Artists - 70's Dinner Party (2008)\CD2\12. Eric Carmen - All By Myself.wav

Pre-gap length 0:00:01.05

Peak level 95.3 %
Extraction speed 3.8 X
Track quality 99.9 %
Test CRC 332E0B78
Copy CRC 332E0B78
Accurately ripped (confidence 4) [2FBCE446] (AR v2)
Copy OK

Track 13

Filename D:\CD\Various Artists - 70's Dinner Party (2008)\CD2\13. Andrew Gold - Never Let Her Slip Away.wav

Pre-gap length 0:00:01.69

Peak level 93.2 %
Extraction speed 3.7 X
Track quality 99.9 %
Test CRC 505B3041
Copy CRC 505B3041
Accurately ripped (confidence 4) [D734ED16] (AR v2)
Copy OK

Track 14

Filename D:\CD\Various Artists - 70's Dinner Party (2008)\CD2\14. Samantha Sang - Emotion.wav

Pre-gap length 0:00:00.54

Peak level 99.8 %
Extraction speed 3.9 X
Track quality 99.9 %
Test CRC 0CDB11A2
Copy CRC 0CDB11A2
Accurately ripped (confidence 4) [D3129090] (AR v2)
Copy OK

Track 15

Filename D:\CD\Various Artists - 70's Dinner Party (2008)\CD2\15. Bernie Flint - I Don't Want To Put A Hold On You.wav

Pre-gap length 0:00:01.51

Peak level 99.8 %
Extraction speed 4.3 X
Track quality 100.0 %
Test CRC 8297A08D
Copy CRC 8297A08D
Accurately ripped (confidence 4) [A0ED46B0] (AR v2)
Copy OK

Track 16

Filename D:\CD\Various Artists - 70's Dinner Party (2008)\CD2\16. Sally Oldfield - Mirrors.wav

Pre-gap length 0:00:01.51

Peak level 99.8 %
Extraction speed 4.5 X
Track quality 100.0 %
Test CRC 9DC55979
Copy CRC 9DC55979
Accurately ripped (confidence 4) [B20D3CC6] (AR v2)
Copy OK

Track 17

Filename D:\CD\Various Artists - 70's Dinner Party (2008)\CD2\17. Sailor - Girls, Girls, Girls.wav

Pre-gap length 0:00:00.69

Peak level 91.2 %
Extraction speed 4.6 X
Track quality 100.0 %
Test CRC 62636181
Copy CRC 62636181
Accurately ripped (confidence 4) [CE607394] (AR v2)
Copy OK

Track 18

Filename D:\CD\Various Artists - 70's Dinner Party (2008)\CD2\18. Meri Wilson - Telephone Man.wav

Pre-gap length 0:00:01.28

Peak level 89.7 %
Extraction speed 4.2 X
Track quality 100.0 %
Test CRC D43367C1
Copy CRC D43367C1
Accurately ripped (confidence 4) [D9054922] (AR v2)
Copy OK


All tracks accurately ripped

No errors occurred

End of status report

–– CUETools DB Plugin V2.1.3

[CTDB TOCID: H3ShZ2im_v1PzCy6jqdQgXy41wE-] found, Submit result: H3ShZ2im_v1PzCy6jqdQgXy41wE- has been confirmed
[7cf26953] (10/10) Accurately ripped


==== Log checksum 5F051654D07CA71235F03E72C6F25880687854DBEBC7DB9B7B4F213E967051B0 ====

[CUETools log; Date: 29.11.2018 15:21:13; Version: 2.1.4]
[CTDB TOCID: H3ShZ2im_v1PzCy6jqdQgXy41wE-] found.
Track | CTDB Status
1 | (10/10) Accurately ripped
2 | (10/10) Accurately ripped
3 | (10/10) Accurately ripped
4 | (10/10) Accurately ripped
5 | (10/10) Accurately ripped
6 | (10/10) Accurately ripped
7 | (10/10) Accurately ripped
8 | (10/10) Accurately ripped
9 | (10/10) Accurately ripped
10 | (10/10) Accurately ripped
11 | (10/10) Accurately ripped
12 | (10/10) Accurately ripped
13 | (10/10) Accurately ripped
14 | (10/10) Accurately ripped
15 | (10/10) Accurately ripped
16 | (10/10) Accurately ripped
17 | (10/10) Accurately ripped
18 | (10/10) Accurately ripped
[AccurateRip ID: 002772b2-020e75eb-0c0df712] found.
Track [ CRC | V2 ] Status
01 [e3c84711|ed0c9769] (10+10/20) Accurately ripped
02 [a148ee18|d7eaaac2] (10+10/20) Accurately ripped
03 [6ab71114|c28aa61d] (10+10/20) Accurately ripped
04 [d2efb0d3|f11d6964] (10+09/19) Accurately ripped
05 [d15ee63d|a4c5166a] (10+09/19) Accurately ripped
06 [96795d79|22a07b70] (10+10/20) Accurately ripped
07 [db677a6c|1d8d0a6e] (10+10/20) Accurately ripped
08 [e1d2c19a|91c0a5c2] (10+10/20) Accurately ripped
09 [7e1559c2|720d8683] (10+10/20) Accurately ripped
10 [742f2834|f44cf3cb] (10+10/20) Accurately ripped
11 [e45a7fe2|35fef688] (10+10/20) Accurately ripped
12 [2cbf072f|2fbce446] (10+10/20) Accurately ripped
13 [37d3f4ad|d734ed16] (10+10/20) Accurately ripped
14 [8d36971c|d3129090] (09+10/19) Accurately ripped
15 [c3c5bd8a|a0ed46b0] (10+10/20) Accurately ripped
16 [1b5151d3|b20d3cc6] (10+10/20) Accurately ripped
17 [cec8d0ca|ce607394] (09+10/19) Accurately ripped
18 [c1c986f9|d9054922] (10+10/20) Accurately ripped

Track Peak [ CRC32 ] [W/O NULL] [ LOG ]
– 99,8 [76A28A69] [E41A05F2]
01 99,8 [A8F4465A] [08A96446] CRC32
02 99,8 [934A23A4] [2CE0B2A2] CRC32
03 82,7 [9B18D2EF] [DD3C4C79] CRC32
04 97,3 [C1910CFE] [E8A8CB20] CRC32
05 92,2 [96E7A23C] [C2BCFED5] CRC32
06 93,8 [48D1ED81] [4F473B29] CRC32
07 99,8 [E4E8C8CD] [73FAB159] CRC32
08 99,8 [5988512E] [7C17F0AC] CRC32
09 90,9 [73356903] [162BEAC1] CRC32
10 93,5 [E1E09EB0] [6F3B6129] CRC32
11 98,9 [D42AD060] [E3FBBA20] CRC32
12 95,3 [332E0B78] [5ADDD187] CRC32
13 93,2 [505B3041] [21A3A6F7] CRC32
14 99,8 [0CDB11A2] [17B0400B] CRC32
15 99,8 [8297A08D] [3C9929AC] CRC32
16 99,8 [9DC55979] [BED8678B] CRC32
17 91,2 [62636181] [CB9E8974] CRC32
18 89,7 [D43367C1] [A7534FFB] CRC32

foobar2000 1.2 / Dynamic Range Meter 1.1.1
log date: 2018-11-29 15:22:49

––––––––––––––––––––––––––––––––––––––––
Analyzed: 10CC / 70's Dinner Party: (Disc 2 of 3) (1)
Andrew Gold / 70's Dinner Party: (Disc 2 of 3) (2)
Barry Manilow / 70's Dinner Party: (Disc 2 of 3) (3)
Bernie Flint / 70's Dinner Party: (Disc 2 of 3) (4)
Biddu / 70's Dinner Party: (Disc 2 of 3) (5)
Captain & Tennille / 70's Dinner Party: (Disc 2 of 3) (6)
Dolly Parton / 70's Dinner Party: (Disc 2 of 3) (7)
Eric Carmen / 70's Dinner Party: (Disc 2 of 3) (8)
Guys 'N' Dolls / 70's Dinner Party: (Disc 2 of 3) (9)
Helen Reddy / 70's Dinner Party: (Disc 2 of 3) (10)
Meri Wilson / 70's Dinner Party: (Disc 2 of 3) (11)
Nilsson / 70's Dinner Party: (Disc 2 of 3) (12)
Sailor / 70's Dinner Party: (Disc 2 of 3) (13)
Sally Oldfield / 70's Dinner Party: (Disc 2 of 3) (14)
Samantha Sang / 70's Dinner Party: (Disc 2 of 3) (15)
The New Edition / 70's Dinner Party: (Disc 2 of 3) (16)
The New Seekers / 70's Dinner Party: (Disc 2 of 3) (17)
Tom Jones / 70's Dinner Party: (Disc 2 of 3) (18)
––––––––––––––––––––––––––––––––––––––––

DR Peak RMS Duration Track
––––––––––––––––––––––––––––––––––––––––
DR10 -0.58 dB -11.99 dB 3:19 10-The Things We Do For Love
DR9 -0.61 dB -12.08 dB 3:27 13-Never Let Her Slip Away
DR10 -0.24 dB -11.23 dB 3:07 04-Daybreak
DR11 -0.01 dB -13.08 dB 2:56 15-I Don't Want To Put A Hold On You
DR10 -0.55 dB -12.15 dB 3:41 06-Summer Of '42
DR10 -0.01 dB -12.43 dB 3:50 01-Do That To Me One More Time
DR8 -1.65 dB -12.01 dB 2:56 03-Here You Come Again
DR10 -0.41 dB -14.17 dB 4:34 12-All By Myself
DR10 -0.01 dB -11.87 dB 3:15 08-There's A Whole Lot Of Loving
DR11 -0.01 dB -13.10 dB 3:28 02-Angie Baby
DR9 -0.94 dB -11.10 dB 2:00 18-Telephone Man
DR10 -0.10 dB -13.20 dB 3:19 11-Without You
DR9 -0.80 dB -11.49 dB 3:04 17-Girls, Girls, Girls
DR12 -0.01 dB -13.94 dB 3:31 16-Mirrors
DR11 -0.01 dB -13.36 dB 3:55 14-Emotion
DR9 -0.01 dB -10.75 dB 3:11 07-Get A Little Sand Between Your Toes
DR9 -0.82 dB -11.56 dB 3:10 09-You Won't Find Another Fool Like Me
DR7 -0.70 dB -9.54 dB 2:54 05-She's A Lady
––––––––––––––––––––––––––––––––––––––––

Number of tracks: 18
Official DR value: DR10

Samplerate: 44100 Hz
Channels: 2
Bits per sample: 16
Bitrate: 964 kbps
Codec: FLAC
================================================================================


Exact Audio Copy V1.0 beta 3 from 29. August 2011

EAC extraction logfile from 2. December 2014, 23:27

Various Artists / 70's Dinner Party CD 3

Used drive : Optiarc DVD RW AD-7280S Adapter: 3 ID: 0

Read mode : Secure
Utilize accurate stream : Yes
Defeat audio cache : Yes
Make use of C2 pointers : No

Read offset correction : 48
Overread into Lead-In and Lead-Out : No
Fill up missing offset samples with silence : Yes
Delete leading and trailing silent blocks : No
Null samples used in CRC calculations : Yes
Used interface : Native Win32 interface for Win NT & 2000
Gap handling : Appended to previous track

Used output format : User Defined Encoder
Selected bitrate : 768 kBit/s
Quality : High
Add ID3 tag : No
Command line compressor : C:\Program Files\Exact Audio Copy\Flac\flac.exe
Additional command line options : -V -8 -T "Genre=%genre%" -T "Artist=%artist%" -T "Title=%title%" -T "Album=%albumtitle%" -T "Date=%year%" -T "Tracknumber=%tracknr%" -T "Comment=%comment%" %source%


TOC of the extracted CD

Track | Start | Length | Start sector | End sector
––––––––––––––––––––––––––––-
1 | 0:00.00 | 3:41.58 | 0 | 16632
2 | 3:41.58 | 3:05.19 | 16633 | 30526
3 | 6:47.02 | 3:44.52 | 30527 | 47378
4 | 10:31.54 | 3:43.61 | 47379 | 64164
5 | 14:15.40 | 3:46.12 | 64165 | 81126
6 | 18:01.52 | 3:41.65 | 81127 | 97766
7 | 21:43.42 | 2:53.50 | 97767 | 110791
8 | 24:37.17 | 3:04.00 | 110792 | 124591
9 | 27:41.17 | 3:28.03 | 124592 | 140194
10 | 31:09.20 | 3:55.70 | 140195 | 157889
11 | 35:05.15 | 3:07.27 | 157890 | 171941
12 | 38:12.42 | 3:13.24 | 171942 | 186440
13 | 41:25.66 | 3:49.19 | 186441 | 203634
14 | 45:15.10 | 3:56.44 | 203635 | 221378
15 | 49:11.54 | 4:04.73 | 221379 | 239751
16 | 53:16.52 | 3:53.55 | 239752 | 257281
17 | 57:10.32 | 3:08.07 | 257282 | 271388
18 | 60:18.39 | 3:06.67 | 271389 | 285405


Track 1

Filename D:\CD\Various Artists - 70's Dinner Party (2008)\CD3\01. Leo Sayer - You Make Me Feel Like Dancing.wav

Pre-gap length 0:00:02.00

Peak level 100.0 %
Extraction speed 2.1 X
Track quality 99.9 %
Test CRC 9AC802D8
Copy CRC 9AC802D8
Accurately ripped (confidence 4) [1B52FF56] (AR v2)
Copy OK

Track 2

Filename D:\CD\Various Artists - 70's Dinner Party (2008)\CD3\02. Tina Charles - I Love To Love.wav

Pre-gap length 0:00:00.15

Peak level 99.8 %
Extraction speed 2.2 X
Track quality 99.9 %
Test CRC E8279DC0
Copy CRC E8279DC0
Accurately ripped (confidence 4) [32EA23A4] (AR v2)
Copy OK

Track 3

Filename D:\CD\Various Artists - 70's Dinner Party (2008)\CD3\03. Patsy Gallant - From New York To L.A..wav

Pre-gap length 0:00:01.51

Peak level 80.3 %
Extraction speed 2.8 X
Track quality 100.0 %
Test CRC F8627738
Copy CRC F8627738
Accurately ripped (confidence 4) [B2973069] (AR v2)
Copy OK

Track 4

Filename D:\CD\Various Artists - 70's Dinner Party (2008)\CD3\04. Patrick Juvet - Got A Feeling.wav

Pre-gap length 0:00:01.11

Peak level 99.9 %
Extraction speed 3.0 X
Track quality 100.0 %
Test CRC 06DA4C63
Copy CRC 06DA4C63
Accurately ripped (confidence 4) [C3131D68] (AR v2)
Copy OK

Track 5

Filename D:\CD\Various Artists - 70's Dinner Party (2008)\CD3\05. Marshall Hain - Dancing In The City.wav

Pre-gap length 0:00:00.45

Peak level 85.7 %
Extraction speed 3.2 X
Track quality 100.0 %
Test CRC D360A46E
Copy CRC D360A46E
Accurately ripped (confidence 4) [CE133351] (AR v2)
Copy OK

Track 6

Filename D:\CD\Various Artists - 70's Dinner Party (2008)\CD3\06. Boz Scaggs - Lido Shuffle.wav

Pre-gap length 0:00:01.35

Peak level 99.8 %
Extraction speed 3.4 X
Track quality 100.0 %
Test CRC D4ACEBC1
Copy CRC D4ACEBC1
Accurately ripped (confidence 4) [7620D06B] (AR v2)
Copy OK

Track 7

Filename D:\CD\Various Artists - 70's Dinner Party (2008)\CD3\07. Jigsaw - Sky High.wav

Pre-gap length 0:00:00.45

Peak level 95.5 %
Extraction speed 3.4 X
Track quality 100.0 %
Test CRC 5F094960
Copy CRC 5F094960
Accurately ripped (confidence 4) [44ADAE0A] (AR v2)
Copy OK

Track 8

Filename D:\CD\Various Artists - 70's Dinner Party (2008)\CD3\08. Pilot - Magic.wav

Pre-gap length 0:00:01.51

Peak level 75.0 %
Extraction speed 3.6 X
Track quality 100.0 %
Test CRC 3BB84E92
Copy CRC 3BB84E92
Accurately ripped (confidence 4) [A0E9D321] (AR v2)
Copy OK

Track 9

Filename D:\CD\Various Artists - 70's Dinner Party (2008)\CD3\09. Clout - Substitute.wav

Pre-gap length 0:00:01.51

Peak level 99.8 %
Extraction speed 3.8 X
Track quality 100.0 %
Test CRC 4D72A355
Copy CRC 4D72A355
Accurately ripped (confidence 4) [D0B17765] (AR v2)
Copy OK

Track 10

Filename D:\CD\Various Artists - 70's Dinner Party (2008)\CD3\10. Bonnie Tyler - Lost In France.wav

Pre-gap length 0:00:01.51

Peak level 99.8 %
Extraction speed 4.0 X
Track quality 100.0 %
Test CRC 940A0B49
Copy CRC 940A0B49
Accurately ripped (confidence 4) [B2D03EA7] (AR v2)
Copy OK

Track 11

Filename D:\CD\Various Artists - 70's Dinner Party (2008)\CD3\11. Dana - Fairytale.wav

Pre-gap length 0:00:00.42

Peak level 99.8 %
Extraction speed 4.0 X
Track quality 100.0 %
Test CRC 0DDAAC71
Copy CRC 0DDAAC71
Accurately ripped (confidence 4) [2233C697] (AR v2)
Copy OK

Track 12

Filename D:\CD\Various Artists - 70's Dinner Party (2008)\CD3\12. Stephanie De Sykes - Born With A Smile On My Face.wav

Pre-gap length 0:00:01.13

Peak level 94.4 %
Extraction speed 4.2 X
Track quality 100.0 %
Test CRC DC20A7DD
Copy CRC DC20A7DD
Accurately ripped (confidence 4) [20061462] (AR v2)
Copy OK

Track 13

Filename D:\CD\Various Artists - 70's Dinner Party (2008)\CD3\13. Scott Fitzgerald & Yvonne Keeley - If I Had Words.wav

Pre-gap length 0:00:01.51

Peak level 99.8 %
Extraction speed 4.4 X
Track quality 100.0 %
Test CRC F6F1F7AA
Copy CRC F6F1F7AA
Accurately ripped (confidence 4) [CCCBA912] (AR v2)
Copy OK

Track 14

Filename D:\CD\Various Artists - 70's Dinner Party (2008)\CD3\14. Liverpool Express - Every Man Must Have A Dream.wav

Pre-gap length 0:00:01.23

Peak level 100.0 %
Extraction speed 4.5 X
Track quality 100.0 %
Test CRC 0D5DBE4E
Copy CRC 0D5DBE4E
Accurately ripped (confidence 4) [5A7F77D4] (AR v2)
Copy OK

Track 15

Filename D:\CD\Various Artists - 70's Dinner Party (2008)\CD3\15. Sad Cafe - Every Day Hurts.wav

Pre-gap length 0:00:00.48

Peak level 99.9 %
Extraction speed 4.7 X
Track quality 100.0 %
Test CRC E511E7B9
Copy CRC E511E7B9
Accurately ripped (confidence 4) [D1043853] (AR v2)
Copy OK

Track 16

Filename D:\CD\Various Artists - 70's Dinner Party (2008)\CD3\16. Judie Tzuke - Stay With Me Till Dawn.wav

Pre-gap length 0:00:00.72

Peak level 100.0 %
Extraction speed 4.2 X
Track quality 99.9 %
Test CRC 2D5F2E0C
Copy CRC 2D5F2E0C
Accurately ripped (confidence 4) [AFE2DFB2] (AR v2)
Copy OK

Track 17

Filename D:\CD\Various Artists - 70's Dinner Party (2008)\CD3\17. Telly Savalas - If.wav

Pre-gap length 0:00:01.18

Peak level 99.8 %
Extraction speed 4.8 X
Track quality 100.0 %
Test CRC A84D9959
Copy CRC A84D9959
Accurately ripped (confidence 4) [91AEC8D6] (AR v2)
Copy OK

Track 18

Filename D:\CD\Various Artists - 70's Dinner Party (2008)\CD3\18. James Galway - Annie's Song.wav

Pre-gap length 0:00:01.51

Peak level 97.9 %
Extraction speed 4.1 X
Track quality 99.9 %
Test CRC 1FD32A56
Copy CRC 1FD32A56
Accurately ripped (confidence 4) [B4DD73E0] (AR v2)
Copy OK


All tracks accurately ripped

No errors occurred

End of status report

–– CUETools DB Plugin V2.1.3

[CTDB TOCID: todjb0oWCw.4ePCzSFJOolDpWC8-] found, Submit result: todjb0oWCw.4ePCzSFJOolDpWC8- has been confirmed
[0bcc44a8] (11/11) Accurately ripped


==== Log checksum FA0C8A203DCF80F71218BB8B7833D69E110CA84F3AEB215B086D6D97AB2C0ABD ====

[CUETools log; Date: 29.11.2018 15:21:36; Version: 2.1.4]
[CTDB TOCID: todjb0oWCw.4ePCzSFJOolDpWC8-] found.
Track | CTDB Status
1 | (9/9) Accurately ripped
2 | (9/9) Accurately ripped
3 | (9/9) Accurately ripped
4 | (9/9) Accurately ripped
5 | (9/9) Accurately ripped
6 | (9/9) Accurately ripped
7 | (9/9) Accurately ripped
8 | (9/9) Accurately ripped
9 | (9/9) Accurately ripped
10 | (9/9) Accurately ripped
11 | (9/9) Accurately ripped
12 | (9/9) Accurately ripped
13 | (9/9) Accurately ripped
14 | (9/9) Accurately ripped
15 | (9/9) Accurately ripped
16 | (9/9) Accurately ripped
17 | (9/9) Accurately ripped
18 | (9/9) Accurately ripped
[AccurateRip ID: 00295345-0227486e-020edd12] found.
Track [ CRC | V2 ] Status
01 [74cd74b2|1b52ff56] (10+09/19) Accurately ripped
02 [0be6ce74|32ea23a4] (10+09/19) Accurately ripped
03 [2af55821|b2973069] (10+09/19) Accurately ripped
04 [b7c17e4b|c3131d68] (10+09/19) Accurately ripped
05 [b80590db|ce133351] (10+09/19) Accurately ripped
06 [3080b329|7620d06b] (10+09/19) Accurately ripped
07 [e5aa3c06|44adae0a] (10+09/19) Accurately ripped
08 [c23965ec|a0e9d321] (10+09/19) Accurately ripped
09 [4782b6ac|d0b17765] (10+09/19) Accurately ripped
10 [e48a2c30|b2d03ea7] (10+09/19) Accurately ripped
11 [3544e1c7|2233c697] (10+09/19) Accurately ripped
12 [b240897a|20061462] (10+09/19) Accurately ripped
13 [c9736059|cccba912] (10+09/19) Accurately ripped
14 [a26a9935|5a7f77d4] (10+09/19) Accurately ripped
15 [b9d40d83|d1043853] (10+09/19) Accurately ripped
16 [604e9baa|afe2dfb2] (10+09/19) Accurately ripped
17 [46933765|91aec8d6] (10+09/19) Accurately ripped
18 [f04d5644|b4dd73e0] (10+09/19) Accurately ripped

Track Peak [ CRC32 ] [W/O NULL] [ LOG ]
– 100,0 [B04B543E] [6D93EC2A]
01 100,0 [9AC802D8] [EA124726] CRC32
02 99,8 [E8279DC0] [611FB6B7] CRC32
03 80,3 [F8627738] [7D4E56EF] CRC32
04 99,9 [06DA4C63] [AFEC432A] CRC32
05 85,7 [D360A46E] [84FCF65C] CRC32
06 99,8 [D4ACEBC1] [3CB338FE] CRC32
07 95,5 [5F094960] [759C99FB] CRC32
08 75,0 [3BB84E92] [DB68821A] CRC32
09 99,8 [4D72A355] [F62A9A75] CRC32
10 99,8 [940A0B49] [52441554] CRC32
11 99,8 [0DDAAC71] [9CDB41CD] CRC32
12 94,4 [DC20A7DD] [93BD9D79] CRC32
13 99,8 [F6F1F7AA] [9F03CF57] CRC32
14 100,0 [0D5DBE4E] [F947155E] CRC32
15 99,9 [E511E7B9] [FFF90B0D] CRC32
16 100,0 [2D5F2E0C] [C63D3E82] CRC32
17 99,8 [A84D9959] [65671306] CRC32
18 97,9 [1FD32A56] [94C3CAC0] CRC32

foobar2000 1.2 / Dynamic Range Meter 1.1.1
log date: 2018-11-29 15:23:24

––––––––––––––––––––––––––––––––––––––––
Analyzed: Bonnie Tyler / 70's Dinner Party CD 3 (1)
Boz Scaggs / 70's Dinner Party CD 3 (2)
Clout / 70's Dinner Party CD 3 (3)
Dana / 70's Dinner Party CD 3 (4)
James Galway / 70's Dinner Party CD 3 (5)
Jigsaw / 70's Dinner Party CD 3 (6)
Judie Tzuke / 70's Dinner Party CD 3 (7)
Leo Sayer / 70's Dinner Party CD 3 (8)
Liverpool Express / 70's Dinner Party CD 3 (9)
Marshall Hain / 70's Dinner Party CD 3 (10)
Patrick Juvet / 70's Dinner Party CD 3 (11)
Patsy Gallant / 70's Dinner Party CD 3 (12)
Pilot / 70's Dinner Party CD 3 (13)
Sad Cafe / 70's Dinner Party CD 3 (14)
Scott Fitzgerald & Yvonne Keeley / 70's Dinner Party CD 3 (15)
Stephanie De Sykes / 70's Dinner Party CD 3 (16)
Telly Savalas / 70's Dinner Party CD 3 (17)
Tina Charles / 70's Dinner Party CD 3 (18)
––––––––––––––––––––––––––––––––––––––––

DR Peak RMS Duration Track
––––––––––––––––––––––––––––––––––––––––
DR10 -0.01 dB -12.17 dB 3:56 10-Lost In France
DR9 -0.01 dB -11.20 dB 3:42 06-Lido Shuffle
DR9 -0.01 dB -10.92 dB 3:28 09-Substitute
DR9 -0.01 dB -10.98 dB 3:07 11-Fairytale
DR10 -0.18 dB -15.92 dB 3:07 18-Annie's Song
DR8 -0.40 dB -10.48 dB 2:54 07-Sky High
DR10 0.00 dB -13.00 dB 3:54 16-Stay With Me Till Dawn
DR10 0.00 dB -11.76 dB 3:42 01-You Make Me Feel Like Dancing
DR10 0.00 dB -12.28 dB 3:57 14-Every Man Must Have A Dream
DR9 -1.33 dB -12.82 dB 3:46 05-Dancing In The City
DR9 -0.01 dB -10.74 dB 3:44 04-Got A Feeling
DR7 -1.90 dB -10.69 dB 3:45 03-From New York To L.A.
DR7 -2.50 dB -10.56 dB 3:04 08-Magic
DR10 -0.01 dB -14.34 dB 4:05 15-Every Day Hurts
DR9 -0.01 dB -10.62 dB 3:49 13-If I Had Words
DR8 -0.50 dB -9.46 dB 3:13 12-Born With A Smile On My Face
DR15 -0.01 dB -18.13 dB 3:08 17-If
DR10 -0.01 dB -11.61 dB 3:05 02-I Love To Love
––––––––––––––––––––––––––––––––––––––––

Number of tracks: 18
Official DR value: DR9

Samplerate: 44100 Hz
Channels: 2
Bits per sample: 16
Bitrate: 934 kbps
Codec: FLAC
================================================================================

VA - 70's Dinner Party (2008) 3CD Set

All thanks to original releaser - bachelor-62

More interesting music in My Blog