Subcategories

VA - A Taste Of Honey: Gems From The Mercury Vaults 1962 (2013) 75 Original Recordings on 3 CDs

Posted By: Designol
VA - A Taste Of Honey: Gems From The Mercury Vaults 1962 (2013) 75 Original Recordings on 3 CDs

VA - A Taste Of Honey: Gems From The Mercury Vaults 1962 (2013)
75 Original Recordings on 3 CDs

EAC | FLAC | Tracks (Cue&Log) ~ 956 Mb | Scans ~ 42 Mb | Time: 03:02:05
Rock & Roll, Pop, Country, R&B, Doo-Wop, Jazz, Blues | Label: One Day | # DAY3CD028

Mercury Records was founded in 1945 and originally only signed black artists. By 1962, the year of our compilation, they had recruited a host of new artists of all hues which made Mercury the dominant force in jazz, blues, rock 'n' roll and pop in the US. These artists included Little Richard, Dolly Parton, George Jones, Jivin' Gene, Clyde McPhatter, Charles Aznavour, Quincy Jones, Patti Page, Ray Stevens and many more.

INTRODUCTION:

Mercury Records was founded in Chicago in 1945 by factory chief Irving Green, booking agent Berle Adams and advertising executive Arthur Talmadge. The label immediately went into direct competition with major recording companies Columbia, Decca, and RCA Victor thanks to setting up pressing plants in Chicago and St. Louis, Missouri.

Green’s experience in the plastic manufacturing trade made rapid expansion possible and it wasn’t long before production was in full swing, an automatic pressing system helping the label get off the ground quickly. Mercury also relied on its music being transmitted throughout the country via jukeboxes, a decision that not only proved cheaper than radio promotion but also gave the label an edge among young Americans.

Originally Mercury only signed black artists as it specialized in Chicago jazz and blues. In 1957, Mercury opened a Nashville-based country-music label as a joint venture with Starday Records, represented here by the very early George Jones and a very young teenager, Dolly Parton. Other major artists include Patti Page, Brook Benton, Clyde McPhatter, former lead singer of the Drifters, Dinah Washington and Little Richard. Johnny Preston was on the decline after Running Bear, while Ray Stevens’ star was on the rise. Stevens went on to have 34 charted hits on the Country chart.

The Year of 1962 was a landmark one for Mercury as it was bought by Consolidated Electronics Industries Corp. the US arm of Dutch electronics company Philips. This led to a line of phonographs (record players) made by Philips being marketed under the Mercury name. In 1972 Philips merged with two other German companies to become PolyGram, but the proud Mercury ‘winged messenger’ logo survived through artists as diverse as Rod Stewart, Bon Jovi and Noah and the Whale. Nowadays, Mercury Records is a record label operated in the UK by Virgin EMI Records and is part of the Island Def Jam Music Group in the US; both are subsidiaries of Universal Music Group, the world's biggest music corporation. Mercury is also Universal Music Group's oldest owned label in the company.

CONTENT:

This 3 CD set contains 75 songs, all original versions, with many rare gems. I have compiled a detailed song listing (including chart position, year and personal comments).

The audio is very well remastered, with great clean sound and no hiss.

FINAL THOUGHTS:

I am very thankful to One Day Music, a new reissue label from UK, who has released over 100 sets on various labels. And I am glad that I have purchased them all, and very happy with the many rare gems. Patti Page is one of my favourite female singers, and the songs in this compilation were her last ones on Mercury before she moved to Columbia. To listen to the early George Jones and young Dolly Parton was a special treat. If you listen to A Taste of Honey and On The Street Where You Lived by also a young Quincy Jones, the very smooth jazzy sound already cemented him as a music giant in the future. I am also glad to learn the trivia of Janet Jackson’s middle name came from their idol Damita Jo. In this set, the music is very enjoyable. The sound is also very well remastered, clean and vibrant, with great bass. This set is highly recommended.

Review by Dr. Joseph Lee, Amazon TOP 100 REVIEWER

VA - A Taste Of Honey: Gems From The Mercury Vaults 1962 (2013) 75 Original Recordings on 3 CDs

VA - A Taste Of Honey: Gems From The Mercury Vaults 1962 (2013) 75 Original Recordings on 3 CDs


Tracklist:

CD1:

01. Clyde McPhatter - Lover Please (2:00)
02. George Barnes - Spooky (2:25)
03. Johnny Preston - Kissin' Tree (1:49)
04. Jivin' Gene - Genie Bom Beanie (2:29)
05. Leroy Van Dyke - If a Woman Answers (Hang Up the Phone) (2:21)
06. Dolly Parton - It's Sure Gonna Hurt (2:18)
07. Little Richard - He Got What He Wanted (But He Lost What He Had) (2:42)
08. Brook Benton - Walk on the Wild Side (2:35)
09. Charles Aznavour - You've Got to Learn (3:31)
10. George Jones - Achin', Breakin' Heart (2:49)
11. The Platters - More Than You Know (2:06)
12. Bobby Scott - I Gotta Run (2:23)
13. Patti Page - Go on Home (2:31)
14. James O'Gwynn - You're Getting All over Me (2:07)
15. Young Jessie - Be Bop Country Boy (2:31)
16. The Chanteers - She's Coming Home (2:17)
17. Merle Kilgore - Lover's Hell (2:00)
18. Ray Stevens - Ahab the Arab (3:35)
19. Clyde McPhatter - Stop (2:03)
20. Jimmie Skinner - I Know You're Married (But I Love You Still) (2:02)
21. Ike Clanton - Sugar Plum (2:07)
22. Billy Eckstine - Guilty (3:07)
23. Damita Jo - Tennessee Waltz (2:30)
24. Paul Peek - Young Hearts (2:01)
25. Quincy Jones - A Taste of Honey (2:37)

CD2:

01. Dolly Parton - The Love You Gave (2:11)
02. Johnny Preston - Let's Leave It That Way (2:20)
03. Clyde McPhatter - Little Bitty Pretty One (2:18)
04. Brook Benton - Still Waters Run Deep (2:36)
05. The Chanteers - I Waited (2:25)
06. George Jones & Marge Singleton - Waltz of the Angels (2:44)
07. The Platters - It's Magic (2:33)
08. Michael Allen - A Boy with a Dream (2:26)
09. Ike Clanton - The Champ (2:01)
10. Leroy Van Dyke - I Sat Back and Let It Happen (2:17)
11. The Tides - Midnight Limbo (2:29)
12. Patti Page - The Boys Night Out (1:54)
13. Merle Kilgore - Ain't Nothin' But a Man (1:48)
14. Darrell McCall - Dear One (2:13)
15. David Carroll & His Orchestra - Little Pixie (1:56)
16. Jimmie Skinner - One Dead Man Ago (1:53)
17. Wally Wiggins - Little Old Lady That Lived in a Shoe (1:57)
18. Clyde McPhatter - I Do Believe (1:56)
19. James O'Gwynn - My Name Is Mud (2:26)
20. Claude Gray - You Take the Table (And I'll Take the Chairs) (2:42)
21. Dinah Washington - Cold, Cold Heart (3:21)
22. Ray Stevens - Furthermore (2:14)
23. Merv Griffin - House of Horrors (2:08)
24. Brook Benton - Hit Record (2:38)
25. Tommy Jackson - Sally Goodin (2:15)

CD3:

01. George Jones - When My Heart Hurts No More (2:08)
02. The Platters - Heartbreak (2:03)
03. Patti Page - Let's Cry Together (2:25)
04. Clyde McPhatter - Maybe (2:37)
05. Dinah Washington - I Want to Be Loved (2:53)
06. Quincy Jones - On the Street Where You Live (2:32)
07. George McCannon - Shy Boy (2:12)
08. Jerry Modine - A Stranger to Me (1:46)
09. Ike Clanton - Makin' Up (2:02)
10. Charles Aznavour - You've Let Yourself Go (3:42)
11. Johnny Preston - Let the Big Boss Man (Pull You Through) (1:51)
12. Brook Benton - Lie to Me (2:10)
13. Leroy Van Dyke - Black Cloud (2:15)
14. Little Richard - Do You Care (2:51)
15. Merle Kilgore - A Girl Named Liz (2:19)
16. David Atkinson - I Love a Fool (3:08)
17. Patti Page - Every Time I Hear Your Name (2:17)
18. George Jones & Margie Singleton - I Want to Be Where You're Gonna Be (1:55)
19. The Chanteers - Just a Little Boy (2:38)
20. Shirley Horn - Do It Again (2:58)
21. Ray Stevens - Saturday Night at the Movies (2:37)
22. Clyde McPhatter - The Best Man Cried (2:49)
23. Art Farmer - Raincheck (3:42)
24. Billy Eckstine - Till There Was You (3:19)
25. Rusty Draper - Tongue Tied over You (2:16)


Exact Audio Copy V1.3 from 2. September 2016

EAC extraction logfile from 18. January 2018, 18:39

Various / A Taste of Honey: Gems from the Mercury Vaults 1962 CD1

Used drive : ASUS DRW-24B1LT Adapter: 0 ID: 0

Read mode : Secure
Utilize accurate stream : Yes
Defeat audio cache : Yes
Make use of C2 pointers : No

Read offset correction : 6
Overread into Lead-In and Lead-Out : No
Fill up missing offset samples with silence : Yes
Delete leading and trailing silent blocks : No
Null samples used in CRC calculations : Yes
Used interface : Installed external ASPI interface
Gap handling : Appended to previous track

Used output format : User Defined Encoder
Selected bitrate : 768 kBit/s
Quality : High
Add ID3 tag : No
Command line compressor : C:\Program Files (x86)\Exact Audio Copy\Flac\flac.exe
Additional command line options : -8 -V -T "ARTIST=%artist%" -T "TITLE=%title%" -T "ALBUM=%albumtitle%" -T "DATE=%year%" -T "TRACKNUMBER=%tracknr%" -T "TOTALTRACKS=%numtracks%" -T "GENRE=%genre%" -T "ALBUMARTIST=%albumartist%" -T "ALBUM ARTIST=%albumartist%" -T "COMMENT=EAC Secure Mode, Test & Copy, AccurateRip, FLAC -8" %source%


TOC of the extracted CD

Track | Start | Length | Start sector | End sector
––––––––––––––––––––––––––––-
1 | 0:00.00 | 1:59.43 | 0 | 8967
2 | 1:59.43 | 2:25.33 | 8968 | 19875
3 | 4:25.01 | 1:48.45 | 19876 | 28020
4 | 6:13.46 | 2:28.73 | 28021 | 39193
5 | 8:42.44 | 2:20.73 | 39194 | 49766
6 | 11:03.42 | 2:18.16 | 49767 | 60132
7 | 13:21.58 | 2:42.03 | 60133 | 72285
8 | 16:03.61 | 2:34.74 | 72286 | 83909
9 | 18:38.60 | 3:30.61 | 83910 | 99720
10 | 22:09.46 | 2:49.09 | 99721 | 112404
11 | 24:58.55 | 2:06.31 | 112405 | 121885
12 | 27:05.11 | 2:23.25 | 121886 | 132635
13 | 29:28.36 | 2:31.08 | 132636 | 143968
14 | 31:59.44 | 2:07.22 | 143969 | 153515
15 | 34:06.66 | 2:31.29 | 153516 | 164869
16 | 36:38.20 | 2:16.50 | 164870 | 175119
17 | 38:54.70 | 1:59.49 | 175120 | 184093
18 | 40:54.44 | 3:34.67 | 184094 | 200210
19 | 44:29.36 | 2:03.21 | 200211 | 209456
20 | 46:32.57 | 2:01.61 | 209457 | 218592
21 | 48:34.43 | 2:06.64 | 218593 | 228106
22 | 50:41.32 | 3:07.34 | 228107 | 242165
23 | 53:48.66 | 2:30.26 | 242166 | 253441
24 | 56:19.17 | 2:01.18 | 253442 | 262534
25 | 58:20.35 | 2:36.54 | 262535 | 274288


Track 1

Filename F:\audio\01 - Clyde McPhatter - Lover Please.wav

Pre-gap length 0:00:02.00

Peak level 98.4 %
Extraction speed 3.3 X
Track quality 100.0 %
Test CRC D57E39A2
Copy CRC D57E39A2
Cannot be verified as accurate (confidence 4) [BE032555], AccurateRip returned [EF6FCF05] (AR v2)
Copy OK

Track 2

Filename F:\audio\02 - George Barnes - Spooky.wav

Pre-gap length 0:00:01.58

Peak level 98.6 %
Extraction speed 2.7 X
Track quality 99.9 %
Test CRC 86DF12D4
Copy CRC 86DF12D4
Cannot be verified as accurate (confidence 4) [9EE31843], AccurateRip returned [92687BFB] (AR v2)
Copy OK

Track 3

Filename F:\audio\03 - Johnny Preston - Kissin' Tree.wav

Pre-gap length 0:00:01.58

Peak level 98.3 %
Extraction speed 3.6 X
Track quality 100.0 %
Test CRC 5B5AAD75
Copy CRC 5B5AAD75
Cannot be verified as accurate (confidence 4) [60864DEF], AccurateRip returned [C7563A36] (AR v2)
Copy OK

Track 4

Filename F:\audio\04 - Jivin' Gene - Genie Bom Beanie.wav

Pre-gap length 0:00:01.58

Peak level 98.4 %
Extraction speed 4.0 X
Track quality 100.0 %
Test CRC F3050805
Copy CRC F3050805
Cannot be verified as accurate (confidence 4) [F9F5CF8D], AccurateRip returned [89165C88] (AR v2)
Copy OK

Track 5

Filename F:\audio\05 - Leroy Van Dyke - If a Woman Answers (Hang Up the Phone).wav

Pre-gap length 0:00:01.58

Peak level 98.5 %
Extraction speed 4.1 X
Track quality 100.0 %
Test CRC F2DDD868
Copy CRC F2DDD868
Cannot be verified as accurate (confidence 4) [C461D99D], AccurateRip returned [4C7CC043] (AR v2)
Copy OK

Track 6

Filename F:\audio\06 - Dolly Parton - It's Sure Gonna Hurt.wav

Pre-gap length 0:00:01.58

Peak level 98.5 %
Extraction speed 4.3 X
Track quality 100.0 %
Test CRC F382FB50
Copy CRC F382FB50
Cannot be verified as accurate (confidence 4) [008B72BF], AccurateRip returned [17D9CB45] (AR v2)
Copy OK

Track 7

Filename F:\audio\07 - Little Richard - He Got What He Wanted (But He Lost What He Had).wav

Pre-gap length 0:00:01.58

Peak level 98.3 %
Extraction speed 4.5 X
Track quality 100.0 %
Test CRC AF97D87B
Copy CRC AF97D87B
Cannot be verified as accurate (confidence 4) [3A6FD6BA], AccurateRip returned [1B3FF8AE] (AR v2)
Copy OK

Track 8

Filename F:\audio\08 - Brook Benton - Walk on the Wild Side.wav

Pre-gap length 0:00:01.58

Peak level 98.4 %
Extraction speed 4.7 X
Track quality 100.0 %
Test CRC 075A7E13
Copy CRC 075A7E13
Cannot be verified as accurate (confidence 4) [FB9AEB27], AccurateRip returned [7A85FBF5] (AR v2)
Copy OK

Track 9

Filename F:\audio\09 - Charles Aznavour - You've Got to Learn.wav

Pre-gap length 0:00:01.58

Peak level 98.3 %
Extraction speed 4.0 X
Track quality 99.9 %
Test CRC 6B754499
Copy CRC 6B754499
Cannot be verified as accurate (confidence 4) [1331D548], AccurateRip returned [FF120438] (AR v2)
Copy OK

Track 10

Filename F:\audio\10 - George Jones - Achin', Breakin' Heart.wav

Pre-gap length 0:00:01.58

Peak level 98.4 %
Extraction speed 5.1 X
Track quality 100.0 %
Test CRC 8EE155CA
Copy CRC 8EE155CA
Cannot be verified as accurate (confidence 4) [90C272DD], AccurateRip returned [C350EC24] (AR v2)
Copy OK

Track 11

Filename F:\audio\11 - The Platters - More Than You Know.wav

Pre-gap length 0:00:01.58

Peak level 98.5 %
Extraction speed 5.0 X
Track quality 100.0 %
Test CRC 6BF6C51D
Copy CRC 6BF6C51D
Cannot be verified as accurate (confidence 4) [662EF0A3], AccurateRip returned [73ACD5CD] (AR v2)
Copy OK

Track 12

Filename F:\audio\12 - Bobby Scott - I Gotta Run.wav

Pre-gap length 0:00:01.58

Peak level 98.6 %
Extraction speed 5.2 X
Track quality 100.0 %
Test CRC 95BC64A1
Copy CRC 95BC64A1
Cannot be verified as accurate (confidence 4) [C289DED7], AccurateRip returned [AC5515EC] (AR v2)
Copy OK

Track 13

Filename F:\audio\13 - Patti Page - Go on Home.wav

Pre-gap length 0:00:01.58

Peak level 98.3 %
Extraction speed 5.5 X
Track quality 100.0 %
Test CRC 57C3C399
Copy CRC 57C3C399
Cannot be verified as accurate (confidence 4) [6E1AC173], AccurateRip returned [E8D77884] (AR v2)
Copy OK

Track 14

Filename F:\audio\14 - James O'Gwynn - You're Getting All over Me.wav

Pre-gap length 0:00:01.58

Peak level 98.5 %
Extraction speed 5.3 X
Track quality 100.0 %
Test CRC 9FE273CC
Copy CRC 9FE273CC
Cannot be verified as accurate (confidence 4) [C07DDC7D], AccurateRip returned [A346F5F0] (AR v2)
Copy OK

Track 15

Filename F:\audio\15 - Young Jessie - Be Bop Country Boy.wav

Pre-gap length 0:00:01.58

Peak level 98.3 %
Extraction speed 4.1 X
Track quality 99.9 %
Test CRC B5434E35
Copy CRC B5434E35
Cannot be verified as accurate (confidence 4) [6F49CE4C], AccurateRip returned [2EEF194B] (AR v2)
Copy OK

Track 16

Filename F:\audio\16 - The Chanteers - She's Coming Home.wav

Pre-gap length 0:00:01.58

Peak level 98.4 %
Extraction speed 5.7 X
Track quality 100.0 %
Test CRC B87194CE
Copy CRC B87194CE
Cannot be verified as accurate (confidence 4) [43F907F5], AccurateRip returned [8B4D5604] (AR v2)
Copy OK

Track 17

Filename F:\audio\17 - Merle Kilgore - Lover's Hell.wav

Pre-gap length 0:00:01.58

Peak level 98.8 %
Extraction speed 5.6 X
Track quality 100.0 %
Test CRC 7217DBC2
Copy CRC 7217DBC2
Cannot be verified as accurate (confidence 4) [43F4D21E], AccurateRip returned [C18AC433] (AR v2)
Copy OK

Track 18

Filename F:\audio\18 - Ray Stevens - Ahab the Arab.wav

Pre-gap length 0:00:01.58

Peak level 98.4 %
Extraction speed 6.3 X
Track quality 100.0 %
Test CRC 09C129D2
Copy CRC 09C129D2
Cannot be verified as accurate (confidence 4) [B699BCA9], AccurateRip returned [74A238AE] (AR v2)
Copy OK

Track 19

Filename F:\audio\19 - Clyde McPhatter - Stop.wav

Pre-gap length 0:00:01.58

Peak level 98.3 %
Extraction speed 5.9 X
Track quality 100.0 %
Test CRC 64C0A206
Copy CRC 64C0A206
Cannot be verified as accurate (confidence 4) [412CE82B], AccurateRip returned [52EF322C] (AR v2)
Copy OK

Track 20

Filename F:\audio\20 - Jimmie Skinner - I Know You're Married (But I Love You Still).wav

Pre-gap length 0:00:01.58

Peak level 98.5 %
Extraction speed 4.1 X
Track quality 99.9 %
Test CRC B8B10C1A
Copy CRC B8B10C1A
Cannot be verified as accurate (confidence 4) [2ED9E236], AccurateRip returned [90121AF8] (AR v2)
Copy OK

Track 21

Filename F:\audio\21 - Ike Clanton - Sugar Plum.wav

Pre-gap length 0:00:01.58

Peak level 98.3 %
Extraction speed 6.1 X
Track quality 100.0 %
Test CRC BE571D86
Copy CRC BE571D86
Cannot be verified as accurate (confidence 4) [B78177C2], AccurateRip returned [17347380] (AR v2)
Copy OK

Track 22

Filename F:\audio\22 - Billy Eckstine - Guilty.wav

Pre-gap length 0:00:01.58

Peak level 98.3 %
Extraction speed 6.7 X
Track quality 100.0 %
Test CRC 42077A31
Copy CRC 42077A31
Cannot be verified as accurate (confidence 4) [E1547044], AccurateRip returned [44994933] (AR v2)
Copy OK

Track 23

Filename F:\audio\23 - Damita Jo - Tennessee Waltz.wav

Pre-gap length 0:00:01.58

Peak level 98.3 %
Extraction speed 6.6 X
Track quality 100.0 %
Test CRC 51347829
Copy CRC 51347829
Cannot be verified as accurate (confidence 4) [270B8738], AccurateRip returned [BC70AE47] (AR v2)
Copy OK

Track 24

Filename F:\audio\24 - Paul Peek - Young Hearts.wav

Pre-gap length 0:00:01.58

Peak level 98.3 %
Extraction speed 6.4 X
Track quality 100.0 %
Test CRC F5524396
Copy CRC F5524396
Cannot be verified as accurate (confidence 4) [AA0DAEB0], AccurateRip returned [DE871C99] (AR v2)
Copy OK

Track 25

Filename F:\audio\25 - Quincy Jones - A Taste of Honey.wav

Pre-gap length 0:00:01.58

Peak level 98.4 %
Extraction speed 5.0 X
Track quality 99.9 %
Test CRC 39ED5D34
Copy CRC 39ED5D34
Cannot be verified as accurate (confidence 4) [C29F4A6C], AccurateRip returned [AB8ADE15] (AR v2)
Copy OK


No tracks could be verified as accurate
You may have a different pressing from the one(s) in the database

No errors occurred

End of status report

–– CUETools DB Plugin V2.1.6

[CTDB TOCID: rLIKAfsFiahn8lZs_uAwRoFlyLI-] found
Submit result: rLIKAfsFiahn8lZs_uAwRoFlyLI- has been confirmed
Track | CTDB Status
1 | (3/3) Accurately ripped
2 | (3/3) Accurately ripped
3 | (3/3) Accurately ripped
4 | (3/3) Accurately ripped
5 | (3/3) Accurately ripped
6 | (3/3) Accurately ripped
7 | (3/3) Accurately ripped
8 | (3/3) Accurately ripped
9 | (3/3) Accurately ripped
10 | (3/3) Accurately ripped
11 | (3/3) Accurately ripped
12 | (3/3) Accurately ripped
13 | (3/3) Accurately ripped
14 | (3/3) Accurately ripped
15 | (3/3) Accurately ripped
16 | (3/3) Accurately ripped
17 | (3/3) Accurately ripped
18 | (3/3) Accurately ripped
19 | (3/3) Accurately ripped
20 | (3/3) Accurately ripped
21 | (3/3) Accurately ripped
22 | (3/3) Accurately ripped
23 | (3/3) Accurately ripped
24 | (3/3) Accurately ripped
25 | (3/3) Accurately ripped


==== Log checksum D4F78F7967DC3A59E5888F6FB3673118724CB9F659D50E8FB1A14982EFFA4464 ====

foobar2000 1.2 / Dynamic Range Meter 1.1.1
log date: 2018-01-19 15:43:59

––––––––––––––––––––––––––––––––––––––––
Analyzed: Billy Eckstine / A Taste of Honey: Gems from the Mercury Vaults 1962 CD1 (1)
Bobby Scott / A Taste of Honey: Gems from the Mercury Vaults 1962 CD1 (2)
Brook Benton / A Taste of Honey: Gems from the Mercury Vaults 1962 CD1 (3)
Charles Aznavour / A Taste of Honey: Gems from the Mercury Vaults 1962 CD1 (4)
Clyde McPhatter / A Taste of Honey: Gems from the Mercury Vaults 1962 CD1 (5-6)
Damita Jo / A Taste of Honey: Gems from the Mercury Vaults 1962 CD1 (7)
Dolly Parton / A Taste of Honey: Gems from the Mercury Vaults 1962 CD1 (8)
George Barnes / A Taste of Honey: Gems from the Mercury Vaults 1962 CD1 (9)
George Jones / A Taste of Honey: Gems from the Mercury Vaults 1962 CD1 (10)
Ike Clanton / A Taste of Honey: Gems from the Mercury Vaults 1962 CD1 (11)
James O'Gwynn / A Taste of Honey: Gems from the Mercury Vaults 1962 CD1 (12)
Jimmie Skinner / A Taste of Honey: Gems from the Mercury Vaults 1962 CD1 (13)
Jivin' Gene / A Taste of Honey: Gems from the Mercury Vaults 1962 CD1 (14)
Johnny Preston / A Taste of Honey: Gems from the Mercury Vaults 1962 CD1 (15)
Leroy Van Dyke / A Taste of Honey: Gems from the Mercury Vaults 1962 CD1 (16)
Little Richard / A Taste of Honey: Gems from the Mercury Vaults 1962 CD1 (17)
Merle Kilgore / A Taste of Honey: Gems from the Mercury Vaults 1962 CD1 (18)
Patti Page / A Taste of Honey: Gems from the Mercury Vaults 1962 CD1 (19)
Paul Peek / A Taste of Honey: Gems from the Mercury Vaults 1962 CD1 (20)
Quincy Jones / A Taste of Honey: Gems from the Mercury Vaults 1962 CD1 (21)
Ray Stevens / A Taste of Honey: Gems from the Mercury Vaults 1962 CD1 (22)
The Chanteers / A Taste of Honey: Gems from the Mercury Vaults 1962 CD1 (23)
The Platters / A Taste of Honey: Gems from the Mercury Vaults 1962 CD1 (24)
Young Jessie / A Taste of Honey: Gems from the Mercury Vaults 1962 CD1 (25)
––––––––––––––––––––––––––––––––––––––––

DR Peak RMS Duration Track
––––––––––––––––––––––––––––––––––––––––
DR8 -0.14 dB -10.52 dB 3:07 22-Guilty
DR8 -0.12 dB -10.00 dB 2:23 12-I Gotta Run
DR8 -0.14 dB -9.20 dB 2:35 08-Walk on the Wild Side
DR8 -0.14 dB -9.92 dB 3:31 09-You've Got to Learn
DR10 -0.14 dB -10.94 dB 2:00 01-Lover Please
DR10 -0.15 dB -11.05 dB 2:03 19-Stop
DR6 -0.15 dB -8.61 dB 2:30 23-Tennessee Waltz
DR8 -0.13 dB -9.25 dB 2:18 06-It's Sure Gonna Hurt
DR7 -0.12 dB -9.41 dB 2:25 02-Spooky
DR7 -0.14 dB -8.67 dB 2:49 10-Achin', Breakin' Heart
DR7 -0.15 dB -8.69 dB 2:07 21-Sugar Plum
DR9 -0.13 dB -9.74 dB 2:07 14-You're Getting All over Me
DR8 -0.12 dB -10.16 dB 2:02 20-I Know You're Married (But I Love You Still)
DR9 -0.14 dB -10.56 dB 2:29 04-Genie Bom Beanie
DR8 -0.15 dB -9.29 dB 1:49 03-Kissin' Tree
DR8 -0.13 dB -10.24 dB 2:21 05-If a Woman Answers (Hang Up the Phone)
DR6 -0.15 dB -7.45 dB 2:42 07-He Got What He Wanted (But He Lost What He Had)
DR8 -0.10 dB -9.00 dB 2:00 17-Lover's Hell
DR8 -0.15 dB -11.64 dB 2:31 13-Go on Home
DR8 -0.14 dB -9.62 dB 2:01 24-Young Hearts
DR8 -0.13 dB -10.44 dB 2:37 25-A Taste of Honey
DR10 -0.13 dB -12.42 dB 3:35 18-Ahab the Arab
DR6 -0.13 dB -7.92 dB 2:17 16-She's Coming Home
DR7 -0.13 dB -9.20 dB 2:06 11-More Than You Know
DR8 -0.14 dB -9.38 dB 2:31 15-Be Bop Country Boy
––––––––––––––––––––––––––––––––––––––––

Number of tracks: 25
Official DR value: DR8

Samplerate: 44100 Hz
Channels: 2
Bits per sample: 16
Bitrate: 774 kbps
Codec: FLAC
================================================================================


Exact Audio Copy V1.3 from 2. September 2016

EAC extraction logfile from 18. January 2018, 19:39

Various / A Taste of Honey: Gems from the Mercury Vaults 1962 CD2

Used drive : ASUS DRW-24B1LT Adapter: 0 ID: 0

Read mode : Secure
Utilize accurate stream : Yes
Defeat audio cache : Yes
Make use of C2 pointers : No

Read offset correction : 6
Overread into Lead-In and Lead-Out : No
Fill up missing offset samples with silence : Yes
Delete leading and trailing silent blocks : No
Null samples used in CRC calculations : Yes
Used interface : Installed external ASPI interface
Gap handling : Appended to previous track

Used output format : User Defined Encoder
Selected bitrate : 768 kBit/s
Quality : High
Add ID3 tag : No
Command line compressor : C:\Program Files (x86)\Exact Audio Copy\Flac\flac.exe
Additional command line options : -8 -V -T "ARTIST=%artist%" -T "TITLE=%title%" -T "ALBUM=%albumtitle%" -T "DATE=%year%" -T "TRACKNUMBER=%tracknr%" -T "TOTALTRACKS=%numtracks%" -T "GENRE=%genre%" -T "ALBUMARTIST=%albumartist%" -T "ALBUM ARTIST=%albumartist%" -T "COMMENT=EAC Secure Mode, Test & Copy, AccurateRip, FLAC -8" %source%


TOC of the extracted CD

Track | Start | Length | Start sector | End sector
––––––––––––––––––––––––––––-
1 | 0:00.00 | 2:10.72 | 0 | 9821
2 | 2:10.72 | 2:19.69 | 9822 | 20315
3 | 4:30.66 | 2:17.41 | 20316 | 30631
4 | 6:48.32 | 2:36.34 | 30632 | 42365
5 | 9:24.66 | 2:24.50 | 42366 | 53215
6 | 11:49.41 | 2:44.07 | 53216 | 65522
7 | 14:33.48 | 2:32.66 | 65523 | 76988
8 | 17:06.39 | 2:26.27 | 76989 | 87965
9 | 19:32.66 | 2:01.19 | 87966 | 97059
10 | 21:34.10 | 2:17.31 | 97060 | 107365
11 | 23:51.41 | 2:29.13 | 107366 | 118553
12 | 26:20.54 | 1:54.32 | 118554 | 127135
13 | 28:15.11 | 1:47.69 | 127136 | 135229
14 | 30:03.05 | 2:12.43 | 135230 | 145172
15 | 32:15.48 | 1:56.01 | 145173 | 153873
16 | 34:11.49 | 1:53.24 | 153874 | 162372
17 | 36:04.73 | 1:57.10 | 162373 | 171157
18 | 38:02.08 | 1:56.12 | 171158 | 179869
19 | 39:58.20 | 2:25.57 | 179870 | 190801
20 | 42:24.02 | 2:42.37 | 190802 | 202988
21 | 45:06.39 | 3:21.27 | 202989 | 218090
22 | 48:27.66 | 2:14.04 | 218091 | 228144
23 | 50:41.70 | 2:07.67 | 228145 | 237736
24 | 52:49.62 | 2:38.21 | 237737 | 249607
25 | 55:28.08 | 2:14.42 | 249608 | 259699


Track 1

Filename F:\audio\01 - Dolly Parton - The Love You Gave.wav

Pre-gap length 0:00:02.00

Peak level 98.3 %
Extraction speed 1.5 X
Track quality 100.0 %
Test CRC 1244B8D3
Copy CRC 1244B8D3
Cannot be verified as accurate (confidence 4) [B9D006EE], AccurateRip returned [2F48CC99] (AR v2)
Copy OK

Track 2

Filename F:\audio\02 - Johnny Preston - Let's Leave It That Way.wav

Pre-gap length 0:00:01.58

Peak level 98.1 %
Extraction speed 1.7 X
Track quality 100.0 %
Test CRC 3007ED9F
Copy CRC 3007ED9F
Cannot be verified as accurate (confidence 4) [FD662D8A], AccurateRip returned [58E73CBD] (AR v2)
Copy OK

Track 3

Filename F:\audio\03 - Clyde McPhatter - Little Bitty Pretty One.wav

Pre-gap length 0:00:01.58

Peak level 98.3 %
Extraction speed 1.8 X
Track quality 100.0 %
Test CRC E36DA14F
Copy CRC E36DA14F
Cannot be verified as accurate (confidence 4) [034B5F36], AccurateRip returned [B219C289] (AR v2)
Copy OK

Track 4

Filename F:\audio\04 - Brook Benton - Still Waters Run Deep.wav

Pre-gap length 0:00:01.58

Peak level 98.5 %
Extraction speed 2.0 X
Track quality 100.0 %
Test CRC 9A77EC50
Copy CRC 9A77EC50
Cannot be verified as accurate (confidence 4) [2C07B282], AccurateRip returned [73C45C32] (AR v2)
Copy OK

Track 5

Filename F:\audio\05 - The Chanteers - I Waited.wav

Pre-gap length 0:00:01.58

Peak level 98.2 %
Extraction speed 2.0 X
Track quality 100.0 %
Test CRC B409E225
Copy CRC B409E225
Cannot be verified as accurate (confidence 4) [2B4FE6EE], AccurateRip returned [350BDC7D] (AR v2)
Copy OK

Track 6

Filename F:\audio\06 - George Jones & Marge Singleton - Waltz of the Angels.wav

Pre-gap length 0:00:01.58

Peak level 98.4 %
Extraction speed 2.2 X
Track quality 100.0 %
Test CRC E91B99BF
Copy CRC E91B99BF
Cannot be verified as accurate (confidence 4) [A0B0AD9A], AccurateRip returned [13F69B10] (AR v2)
Copy OK

Track 7

Filename F:\audio\07 - The Platters - It's Magic.wav

Pre-gap length 0:00:01.58

Peak level 98.5 %
Extraction speed 2.3 X
Track quality 100.0 %
Test CRC F1A96160
Copy CRC F1A96160
Cannot be verified as accurate (confidence 4) [E58050A3], AccurateRip returned [B3C00189] (AR v2)
Copy OK

Track 8

Filename F:\audio\08 - Michael Allen - A Boy with a Dream.wav

Pre-gap length 0:00:01.58

Peak level 98.2 %
Extraction speed 2.3 X
Track quality 100.0 %
Test CRC D0C4F31E
Copy CRC D0C4F31E
Cannot be verified as accurate (confidence 4) [05444EDB], AccurateRip returned [78DF8B47] (AR v2)
Copy OK

Track 9

Filename F:\audio\09 - Ike Clanton - The Champ.wav

Pre-gap length 0:00:01.58

Peak level 98.4 %
Extraction speed 2.3 X
Track quality 100.0 %
Test CRC B962E819
Copy CRC B962E819
Cannot be verified as accurate (confidence 4) [BC2CDADD], AccurateRip returned [8F8F109D] (AR v2)
Copy OK

Track 10

Filename F:\audio\10 - Leroy Van Dyke - I Sat Back and Let It Happen.wav

Pre-gap length 0:00:01.58

Peak level 98.6 %
Extraction speed 1.5 X
Track quality 99.9 %
Test CRC 3CDFFB52
Copy CRC 3CDFFB52
Cannot be verified as accurate (confidence 4) [F3B5DCF1], AccurateRip returned [DA9394B1] (AR v2)
Copy OK

Track 11

Filename F:\audio\11 - The Tides - Midnight Limbo.wav

Pre-gap length 0:00:01.58

Peak level 98.5 %
Extraction speed 2.6 X
Track quality 100.0 %
Test CRC 6B28FFDD
Copy CRC 6B28FFDD
Cannot be verified as accurate (confidence 4) [6837132B], AccurateRip returned [BD5A29A3] (AR v2)
Copy OK

Track 12

Filename F:\audio\12 - Patti Page - The Boys Night Out.wav

Pre-gap length 0:00:01.58

Peak level 98.8 %
Extraction speed 2.5 X
Track quality 100.0 %
Test CRC A0D69B43
Copy CRC A0D69B43
Cannot be verified as accurate (confidence 4) [A7551099], AccurateRip returned [D6667A95] (AR v2)
Copy OK

Track 13

Filename F:\audio\13 - Merle Kilgore - Ain't Nothin' But a Man.wav

Pre-gap length 0:00:01.58

Peak level 98.3 %
Extraction speed 2.4 X
Track quality 100.0 %
Test CRC 0846E84B
Copy CRC 0846E84B
Cannot be verified as accurate (confidence 4) [5818E79B], AccurateRip returned [48F911AD] (AR v2)
Copy OK

Track 14

Filename F:\audio\14 - Darrell McCall - Dear One.wav

Pre-gap length 0:00:01.58

Peak level 98.8 %
Extraction speed 2.7 X
Track quality 100.0 %
Test CRC 9303BA8D
Copy CRC 9303BA8D
Cannot be verified as accurate (confidence 4) [2354E1E0], AccurateRip returned [A1DDBD8F] (AR v2)
Copy OK

Track 15

Filename F:\audio\15 - David Carroll & His Orchestra - Little Pixie.wav

Pre-gap length 0:00:01.58

Peak level 98.5 %
Extraction speed 2.6 X
Track quality 100.0 %
Test CRC 7BC76FEE
Copy CRC 7BC76FEE
Cannot be verified as accurate (confidence 4) [90ABAC7A], AccurateRip returned [C61FA650] (AR v2)
Copy OK

Track 16

Filename F:\audio\16 - Jimmie Skinner - One Dead Man Ago.wav

Pre-gap length 0:00:01.58

Peak level 98.7 %
Extraction speed 2.7 X
Track quality 100.0 %
Test CRC 2D983FA2
Copy CRC 2D983FA2
Cannot be verified as accurate (confidence 4) [2E210AA7], AccurateRip returned [CFBDD7BB] (AR v2)
Copy OK

Track 17

Filename F:\audio\17 - Wally Wiggins - Little Old Lady That Lived in a Shoe.wav

Pre-gap length 0:00:01.58

Peak level 98.5 %
Extraction speed 2.8 X
Track quality 100.0 %
Test CRC 0F2D2329
Copy CRC 0F2D2329
Cannot be verified as accurate (confidence 4) [8D375E8F], AccurateRip returned [F9FABF33] (AR v2)
Copy OK

Track 18

Filename F:\audio\18 - Clyde McPhatter - I Do Believe.wav

Pre-gap length 0:00:01.58

Peak level 98.3 %
Extraction speed 1.7 X
Track quality 99.9 %
Test CRC F3517CDB
Copy CRC F3517CDB
Cannot be verified as accurate (confidence 4) [5F0A549F], AccurateRip returned [E5B7D04B] (AR v2)
Copy OK

Track 19

Filename F:\audio\19 - James O'Gwynn - My Name Is Mud.wav

Pre-gap length 0:00:01.58

Peak level 98.3 %
Extraction speed 1.9 X
Track quality 99.9 %
Test CRC 1786E859
Copy CRC 1786E859
Cannot be verified as accurate (confidence 4) [150D9CD0], AccurateRip returned [94B6D9FC] (AR v2)
Copy OK

Track 20

Filename F:\audio\20 - Claude Gray - You Take the Table (And I'll Take the Chairs).wav

Pre-gap length 0:00:01.58

Peak level 98.4 %
Extraction speed 3.1 X
Track quality 100.0 %
Test CRC EA13B533
Copy CRC EA13B533
Cannot be verified as accurate (confidence 4) [0875A3B9], AccurateRip returned [83BBBACB] (AR v2)
Copy OK

Track 21

Filename F:\audio\21 - Dinah Washington - Cold, Cold Heart.wav

Pre-gap length 0:00:01.58

Peak level 98.4 %
Extraction speed 3.3 X
Track quality 100.0 %
Test CRC 91E0AA90
Copy CRC 91E0AA90
Cannot be verified as accurate (confidence 4) [0676D5F0], AccurateRip returned [27CB1682] (AR v2)
Copy OK

Track 22

Filename F:\audio\22 - Ray Stevens - Furthermore.wav

Pre-gap length 0:00:01.58

Peak level 98.5 %
Extraction speed 3.2 X
Track quality 100.0 %
Test CRC 309C185D
Copy CRC 309C185D
Cannot be verified as accurate (confidence 4) [6A5FAF5F], AccurateRip returned [1DBB9340] (AR v2)
Copy OK

Track 23

Filename F:\audio\23 - Merv Griffin - House of Horrors.wav

Pre-gap length 0:00:01.58

Peak level 98.2 %
Extraction speed 3.2 X
Track quality 100.0 %
Test CRC BFEFF920
Copy CRC BFEFF920
Cannot be verified as accurate (confidence 4) [69DC28F0], AccurateRip returned [C0E07AA0] (AR v2)
Copy OK

Track 24

Filename F:\audio\24 - Brook Benton - Hit Record.wav

Pre-gap length 0:00:01.58

Peak level 98.8 %
Extraction speed 3.4 X
Track quality 100.0 %
Test CRC 5B97C817
Copy CRC 5B97C817
Cannot be verified as accurate (confidence 4) [7BBE45BA], AccurateRip returned [CED09630] (AR v2)
Copy OK

Track 25

Filename F:\audio\25 - Tommy Jackson - Sally Goodin.wav

Pre-gap length 0:00:01.58

Peak level 98.3 %
Extraction speed 3.3 X
Track quality 100.0 %
Test CRC ACBE8EFD
Copy CRC ACBE8EFD
Cannot be verified as accurate (confidence 4) [47F09400], AccurateRip returned [EF1E3E30] (AR v2)
Copy OK


No tracks could be verified as accurate
You may have a different pressing from the one(s) in the database

No errors occurred

End of status report

–– CUETools DB Plugin V2.1.6

[CTDB TOCID: iURO3k_aW7Mz9syJ9hfmnxB6OpE-] found
Submit result: iURO3k_aW7Mz9syJ9hfmnxB6OpE- has been confirmed
Track | CTDB Status
1 | (3/3) Accurately ripped
2 | (3/3) Accurately ripped
3 | (3/3) Accurately ripped
4 | (3/3) Accurately ripped
5 | (3/3) Accurately ripped
6 | (3/3) Accurately ripped
7 | (3/3) Accurately ripped
8 | (3/3) Accurately ripped
9 | (3/3) Accurately ripped
10 | (3/3) Accurately ripped
11 | (3/3) Accurately ripped
12 | (3/3) Accurately ripped
13 | (3/3) Accurately ripped
14 | (3/3) Accurately ripped
15 | (3/3) Accurately ripped
16 | (3/3) Accurately ripped
17 | (3/3) Accurately ripped
18 | (3/3) Accurately ripped
19 | (3/3) Accurately ripped
20 | (3/3) Accurately ripped
21 | (3/3) Accurately ripped
22 | (3/3) Accurately ripped
23 | (3/3) Accurately ripped
24 | (3/3) Accurately ripped
25 | (3/3) Accurately ripped


==== Log checksum 86BF6C5E9509CC7B46B5EDC855C5E2853304ED8695BD065B2426694228958CBD ====

foobar2000 1.2 / Dynamic Range Meter 1.1.1
log date: 2018-01-19 15:44:20

––––––––––––––––––––––––––––––––––––––––
Analyzed: Brook Benton / A Taste of Honey: Gems from the Mercury Vaults 1962 CD2 (1-2)
Claude Gray / A Taste of Honey: Gems from the Mercury Vaults 1962 CD2 (3)
Clyde McPhatter / A Taste of Honey: Gems from the Mercury Vaults 1962 CD2 (4-5)
Darrell McCall / A Taste of Honey: Gems from the Mercury Vaults 1962 CD2 (6)
David Carroll & His Orchestra / A Taste of Honey: Gems from the Mercury Vaults 1962 CD2 (7)
Dinah Washington / A Taste of Honey: Gems from the Mercury Vaults 1962 CD2 (8)
Dolly Parton / A Taste of Honey: Gems from the Mercury Vaults 1962 CD2 (9)
George Jones & Marge Singleton / A Taste of Honey: Gems from the Mercury Vaults 1962 CD2 (10)
Ike Clanton / A Taste of Honey: Gems from the Mercury Vaults 1962 CD2 (11)
James O'Gwynn / A Taste of Honey: Gems from the Mercury Vaults 1962 CD2 (12)
Jimmie Skinner / A Taste of Honey: Gems from the Mercury Vaults 1962 CD2 (13)
Johnny Preston / A Taste of Honey: Gems from the Mercury Vaults 1962 CD2 (14)
Leroy Van Dyke / A Taste of Honey: Gems from the Mercury Vaults 1962 CD2 (15)
Merle Kilgore / A Taste of Honey: Gems from the Mercury Vaults 1962 CD2 (16)
Merv Griffin / A Taste of Honey: Gems from the Mercury Vaults 1962 CD2 (17)
Michael Allen / A Taste of Honey: Gems from the Mercury Vaults 1962 CD2 (18)
Patti Page / A Taste of Honey: Gems from the Mercury Vaults 1962 CD2 (19)
Ray Stevens / A Taste of Honey: Gems from the Mercury Vaults 1962 CD2 (20)
The Chanteers / A Taste of Honey: Gems from the Mercury Vaults 1962 CD2 (21)
The Platters / A Taste of Honey: Gems from the Mercury Vaults 1962 CD2 (22)
The Tides / A Taste of Honey: Gems from the Mercury Vaults 1962 CD2 (23)
Tommy Jackson / A Taste of Honey: Gems from the Mercury Vaults 1962 CD2 (24)
Wally Wiggins / A Taste of Honey: Gems from the Mercury Vaults 1962 CD2 (25)
––––––––––––––––––––––––––––––––––––––––

DR Peak RMS Duration Track
––––––––––––––––––––––––––––––––––––––––
DR8 -0.13 dB -9.74 dB 2:36 04-Still Waters Run Deep
DR8 -0.10 dB -9.58 dB 2:38 24-Hit Record
DR10 -0.13 dB -12.69 dB 2:42 20-You Take the Table (And I'll Take the Chairs)
DR10 -0.15 dB -11.70 dB 2:18 03-Little Bitty Pretty One
DR8 -0.14 dB -9.70 dB 1:56 18-I Do Believe
DR8 -0.10 dB -9.59 dB 2:13 14-Dear One
DR7 -0.13 dB -8.98 dB 1:56 15-Little Pixie
DR8 -0.14 dB -10.35 dB 3:21 21-Cold, Cold Heart
DR9 -0.14 dB -10.70 dB 2:11 01-The Love You Gave
DR8 -0.14 dB -10.53 dB 2:44 06-Waltz of the Angels
DR9 -0.14 dB -10.29 dB 2:01 09-The Champ
DR10 -0.14 dB -11.44 dB 2:26 19-My Name Is Mud
DR9 -0.11 dB -10.51 dB 1:53 16-One Dead Man Ago
DR7 -0.17 dB -8.89 dB 2:20 02-Let's Leave It That Way
DR9 -0.12 dB -11.39 dB 2:17 10-I Sat Back and Let It Happen
DR6 -0.15 dB -7.66 dB 1:48 13-Ain't Nothin' But a Man
DR7 -0.15 dB -9.42 dB 2:08 23-House of Horrors
DR8 -0.15 dB -9.20 dB 2:26 08-A Boy with a Dream
DR8 -0.10 dB -9.70 dB 1:54 12-The Boys Night Out
DR8 -0.13 dB -10.05 dB 2:14 22-Furthermore
DR8 -0.15 dB -9.90 dB 2:25 05-I Waited
DR8 -0.13 dB -10.28 dB 2:33 07-It's Magic
DR8 -0.13 dB -9.70 dB 2:29 11-Midnight Limbo
DR8 -0.15 dB -9.19 dB 2:15 25-Sally Goodin
DR7 -0.13 dB -9.47 dB 1:57 17-Little Old Lady That Lived in a Shoe
––––––––––––––––––––––––––––––––––––––––

Number of tracks: 25
Official DR value: DR8

Samplerate: 44100 Hz
Channels: 2
Bits per sample: 16
Bitrate: 631 kbps
Codec: FLAC
================================================================================


Exact Audio Copy V1.3 from 2. September 2016

EAC extraction logfile from 18. January 2018, 20:41

Various / A Taste of Honey: Gems from the Mercury Vaults 1962 CD3

Used drive : ASUS DRW-24B1LT Adapter: 0 ID: 0

Read mode : Secure
Utilize accurate stream : Yes
Defeat audio cache : Yes
Make use of C2 pointers : No

Read offset correction : 6
Overread into Lead-In and Lead-Out : No
Fill up missing offset samples with silence : Yes
Delete leading and trailing silent blocks : No
Null samples used in CRC calculations : Yes
Used interface : Installed external ASPI interface
Gap handling : Appended to previous track

Used output format : User Defined Encoder
Selected bitrate : 768 kBit/s
Quality : High
Add ID3 tag : No
Command line compressor : C:\Program Files (x86)\Exact Audio Copy\Flac\flac.exe
Additional command line options : -8 -V -T "ARTIST=%artist%" -T "TITLE=%title%" -T "ALBUM=%albumtitle%" -T "DATE=%year%" -T "TRACKNUMBER=%tracknr%" -T "TOTALTRACKS=%numtracks%" -T "GENRE=%genre%" -T "ALBUMARTIST=%albumartist%" -T "ALBUM ARTIST=%albumartist%" -T "COMMENT=EAC Secure Mode, Test & Copy, AccurateRip, FLAC -8" %source%


TOC of the extracted CD

Track | Start | Length | Start sector | End sector
––––––––––––––––––––––––––––-
1 | 0:00.00 | 2:08.21 | 0 | 9620
2 | 2:08.21 | 2:03.34 | 9621 | 18879
3 | 4:11.55 | 2:24.67 | 18880 | 29746
4 | 6:36.47 | 2:37.22 | 29747 | 41543
5 | 9:13.69 | 2:53.00 | 41544 | 54518
6 | 12:06.69 | 2:31.71 | 54519 | 65914
7 | 14:38.65 | 2:11.40 | 65915 | 75779
8 | 16:50.30 | 1:46.30 | 75780 | 83759
9 | 18:36.60 | 2:02.12 | 83760 | 92921
10 | 20:38.72 | 3:42.01 | 92922 | 109572
11 | 24:20.73 | 1:51.18 | 109573 | 117915
12 | 26:12.16 | 2:10.25 | 117916 | 127690
13 | 28:22.41 | 2:15.06 | 127691 | 137821
14 | 30:37.47 | 2:50.46 | 137822 | 150617
15 | 33:28.18 | 2:18.67 | 150618 | 161034
16 | 35:47.10 | 3:07.55 | 161035 | 175114
17 | 38:54.65 | 2:16.66 | 175115 | 185380
18 | 41:11.56 | 1:54.63 | 185381 | 193993
19 | 43:06.44 | 2:38.19 | 193994 | 205862
20 | 45:44.63 | 2:57.44 | 205863 | 219181
21 | 48:42.32 | 2:36.50 | 219182 | 230931
22 | 51:19.07 | 2:49.08 | 230932 | 243614
23 | 54:08.15 | 3:42.18 | 243615 | 260282
24 | 57:50.33 | 3:18.65 | 260283 | 275197
25 | 61:09.23 | 2:16.18 | 275198 | 285415


Track 1

Filename F:\audio\01 - George Jones - When My Heart Hurts No More.wav

Pre-gap length 0:00:02.00

Peak level 98.3 %
Extraction speed 1.5 X
Track quality 100.0 %
Test CRC 086A5CBD
Copy CRC 086A5CBD
Cannot be verified as accurate (confidence 4) [C3837E2A], AccurateRip returned [2FB478E0] (AR v2)
Copy OK

Track 2

Filename F:\audio\02 - The Platters - Heartbreak.wav

Pre-gap length 0:00:01.58

Peak level 98.3 %
Extraction speed 1.6 X
Track quality 100.0 %
Test CRC E4BA824E
Copy CRC E4BA824E
Cannot be verified as accurate (confidence 4) [E9A543FD], AccurateRip returned [3951D9E5] (AR v2)
Copy OK

Track 3

Filename F:\audio\03 - Patti Page - Let's Cry Together.wav

Pre-gap length 0:00:01.58

Peak level 98.3 %
Extraction speed 1.8 X
Track quality 100.0 %
Test CRC BD928D26
Copy CRC BD928D26
Cannot be verified as accurate (confidence 4) [B0AD314A], AccurateRip returned [6DC2C5B6] (AR v2)
Copy OK

Track 4

Filename F:\audio\04 - Clyde McPhatter - Maybe.wav

Pre-gap length 0:00:01.58

Peak level 98.5 %
Extraction speed 1.9 X
Track quality 100.0 %
Test CRC B8ACA699
Copy CRC B8ACA699
Cannot be verified as accurate (confidence 4) [5F03EADA], AccurateRip returned [D8AE0614] (AR v2)
Copy OK

Track 5

Filename F:\audio\05 - Dinah Washington - I Want to Be Loved.wav

Pre-gap length 0:00:01.58

Peak level 98.5 %
Extraction speed 1.4 X
Track quality 99.9 %
Test CRC 12550F82
Copy CRC 12550F82
Cannot be verified as accurate (confidence 4) [5AC11827], AccurateRip returned [7CA5CC3A] (AR v2)
Copy OK

Track 6

Filename F:\audio\06 - Quincy Jones - On the Street Where You Live.wav

Pre-gap length 0:00:01.58

Peak level 98.4 %
Extraction speed 2.1 X
Track quality 100.0 %
Test CRC 88BFC519
Copy CRC 88BFC519
Cannot be verified as accurate (confidence 4) [10DA5EF7], AccurateRip returned [23AA924C] (AR v2)
Copy OK

Track 7

Filename F:\audio\07 - George McCannon - Shy Boy.wav

Pre-gap length 0:00:01.58

Peak level 98.3 %
Extraction speed 2.1 X
Track quality 100.0 %
Test CRC 1DD1D58B
Copy CRC 1DD1D58B
Cannot be verified as accurate (confidence 4) [9B85ABD3], AccurateRip returned [F203E3C7] (AR v2)
Copy OK

Track 8

Filename F:\audio\08 - Jerry Modine - A Stranger to Me.wav

Pre-gap length 0:00:01.58

Peak level 98.3 %
Extraction speed 2.1 X
Track quality 100.0 %
Test CRC 121F0E6F
Copy CRC 121F0E6F
Cannot be verified as accurate (confidence 4) [AC02DD6A], AccurateRip returned [0047A5AC] (AR v2)
Copy OK

Track 9

Filename F:\audio\09 - Ike Clanton - Makin' Up.wav

Pre-gap length 0:00:01.58

Peak level 98.3 %
Extraction speed 1.3 X
Track quality 99.9 %
Test CRC 9DF94D95
Copy CRC 9DF94D95
Cannot be verified as accurate (confidence 4) [360EEFD7], AccurateRip returned [2E29F576] (AR v2)
Copy OK

Track 10

Filename F:\audio\10 - Charles Aznavour - You've Let Yourself Go.wav

Pre-gap length 0:00:01.58

Peak level 98.3 %
Extraction speed 2.6 X
Track quality 100.0 %
Test CRC F04794D5
Copy CRC F04794D5
Cannot be verified as accurate (confidence 4) [3267CC46], AccurateRip returned [131A70D3] (AR v2)
Copy OK

Track 11

Filename F:\audio\11 - Johnny Preston - Let the Big Boss Man (Pull You Through).wav

Pre-gap length 0:00:01.58

Peak level 98.3 %
Extraction speed 1.4 X
Track quality 99.9 %
Test CRC C43F012F
Copy CRC C43F012F
Cannot be verified as accurate (confidence 4) [6CEFD127], AccurateRip returned [E9D90F0B] (AR v2)
Copy OK

Track 12

Filename F:\audio\12 - Brook Benton - Lie to Me.wav

Pre-gap length 0:00:01.58

Peak level 98.3 %
Extraction speed 2.5 X
Track quality 100.0 %
Test CRC 168B2CF6
Copy CRC 168B2CF6
Cannot be verified as accurate (confidence 4) [FF52E58A], AccurateRip returned [8AB580F5] (AR v2)
Copy OK

Track 13

Filename F:\audio\13 - Leroy Van Dyke - Black Cloud.wav

Pre-gap length 0:00:01.58

Peak level 98.5 %
Extraction speed 1.6 X
Track quality 99.9 %
Test CRC D49D2BAD
Copy CRC D49D2BAD
Cannot be verified as accurate (confidence 4) [4E172227], AccurateRip returned [B97D5386] (AR v2)
Copy OK

Track 14

Filename F:\audio\14 - Little Richard - Do You Care.wav

Pre-gap length 0:00:01.58

Peak level 98.3 %
Extraction speed 1.9 X
Track quality 99.9 %
Test CRC CF4BD9E5
Copy CRC CF4BD9E5
Cannot be verified as accurate (confidence 4) [976ADE1E], AccurateRip returned [3B31B114] (AR v2)
Copy OK

Track 15

Filename F:\audio\15 - Merle Kilgore - A Girl Named Liz.wav

Pre-gap length 0:00:01.58

Peak level 98.3 %
Extraction speed 2.7 X
Track quality 100.0 %
Test CRC 4E6C3742
Copy CRC 4E6C3742
Cannot be verified as accurate (confidence 4) [3412381A], AccurateRip returned [30A1A2A6] (AR v2)
Copy OK

Track 16

Filename F:\audio\16 - David Atkinson - I Love a Fool.wav

Pre-gap length 0:00:01.58

Peak level 98.3 %
Extraction speed 3.0 X
Track quality 100.0 %
Test CRC E87E9EAD
Copy CRC E87E9EAD
Cannot be verified as accurate (confidence 4) [2DCB5DF9], AccurateRip returned [02398F9C] (AR v2)
Copy OK

Track 17

Filename F:\audio\17 - Patti Page - Every Time I Hear Your Name.wav

Pre-gap length 0:00:01.58

Peak level 98.3 %
Extraction speed 2.9 X
Track quality 100.0 %
Test CRC 11C269B3
Copy CRC 11C269B3
Cannot be verified as accurate (confidence 4) [D522A9BD], AccurateRip returned [99D5E7A8] (AR v2)
Copy OK

Track 18

Filename F:\audio\18 - George Jones & Margie Singleton - I Want to Be Where You're Gonna Be.wav

Pre-gap length 0:00:01.58

Peak level 88.5 %
Extraction speed 1.6 X
Track quality 99.9 %
Test CRC F14B14C6
Copy CRC F14B14C6
Cannot be verified as accurate (confidence 4) [ED0C6B43], AccurateRip returned [D1F53B5E] (AR v2)
Copy OK

Track 19

Filename F:\audio\19 - The Chanteers - Just a Little Boy.wav

Pre-gap length 0:00:01.58

Peak level 98.3 %
Extraction speed 3.1 X
Track quality 100.0 %
Test CRC 8B053690
Copy CRC 8B053690
Cannot be verified as accurate (confidence 4) [F0E4C684], AccurateRip returned [941F0D7D] (AR v2)
Copy OK

Track 20

Filename F:\audio\20 - Shirley Horn - Do It Again.wav

Pre-gap length 0:00:01.58

Peak level 98.3 %
Extraction speed 2.2 X
Track quality 99.9 %
Test CRC 3DE419B3
Copy CRC 3DE419B3
Cannot be verified as accurate (confidence 4) [B7C67B6B], AccurateRip returned [90C05F2E] (AR v2)
Copy OK

Track 21

Filename F:\audio\21 - Ray Stevens - Saturday Night at the Movies.wav

Pre-gap length 0:00:01.58

Peak level 98.4 %
Extraction speed 2.1 X
Track quality 99.9 %
Test CRC 31938B94
Copy CRC 31938B94
Cannot be verified as accurate (confidence 4) [519BBA97], AccurateRip returned [B195F878] (AR v2)
Copy OK

Track 22

Filename F:\audio\22 - Clyde McPhatter - The Best Man Cried.wav

Pre-gap length 0:00:01.58

Peak level 98.4 %
Extraction speed 3.4 X
Track quality 100.0 %
Test CRC AF14B978
Copy CRC AF14B978
Cannot be verified as accurate (confidence 4) [805E94C8], AccurateRip returned [C4AF3878] (AR v2)
Copy OK

Track 23

Filename F:\audio\23 - Art Farmer - Raincheck.wav

Pre-gap length 0:00:01.58

Peak level 98.5 %
Extraction speed 3.6 X
Track quality 100.0 %
Test CRC 6427E63C
Copy CRC 6427E63C
Cannot be verified as accurate (confidence 4) [41B884A1], AccurateRip returned [8557E0BB] (AR v2)
Copy OK

Track 24

Filename F:\audio\24 - Billy Eckstine - Till There Was You.wav

Pre-gap length 0:00:01.58

Peak level 98.5 %
Extraction speed 2.5 X
Track quality 99.9 %
Test CRC E792CD03
Copy CRC E792CD03
Cannot be verified as accurate (confidence 4) [DE8C7EE5], AccurateRip returned [1630A2C2] (AR v2)
Copy OK

Track 25

Filename F:\audio\25 - Rusty Draper - Tongue Tied over You.wav

Pre-gap length 0:00:01.58

Peak level 98.3 %
Extraction speed 3.4 X
Track quality 100.0 %
Test CRC 60DFE3F3
Copy CRC 60DFE3F3
Cannot be verified as accurate (confidence 4) [85305B08], AccurateRip returned [A4EDEA29] (AR v2)
Copy OK


No tracks could be verified as accurate
You may have a different pressing from the one(s) in the database

No errors occurred

End of status report

–– CUETools DB Plugin V2.1.6

[CTDB TOCID: Ou5nbIFfZgA5.gio8hzAYqMfUSc-] found
Submit result: Ou5nbIFfZgA5.gio8hzAYqMfUSc- has been confirmed
Track | CTDB Status
1 | (3/3) Accurately ripped
2 | (3/3) Accurately ripped
3 | (3/3) Accurately ripped
4 | (3/3) Accurately ripped
5 | (3/3) Accurately ripped
6 | (3/3) Accurately ripped
7 | (3/3) Accurately ripped
8 | (3/3) Accurately ripped
9 | (3/3) Accurately ripped
10 | (3/3) Accurately ripped
11 | (3/3) Accurately ripped
12 | (3/3) Accurately ripped
13 | (3/3) Accurately ripped
14 | (3/3) Accurately ripped
15 | (3/3) Accurately ripped
16 | (3/3) Accurately ripped
17 | (3/3) Accurately ripped
18 | (3/3) Accurately ripped
19 | (3/3) Accurately ripped
20 | (3/3) Accurately ripped
21 | (3/3) Accurately ripped
22 | (3/3) Accurately ripped
23 | (3/3) Accurately ripped
24 | (3/3) Accurately ripped
25 | (3/3) Accurately ripped


==== Log checksum A66174142F0CE439A18127D59BC4F72DCBEE709423737917E34893A231264136 ====

foobar2000 1.2 / Dynamic Range Meter 1.1.1
log date: 2018-01-19 15:44:47

––––––––––––––––––––––––––––––––––––––––
Analyzed: Art Farmer / A Taste of Honey: Gems from the Mercury Vaults 1962 CD3 (1)
Billy Eckstine / A Taste of Honey: Gems from the Mercury Vaults 1962 CD3 (2)
Brook Benton / A Taste of Honey: Gems from the Mercury Vaults 1962 CD3 (3)
Charles Aznavour / A Taste of Honey: Gems from the Mercury Vaults 1962 CD3 (4)
Clyde McPhatter / A Taste of Honey: Gems from the Mercury Vaults 1962 CD3 (5-6)
David Atkinson / A Taste of Honey: Gems from the Mercury Vaults 1962 CD3 (7)
Dinah Washington / A Taste of Honey: Gems from the Mercury Vaults 1962 CD3 (8)
George Jones & Margie Singleton / A Taste of Honey: Gems from the Mercury Vaults 1962 CD3 (9)
George Jones / A Taste of Honey: Gems from the Mercury Vaults 1962 CD3 (10)
George McCannon / A Taste of Honey: Gems from the Mercury Vaults 1962 CD3 (11)
Ike Clanton / A Taste of Honey: Gems from the Mercury Vaults 1962 CD3 (12)
Jerry Modine / A Taste of Honey: Gems from the Mercury Vaults 1962 CD3 (13)
Johnny Preston / A Taste of Honey: Gems from the Mercury Vaults 1962 CD3 (14)
Leroy Van Dyke / A Taste of Honey: Gems from the Mercury Vaults 1962 CD3 (15)
Little Richard / A Taste of Honey: Gems from the Mercury Vaults 1962 CD3 (16)
Merle Kilgore / A Taste of Honey: Gems from the Mercury Vaults 1962 CD3 (17)
Patti Page / A Taste of Honey: Gems from the Mercury Vaults 1962 CD3 (18-19)
Quincy Jones / A Taste of Honey: Gems from the Mercury Vaults 1962 CD3 (20)
Ray Stevens / A Taste of Honey: Gems from the Mercury Vaults 1962 CD3 (21)
Rusty Draper / A Taste of Honey: Gems from the Mercury Vaults 1962 CD3 (22)
Shirley Horn / A Taste of Honey: Gems from the Mercury Vaults 1962 CD3 (23)
The Chanteers / A Taste of Honey: Gems from the Mercury Vaults 1962 CD3 (24)
The Platters / A Taste of Honey: Gems from the Mercury Vaults 1962 CD3 (25)
––––––––––––––––––––––––––––––––––––––––

DR Peak RMS Duration Track
––––––––––––––––––––––––––––––––––––––––
DR8 -0.13 dB -10.42 dB 3:42 23-Raincheck
DR8 -0.13 dB -10.82 dB 3:19 24-Till There Was You
DR6 -0.15 dB -8.01 dB 2:10 12-Lie to Me
DR7 -0.15 dB -9.37 dB 3:42 10-You've Let Yourself Go
DR8 -0.13 dB -9.74 dB 2:37 04-Maybe
DR9 -0.14 dB -12.12 dB 2:49 22-The Best Man Cried
DR9 -0.15 dB -10.74 dB 3:08 16-I Love a Fool
DR6 -0.13 dB -8.32 dB 2:53 05-I Want to Be Loved
DR6 -1.05 dB -9.38 dB 1:55 18-I Want to Be Where You're Gonna Be
DR8 -0.14 dB -9.42 dB 2:08 01-When My Heart Hurts No More
DR6 -0.15 dB -7.57 dB 2:12 07-Shy Boy
DR7 -0.14 dB -8.55 dB 2:02 09-Makin' Up
DR8 -0.15 dB -9.06 dB 1:46 08-A Stranger to Me
DR6 -0.15 dB -7.40 dB 1:51 11-Let the Big Boss Man (Pull You Through)
DR9 -0.12 dB -9.74 dB 2:15 13-Black Cloud
DR8 -0.15 dB -9.92 dB 2:51 14-Do You Care
DR8 -0.14 dB -9.74 dB 2:19 15-A Girl Named Liz
DR8 -0.15 dB -10.04 dB 2:25 03-Let's Cry Together
DR7 -0.14 dB -8.77 dB 2:17 17-Every Time I Hear Your Name
DR9 -0.14 dB -10.25 dB 2:32 06-On the Street Where You Live
DR9 -0.14 dB -9.99 dB 2:37 21-Saturday Night at the Movies
DR8 -0.14 dB -9.65 dB 2:16 25-Tongue Tied over You
DR11 -0.14 dB -13.00 dB 2:58 20-Do It Again
DR7 -0.15 dB -8.15 dB 2:38 19-Just a Little Boy
DR9 -0.15 dB -10.65 dB 2:03 02-Heartbreak
––––––––––––––––––––––––––––––––––––––––

Number of tracks: 25
Official DR value: DR8

Samplerate: 44100 Hz
Channels: 2
Bits per sample: 16
Bitrate: 735 kbps
Codec: FLAC
================================================================================

VA - A Taste Of Honey: Gems From The Mercury Vaults 1962 (2013) 75 Original Recordings on 3 CDs

All thanks to original releaser - fiks22

More interesting music in My Blog