Tags
Language
Tags

VA - Lightning In a Bottle: Original Soundtrack Recording (2004) 2CDs [Re-Up]

Posted By: Designol
VA - Lightning In a Bottle: Original Soundtrack Recording (2004) 2CDs [Re-Up]

VA - Lightning In a Bottle: A One Night History Of The Blues (2004) 2CD
EAC | FLAC | Tracks (Cue&Log) ~ 707 Mb | Mp3 (CBR320) ~ 256 Mb | Scans ~ 75 Mb
Label: Columbia/Legacy | # C2K 92860 | Time: 01:51:54
Blues, Country-Blues, Electric Blues, Blues-Rock, Soul-Blues, R&B

This soundtrack to the movie features an astonishing array of blues artists from three generations. Recorded during one long night at NYC's Radio City Music Hall on Feb. 7, 2003, the electricity is in the air and on stage. While it may not have been the finest blues show in history, the collection of founding fathers such as David "Honeyboy" Edwards, Buddy Guy, Clarence "Gatemouth" Brown, Larry Johnson, Hubert Sumlin, Solomon Burke, and the ubiquitous B.B. King along with their spiritual offspring (Gregg Allman, John Fogerty, and Steven Tyler) and some usual suspects like Bonnie Raitt, Robert Cray, and Keb' Mo', makes it arguably the most significant blues session ever captured on film.

Beginning acoustic, the double disc builds momentum and volume as we hear the blues mutate to electric and finally hip-hop with Chuck D. exploding on a rap version of John Lee Hooker's "Boom Boom." The crackling house band led by drummer Steve Jordan provides foundation for gritty, roof-raising pieces like the unusual collaboration between former New York Doll David Johansen and guitarist Sumlin on Howlin' Wolf's "Killing Floor." Not all of the film's music is included but there are enough magnificent performances for established blues fans and to entice those first experiencing the genre's abundant riches.

Review by Hal Horowitz

Lightning in a Bottle is the double-disc soundtrack to the documentary film of the same title directed by Antoine Fuqua and shot at a February 7, 2003, concert at Radio City Music Hall in New York City. Billed as a "Salute to the Blues," the show featured veteran blues musicians as well as a younger generation of players and artists either directly working in the genre or deeply influenced by it, and the running order follows the evolution of blues from Africa, up the Mississippi, and through Chicago and beyond. With a crack house band of Steve Jordan and/or Levon Helm on drums, Dr. John on piano, Willie Weeks on bass, and Danny Kortchmar on guitar, Lightning in a Bottle has quite a few high points, including Macy Gray's version of Big Mama Thornton's "Hound Dog," Bonnie Raitt's "Coming Home," and the deep Southern gospel soul of Solomon Burke on "Turn On Your Love Light." Also impressive is David "Honeyboy" Edwards' stark and haunting solo acoustic rendering of "Gamblin' Man." Mavis Staples arguably stole the show, however, with her huge, shuffling, and ominous take on Blind Lemon Jefferson's "See That My Grave Is Kept Clean." The shifts and mutations of the blues from an acoustic music to an electric one are traced, ending in Chuck D and the Fine Art Militia's thundering rap version of John Lee Hooker's "Boom Boom." The CD set lacks some of the music actually performed in the film, however, so the best way to catch this moving concert in its entirety is on DVD, which also includes backstage footage and interviews.

Review by Steve Leggett, Allmusic.com

VA - Lightning In a Bottle: Original Soundtrack Recording (2004) 2CDs [Re-Up]


Tracklist:

CD1:

01. Angelique Kidjo - Senie Zelie (03:47)
02. Mavis Staples - See That My Grave Is Kept Clean (04:03)
03. David 'Honeyboy' Edwards - Gamblin' Man (04:08)
04. Keb' Mo' - Love In Vain (03:20)
05. James 'Blood' Ulmer & Alison Krauss - Sittin' On Top of The World (05:14)
06. Odetta - Jim Crow Blues (05:04)
07. Natalie Cole - St. Louis Blues (03:52)
08. Natalie Cole, Mavis Staples & Ruth Brown - Men Are Just Like Street Cars (04:25)
09. Buddy Guy - I Can't Be Satisfied (02:58)
10. India Arie - Strange Fruit (02:40)
11. Macy Gray - Hound Dog (03:28)
12. John Fogerty - The Midnight Special (04:31)
13. Larry Johnson - Where'd You Get That Sound (00:54)

CD2:

01. Clarence 'Gatemouth' Brown - Okie Dokie Stomp (02:48)
02. Bonnie Raitt - Coming Home (03:26)
03. Gregg Allman & Warren Haynes - The Sky Is Crying (07:32)
04. Steven Tyler & Joe Perry - I'm a King Bee (04:20)
05. Buddy Guy - First Time I Met The Blues (04:12)
06. The Neville Brothers - Big Chief (03:27)
07. Shemekia Copeland & Robert Cray - I Pity The Fool (04:58)
08. David Johansen & Hubert Sumlin - Killing Floor (04:04)
09. Solomon Burke - Turn On Your Love Light (03:27)
10. Solomon Burke - Down In The Valley (03:20)
11. Angelique Kidjo, Buddy Guy & Vernon Reid - Voodoo Child (05:17)
12. Mos Def - Minnesota Blues (aka 'Black Jack Blues') (05:44)
13. Chuck D. & The Fine Arts Militia - (No) Boom Boom (04:10)
14. B.B. King - Sweet Sixteen (06:31)


Exact Audio Copy V1.0 beta 1 from 15. November 2010

EAC extraction logfile from 15. August 2013, 20:49

Various Artists / Lightning In a Bottle: Original Soundtrack Recording (CD1)

Used drive : PLEXTOR DVDR PX-891SA Adapter: 4 ID: 1

Read mode : Secure
Utilize accurate stream : Yes
Defeat audio cache : Yes
Make use of C2 pointers : No

Read offset correction : 6
Overread into Lead-In and Lead-Out : No
Fill up missing offset samples with silence : Yes
Delete leading and trailing silent blocks : No
Null samples used in CRC calculations : Yes
Used interface : Native Win32 interface for Win NT & 2000
Gap handling : Appended to previous track

Used output format : User Defined Encoder
Selected bitrate : 128 kBit/s
Quality : High
Add ID3 tag : No
Command line compressor : D:\Exact Audio Copy\Flac\flac.exe
Additional command line options : -8 -V -T "ARTIST=%a" -T "TITLE=%t" -T "ALBUM=%g" -T "DATE=%y" -T "TRACKNUMBER=%n" -T "TOTALTRACKS=%x" -T "GENRE=%m" -T "ALBUMARTIST=%v" -T "ALBUM ARTIST=%v" -T "COMMENT=EAC Secure Mode, Test & Copy, AccurateRip, FLAC -8" %s


TOC of the extracted CD

Track | Start | Length | Start sector | End sector
––––––––––––––––––––––––––––-
1 | 0:00.00 | 3:47.28 | 0 | 17052
2 | 3:47.28 | 4:03.74 | 17053 | 35351
3 | 7:51.27 | 4:08.02 | 35352 | 53953
4 | 11:59.29 | 3:20.21 | 53954 | 68974
5 | 15:19.50 | 5:14.27 | 68975 | 92551
6 | 20:34.02 | 5:04.64 | 92552 | 115415
7 | 25:38.66 | 3:52.23 | 115416 | 132838
8 | 29:31.14 | 4:25.27 | 132839 | 152740
9 | 33:56.41 | 2:58.37 | 152741 | 166127
10 | 36:55.03 | 2:40.73 | 166128 | 178200
11 | 39:36.01 | 3:28.50 | 178201 | 193850
12 | 43:04.51 | 4:31.25 | 193851 | 214200
13 | 47:36.01 | 0:54.50 | 214201 | 218300


Track 1

Filename D:\01 - Angelique Kidjo - Senie Zelie.wav

Pre-gap length 0:00:02.00

Peak level 99.8 %
Extraction speed 5.9 X
Track quality 100.0 %
Test CRC 67432B1B
Copy CRC 67432B1B
Accurately ripped (confidence 6) [73353A95]
Copy OK

Track 2

Filename D:\02 - Mavis Staples - See That My Grave Is Kept Clean.wav

Peak level 99.8 %
Extraction speed 6.5 X
Track quality 100.0 %
Test CRC 241AECC9
Copy CRC 241AECC9
Accurately ripped (confidence 6) [C03CECE4]
Copy OK

Track 3

Filename D:\03 - David ''Honeyboy'' Edwards - Gamblin' Man.wav

Peak level 99.8 %
Extraction speed 5.8 X
Track quality 99.9 %
Test CRC 9E1C41E4
Copy CRC 9E1C41E4
Accurately ripped (confidence 6) [358ED47C]
Copy OK

Track 4

Filename D:\04 - Keb' Mo' - Love In Vain.wav

Peak level 99.8 %
Extraction speed 7.2 X
Track quality 100.0 %
Test CRC 6FB7EEF1
Copy CRC 6FB7EEF1
Accurately ripped (confidence 6) [9E84D2C3]
Copy OK

Track 5

Filename D:\05 - James ''Blood'' Ulmer & Alison Krauss - Sittin' On Top of The World.wav

Peak level 99.8 %
Extraction speed 8.1 X
Track quality 100.0 %
Test CRC A29E332A
Copy CRC A29E332A
Accurately ripped (confidence 6) [9B0DC7A7]
Copy OK

Track 6

Filename D:\06 - Odetta - Jim Crow Blues.wav

Peak level 99.8 %
Extraction speed 7.3 X
Track quality 99.9 %
Test CRC F01F96B5
Copy CRC F01F96B5
Accurately ripped (confidence 6) [4861B41B]
Copy OK

Track 7

Filename D:\07 - Natalie Cole - St. Louis Blues.wav

Peak level 99.8 %
Extraction speed 8.7 X
Track quality 100.0 %
Test CRC DC6C9674
Copy CRC DC6C9674
Accurately ripped (confidence 6) [E03C0113]
Copy OK

Track 8

Filename D:\08 - Natalie Cole, Mavis Staples & Ruth Brown - Men Are Just Like Street Cars.wav

Peak level 99.8 %
Extraction speed 9.3 X
Track quality 100.0 %
Test CRC 306BE541
Copy CRC 306BE541
Accurately ripped (confidence 6) [F26A7950]
Copy OK

Track 9

Filename D:\09 - Buddy Guy - I Can't Be Satisfied.wav

Peak level 99.8 %
Extraction speed 9.0 X
Track quality 100.0 %
Test CRC BAA3246F
Copy CRC BAA3246F
Accurately ripped (confidence 6) [72EDABC3]
Copy OK

Track 10

Filename D:\10 - India Arie - Strange Fruit.wav

Peak level 99.8 %
Extraction speed 9.0 X
Track quality 100.0 %
Test CRC 9B582499
Copy CRC 9B582499
Accurately ripped (confidence 6) [DCD38CDD]
Copy OK

Track 11

Filename D:\11 - Macy Gray - Hound Dog.wav

Peak level 99.8 %
Extraction speed 9.8 X
Track quality 100.0 %
Test CRC 408E7578
Copy CRC 408E7578
Accurately ripped (confidence 6) [8880325E]
Copy OK

Track 12

Filename D:\12 - John Fogerty - The Midnight Special.wav

Peak level 99.8 %
Extraction speed 10.4 X
Track quality 100.0 %
Test CRC 761F894D
Copy CRC 761F894D
Accurately ripped (confidence 5) [CCBC31DB]
Copy OK

Track 13

Filename D:\13 - Larry Johnson - Where'd You Get That Sound.wav

Pre-gap length 0:00:05.39

Peak level 99.0 %
Extraction speed 7.0 X
Track quality 100.0 %
Test CRC 7356D0AA
Copy CRC 7356D0AA
Accurately ripped (confidence 6) [03A18F17]
Copy OK


All tracks accurately ripped

No errors occurred

End of status report

==== Log checksum 2867481C15772FE3FF8B0B7F388ECCEFFB6CD73137D004995B5BEAD334CDEC13 ====

foobar2000 1.2 / Dynamic Range Meter 1.1.1
log date: 2016-02-27 15:16:19

––––––––––––––––––––––––––––––––––––––––
Analyzed: Angelique Kidjo / Lightning In a Bottle: Original Soundtrack Recording (CD1) (1)
Buddy Guy / Lightning In a Bottle: Original Soundtrack Recording (CD1) (2)
David 'Honeyboy' Edwards / Lightning In a Bottle: Original Soundtrack Recording (CD1) (3)
India Arie / Lightning In a Bottle: Original Soundtrack Recording (CD1) (4)
James 'Blood' Ulmer & Alison Krauss / Lightning In a Bottle: Original Soundtrack Recording (CD1) (5)
John Fogerty / Lightning In a Bottle: Original Soundtrack Recording (CD1) (6)
Keb' Mo' / Lightning In a Bottle: Original Soundtrack Recording (CD1) (7)
Larry Johnson / Lightning In a Bottle: Original Soundtrack Recording (CD1) (8)
Macy Gray / Lightning In a Bottle: Original Soundtrack Recording (CD1) (9)
Mavis Staples / Lightning In a Bottle: Original Soundtrack Recording (CD1) (10)
Natalie Cole, Mavis Staples & Ruth Brown / Lightning In a Bottle: Original Soundtrack Recording (CD1) (11)
Natalie Cole / Lightning In a Bottle: Original Soundtrack Recording (CD1) (12)
Odetta / Lightning In a Bottle: Original Soundtrack Recording (CD1) (13)
––––––––––––––––––––––––––––––––––––––––

DR Peak RMS Duration Track
––––––––––––––––––––––––––––––––––––––––
DR9 -0.01 dB -11.73 dB 3:47 01-Senie Zelie
DR9 -0.01 dB -10.14 dB 2:58 09-I Can't Be Satisfied
DR9 -0.01 dB -11.62 dB 4:08 03-Gamblin' Man
DR9 -0.01 dB -11.83 dB 2:41 10-Strange Fruit
DR10 -0.01 dB -10.96 dB 5:14 05-Sittin' On Top of The World
DR7 -0.01 dB -8.79 dB 4:31 12-The Midnight Special
DR10 -0.01 dB -11.78 dB 3:20 04-Love In Vain
DR12 -0.09 dB -17.57 dB 0:55 13-Where'd You Get That Sound
DR8 -0.01 dB -9.26 dB 3:29 11-Hound Dog
DR9 -0.01 dB -11.52 dB 4:04 02-See That My Grave Is Kept Clean
DR8 -0.01 dB -10.83 dB 4:25 08-Men Are Just Like Street Cars
DR9 -0.01 dB -10.95 dB 3:52 07-St. Louis Blues
DR8 -0.01 dB -9.88 dB 5:05 06-Jim Crow Blues
––––––––––––––––––––––––––––––––––––––––

Number of tracks: 13
Official DR value: DR9

Samplerate: 44100 Hz
Channels: 2
Bits per sample: 16
Bitrate: 812 kbps
Codec: FLAC
================================================================================


Exact Audio Copy V1.0 beta 1 from 15. November 2010

EAC extraction logfile from 15. August 2013, 21:22

Various artists / Lightning In a Bottle: Original Soundtrack Recording (CD2)

Used drive : PLEXTOR DVDR PX-891SA Adapter: 4 ID: 1

Read mode : Secure
Utilize accurate stream : Yes
Defeat audio cache : Yes
Make use of C2 pointers : No

Read offset correction : 6
Overread into Lead-In and Lead-Out : No
Fill up missing offset samples with silence : Yes
Delete leading and trailing silent blocks : No
Null samples used in CRC calculations : Yes
Used interface : Native Win32 interface for Win NT & 2000
Gap handling : Appended to previous track

Used output format : User Defined Encoder
Selected bitrate : 128 kBit/s
Quality : High
Add ID3 tag : No
Command line compressor : D:\Exact Audio Copy\Flac\flac.exe
Additional command line options : -8 -V -T "ARTIST=%a" -T "TITLE=%t" -T "ALBUM=%g" -T "DATE=%y" -T "TRACKNUMBER=%n" -T "TOTALTRACKS=%x" -T "GENRE=%m" -T "ALBUMARTIST=%v" -T "ALBUM ARTIST=%v" -T "COMMENT=EAC Secure Mode, Test & Copy, AccurateRip, FLAC -8" %s


TOC of the extracted CD

Track | Start | Length | Start sector | End sector
––––––––––––––––––––––––––––-
1 | 0:00.00 | 2:48.47 | 0 | 12646
2 | 2:48.47 | 3:26.23 | 12647 | 28119
3 | 6:14.70 | 7:32.09 | 28120 | 62028
4 | 13:47.04 | 4:20.25 | 62029 | 81553
5 | 18:07.29 | 4:12.36 | 81554 | 100489
6 | 22:19.65 | 3:27.25 | 100490 | 116039
7 | 25:47.15 | 4:58.74 | 116040 | 138463
8 | 30:46.14 | 4:04.71 | 138464 | 156834
9 | 34:51.10 | 3:27.09 | 156835 | 172368
10 | 38:18.19 | 3:20.71 | 172369 | 187439
11 | 41:39.15 | 5:17.18 | 187440 | 211232
12 | 46:56.33 | 5:44.47 | 211233 | 237079
13 | 52:41.05 | 4:10.71 | 237080 | 255900
14 | 56:52.01 | 6:31.57 | 255901 | 285282


Track 1

Filename D:\01 - Clarence ''Gatemouth'' Brown - Okie Dokie Stomp.wav

Pre-gap length 0:00:02.00

Peak level 99.8 %
Extraction speed 5.5 X
Track quality 100.0 %
Test CRC 911EA4B1
Copy CRC 911EA4B1
Cannot be verified as accurate (confidence 8) [61027C31], AccurateRip returned [8C498534]
Copy OK

Track 2

Filename D:\02 - Bonnie Raitt - Coming Home.wav

Peak level 99.8 %
Extraction speed 6.1 X
Track quality 100.0 %
Test CRC 7D6FDB1A
Copy CRC 7D6FDB1A
Cannot be verified as accurate (confidence 7) [581C8873], AccurateRip returned [167C2CDC]
Copy OK

Track 3

Filename D:\03 - Gregg Allman & Warren Haynes - The Sky Is Crying.wav

Peak level 99.8 %
Extraction speed 7.5 X
Track quality 100.0 %
Test CRC 878F1C3E
Copy CRC 878F1C3E
Cannot be verified as accurate (confidence 7) [886B8F2B], AccurateRip returned [EBA8FCAC]
Copy OK

Track 4

Filename D:\04 - Steven Tyler & Joe Perry - I'm a King Bee.wav

Peak level 99.8 %
Extraction speed 6.4 X
Track quality 99.9 %
Test CRC DDE19506
Copy CRC DDE19506
Cannot be verified as accurate (confidence 7) [0995B7A5], AccurateRip returned [0BAFF6C2]
Copy OK

Track 5

Filename D:\05 - Buddy Guy - First Time I Met The Blues.wav

Peak level 99.8 %
Extraction speed 8.1 X
Track quality 100.0 %
Test CRC 56059215
Copy CRC 56059215
Cannot be verified as accurate (confidence 7) [4AF66977], AccurateRip returned [4664E39E]
Copy OK

Track 6

Filename D:\06 - The Neville Brothers - Big Chief.wav

Peak level 99.8 %
Extraction speed 8.3 X
Track quality 100.0 %
Test CRC 52EFBBF9
Copy CRC 52EFBBF9
Cannot be verified as accurate (confidence 7) [1ACF1E43], AccurateRip returned [434D6765]
Copy OK

Track 7

Filename D:\07 - Shemekia Copeland & Robert Cray - I Pity The Fool.wav

Peak level 99.8 %
Extraction speed 9.1 X
Track quality 100.0 %
Test CRC B9BC3D58
Copy CRC B9BC3D58
Cannot be verified as accurate (confidence 7) [AB355A62], AccurateRip returned [90B1A60E]
Copy OK

Track 8

Filename D:\08 - David Johansen & Hubert Sumlin - Killing Floor.wav

Peak level 99.8 %
Extraction speed 9.3 X
Track quality 100.0 %
Test CRC 9CBC1CC5
Copy CRC 9CBC1CC5
Cannot be verified as accurate (confidence 7) [624DE242], AccurateRip returned [988F9010]
Copy OK

Track 9

Filename D:\09 - Solomon Burke - Turn On Your Love Light.wav

Peak level 99.8 %
Extraction speed 9.4 X
Track quality 100.0 %
Test CRC 3F2B6ED6
Copy CRC 3F2B6ED6
Cannot be verified as accurate (confidence 7) [448089DB], AccurateRip returned [A980059B]
Copy OK

Track 10

Filename D:\10 - Solomon Burke - Down In The Valley.wav

Peak level 99.8 %
Extraction speed 9.6 X
Track quality 100.0 %
Test CRC A2FC2073
Copy CRC A2FC2073
Cannot be verified as accurate (confidence 7) [D84EAEEA], AccurateRip returned [04FC3784]
Copy OK

Track 11

Filename D:\11 - Angelique Kidjo, Buddy Guy & Vernon Reid - Voodoo Child.wav

Peak level 99.8 %
Extraction speed 10.6 X
Track quality 100.0 %
Test CRC 573E1CA3
Copy CRC 573E1CA3
Cannot be verified as accurate (confidence 7) [57E1E087], AccurateRip returned [13D5B2EB]
Copy OK

Track 12

Filename D:\12 - Mos Def - Minnesota Blues (aka ''Black Jack Blues'').wav

Peak level 99.8 %
Extraction speed 11.1 X
Track quality 100.0 %
Test CRC 24F3F294
Copy CRC 24F3F294
Cannot be verified as accurate (confidence 7) [A446283D], AccurateRip returned [243FD81A]
Copy OK

Track 13

Filename D:\13 - Chuck D. & The Fine Arts Militia - (No) Boom Boom.wav

Peak level 99.8 %
Extraction speed 11.2 X
Track quality 100.0 %
Test CRC 8F314520
Copy CRC 8F314520
Cannot be verified as accurate (confidence 7) [55C56504], AccurateRip returned [E3DE9E50]
Copy OK

Track 14

Filename D:\14 - B.B. King - Sweet Sixteen.wav

Peak level 99.8 %
Extraction speed 12.0 X
Track quality 100.0 %
Test CRC 8ED53513
Copy CRC 8ED53513
Cannot be verified as accurate (confidence 6) [EB1DDC99], AccurateRip returned [BB453447]
Copy OK


No tracks could be verified as accurate
You may have a different pressing from the one(s) in the database

No errors occurred

End of status report

==== Log checksum 01BBC5E4B498FDBD160C5BA502AD0E4E1320AACA4DFF3CBA186EAD5B728F1C89 ====

foobar2000 1.2 / Dynamic Range Meter 1.1.1
log date: 2016-02-27 15:16:41

––––––––––––––––––––––––––––––––––––––––
Analyzed: Angelique Kidjo, Buddy Guy & Vernon Reid / Lightning In a Bottle: Original Soundtrack Recording (CD2) (1)
B.B. King / Lightning In a Bottle: Original Soundtrack Recording (CD2) (2)
Bonnie Raitt / Lightning In a Bottle: Original Soundtrack Recording (CD2) (3)
Buddy Guy / Lightning In a Bottle: Original Soundtrack Recording (CD2) (4)
Chuck D. & The Fine Arts Militia / Lightning In a Bottle: Original Soundtrack Recording (CD2) (5)
Clarence 'Gatemouth' Brown / Lightning In a Bottle: Original Soundtrack Recording (CD2) (6)
David Johansen & Hubert Sumlin / Lightning In a Bottle: Original Soundtrack Recording (CD2) (7)
Gregg Allman & Warren Haynes / Lightning In a Bottle: Original Soundtrack Recording (CD2) (8)
Mos Def / Lightning In a Bottle: Original Soundtrack Recording (CD2) (9)
Shemekia Copeland & Robert Cray / Lightning In a Bottle: Original Soundtrack Recording (CD2) (10)
Solomon Burke / Lightning In a Bottle: Original Soundtrack Recording (CD2) (11-12)
Steven Tyler & Joe Perry / Lightning In a Bottle: Original Soundtrack Recording (CD2) (13)
The Neville Brothers / Lightning In a Bottle: Original Soundtrack Recording (CD2) (14)
––––––––––––––––––––––––––––––––––––––––

DR Peak RMS Duration Track
––––––––––––––––––––––––––––––––––––––––
DR6 -0.01 dB -7.91 dB 5:17 11-Voodoo Child
DR7 -0.01 dB -9.71 dB 6:32 14-Sweet Sixteen
DR6 -0.01 dB -7.92 dB 3:26 02-Coming Home
DR6 -0.01 dB -7.23 dB 4:12 05-First Time I Met The Blues
DR7 -0.01 dB -8.46 dB 4:11 13-(No) Boom Boom
DR8 -0.01 dB -9.57 dB 2:49 01-Okie Dokie Stomp
DR6 -0.01 dB -7.15 dB 4:05 08-Killing Floor
DR7 -0.01 dB -8.24 dB 7:32 03-The Sky Is Crying
DR6 -0.01 dB -8.03 dB 5:45 12-Minnesota Blues (aka 'Black Jack Blues')
DR6 -0.01 dB -8.23 dB 4:59 07-I Pity The Fool
DR7 -0.01 dB -8.36 dB 3:27 09-Turn On Your Love Light
DR6 -0.01 dB -7.52 dB 3:21 10-Down In The Valley
DR7 -0.01 dB -8.18 dB 4:20 04-I'm a King Bee
DR6 -0.01 dB -7.91 dB 3:27 06-Big Chief
––––––––––––––––––––––––––––––––––––––––

Number of tracks: 14
Official DR value: DR7

Samplerate: 44100 Hz
Channels: 2
Bits per sample: 16
Bitrate: 893 kbps
Codec: FLAC
================================================================================

VA - Lightning In a Bottle: Original Soundtrack Recording (2004) 2CDs [Re-Up]

VA - Lightning In a Bottle: Original Soundtrack Recording (2004) 2CDs [Re-Up]

All thanks to original releaser - Smal_AV

More interesting music in My Blog