Tags
Language
Tags

VA - Pretty Woman: Original Motion Picture Soundtrack (1990) [Re-Up]

Posted By: Efgrapha
VA - Pretty Woman: Original Motion Picture Soundtrack (1990) [Re-Up]

VA - Pretty Woman: Original Motion Picture Soundtrack (1990)
EAC | FLAC (Image) + cue.+log ~ 325 Mb | Mp3, CBR320 kbps ~ 122 Mb | Scans included
Soundtrack, Score, Pop, Rock | Label: EMI | # CDP 79 34922 | Time: 00:44:15

Pretty Woman is noted for its musical selections and hugely successful soundtrack. The film features the song "Oh, Pretty Woman" by Roy Orbison, which inspired the movie's title. Roxette's "It Must Have Been Love" reached No. 1 on the Billboard Hot 100 in June 1990. The soundtrack also features "King of Wishful Thinking" by Go West, "Show Me Your Soul" by the Red Hot Chili Peppers, "No Explanation" by Peter Cetera, "Wild Women Do" by Natalie Cole and "Fallen" by Lauren Wood. The soundtrack went on to be certified three times platinum by the RIAA.

Alongside Ghost, another romantic comedy drama, Pretty Woman dominated the box office of 1990. The movie revitalised Richard Gere's career, and made a superstar of Julia Roberts, launching her on a string of hugely successful romantic comedies including My Best Friend's Wedding (1997), Notting Hill (1999), and, reuniting her with Gere and Pretty Woman director, Garry Marshall, The Runaway Bride (1999). Inevitably the movie's theme song is Roy Orbison's "Oh Pretty Woman", sounding fresh as ever. And if that is a typically male view of feminine attractions, Natalie Cole tells the other side of the story with the unrepentant "Wild Women Do". David Bowie provides an update of one of his greatest hits, with "Fame 90" and Robert Palmer describes "Life In Detail". The remainder of the album is a snapshot of up-and-coming acts at the beginning of the 90s, with Go West's massive hit, "King Of Wishful Thinking" and Roxette's chart smash "It Must Have Been Love" setting the agenda for slick, well produced power-pop. As nostalgia for the time just before dance took over the charts, or simply as a highly polished souvenir of one of the most popular movies ever made, Pretty Woman requires, as Peter Cetera appropriately adds, "No Explanation".

Review by Gary S. Dalkin, Amazon.com

~ Film at IMDB
~ Film at Wiki

Tracklist:

01. Natalie Cole - Wild Women Do (04:07)
02. David Bowie - Fame 90 (03:38)
03. Go West - King Of Wishful Thinking (04:00)
04. Jane Wiedlin - Tangled (04:18)
05. Roxette - It Must Have Been Love (04:19)
06. Robert Palmer - Life In Detail (04:09)
07. Peter Cetera - No Explanation (04:20)
08. Christopher Otcasek - Real Wild Child (Wild One) (03:38)
09. Lauren Wood - Fallen (04:01)
10. Roy Orbison - Oh Pretty Woman (02:56)
11. Red Hot Chili Peppers - Show Me Your Soul (04:22)


Exact Audio Copy V0.99 prebeta 5 from 4. May 2009

EAC extraction logfile from 4. February 2010, 23:46

Various / Pretty Woman

Used drive : HL-DT-STDVDRAM_GSA-T20N Adapter: 0 ID: 0

Read mode : Secure
Utilize accurate stream : Yes
Defeat audio cache : Yes
Make use of C2 pointers : No

Read offset correction : 667
Overread into Lead-In and Lead-Out : No
Fill up missing offset samples with silence : Yes
Delete leading and trailing silent blocks : No
Null samples used in CRC calculations : Yes
Used interface : Installed external ASPI interface

Used output format : User Defined Encoder
Selected bitrate : 768 kBit/s
Quality : High
Add ID3 tag : No
Command line compressor : C:\Program Files\Exact Audio Copy\Flac\flac.exe
Additional command line options : -8 -V %s


TOC of the extracted CD

Track | Start | Length | Start sector | End sector
––––––––––––––––––––––––––––-
1 | 0:00.32 | 4:10.13 | 32 | 18794
2 | 4:10.45 | 3:38.50 | 18795 | 35194
3 | 7:49.20 | 4:03.35 | 35195 | 53454
4 | 11:52.55 | 4:21.22 | 53455 | 73051
5 | 16:14.02 | 4:21.43 | 73052 | 92669
6 | 20:35.45 | 4:10.72 | 92670 | 111491
7 | 24:46.42 | 4:22.55 | 111492 | 131196
8 | 29:09.22 | 3:41.30 | 131197 | 147801
9 | 32:50.52 | 4:03.30 | 147802 | 166056
10 | 36:54.07 | 2:58.53 | 166057 | 179459
11 | 39:52.60 | 4:22.30 | 179460 | 199139


Range status and errors

Selected range

Filename C:\Music\Various - Pretty Woman.wav

Peak level 100.0 %
Range quality 99.9 %
Test CRC 051748CE
Copy CRC 051748CE
Copy OK

No errors occurred


AccurateRip summary

Track 1 accurately ripped (confidence 56) [521B3A8C]
Track 2 accurately ripped (confidence 56) [18B35CBE]
Track 3 accurately ripped (confidence 56) [68C46239]
Track 4 accurately ripped (confidence 57) [4244AC04]
Track 5 accurately ripped (confidence 57) [A6420DD1]
Track 6 accurately ripped (confidence 57) [B8DDF18E]
Track 7 accurately ripped (confidence 57) [4B3B5AAC]
Track 8 accurately ripped (confidence 57) [F51634B1]
Track 9 accurately ripped (confidence 57) [B8EDEF79]
Track 10 accurately ripped (confidence 57) [1B641208]
Track 11 accurately ripped (confidence 56) [AF1F302E]

All tracks accurately ripped

End of status report

foobar2000 1.2 / Dynamic Range Meter 1.1.1
log date: 2014-05-29 23:55:54

––––––––––––––––––––––––––––––––––––––––
Analyzed: David Bowie / Pretty Woman (1)
Go West / Pretty Woman (2)
Jane Wiedlin / Pretty Woman (3)
Lauren Wood / Pretty Woman (4)
––––––––––––––––––––––––––––––––––––––––

DR Peak RMS Duration Track
––––––––––––––––––––––––––––––––––––––––
DR14 -0.20 dB -15.29 dB 3:39 02-Fame 90
DR13 0.00 dB -14.82 dB 4:03 03-King Of Wishful Thinking
DR11 -0.47 dB -13.15 dB 4:21 04-Tangled
DR12 -1.17 dB -15.76 dB 4:03 09-Fallen
––––––––––––––––––––––––––––––––––––––––

Number of tracks: 4
Official DR value: DR13

Samplerate: 44100 Hz
Channels: 2
Bits per sample: 16
Bitrate: 929 kbps
Codec: FLAC
================================================================================

––––––––––––––––––––––––––––––––––––––––
Analyzed: Natalie Cole / Pretty Woman (1)
Peter Cetera / Pretty Woman (2)
Red Hot Chili Peppers / Pretty Woman (3)
––––––––––––––––––––––––––––––––––––––––

DR Peak RMS Duration Track
––––––––––––––––––––––––––––––––––––––––
DR12 -0.20 dB -14.37 dB 4:10 01-Wild Women Do
DR12 -0.20 dB -14.98 dB 4:23 07-No Explanation
DR12 -0.71 dB -14.21 dB 4:22 11-Show Me Your Soul
––––––––––––––––––––––––––––––––––––––––

Number of tracks: 3
Official DR value: DR12

Samplerate: 44100 Hz
Channels: 2
Bits per sample: 16
Bitrate: 929 kbps
Codec: FLAC
================================================================================

––––––––––––––––––––––––––––––––––––––––
Statistics for: 06-Life In Detail
Number of samples: 11067336
Duration: 4:11
––––––––––––––––––––––––––––––––––––––––

Left Right

Peak Value: -0.33 dB –- -0.34 dB
Avg RMS: -14.84 dB –- -14.96 dB
DR channel: 12.64 dB –- 12.98 dB
––––––––––––––––––––––––––––––––––––––––

Official DR Value: DR13

Samplerate: 44100 Hz
Channels: 2
Bits per sample: 16
Bitrate: 929 kbps
Codec: FLAC
================================================================================
––––––––––––––––––––––––––––––––––––––––
Analyzed: Roxette / Pretty Woman (1)
Roy Orbison / Pretty Woman (2)
––––––––––––––––––––––––––––––––––––––––

DR Peak RMS Duration Track
––––––––––––––––––––––––––––––––––––––––
DR11 -0.40 dB -13.70 dB 4:22 05-It Must Have Been Love
DR11 -1.29 dB -13.89 dB 2:59 10-Oh Pretty Woman
––––––––––––––––––––––––––––––––––––––––

Number of tracks: 2
Official DR value: DR11

Samplerate: 44100 Hz
Channels: 2
Bits per sample: 16
Bitrate: 929 kbps
Codec: FLAC
================================================================================

foobar2000 1.2 / Dynamic Range Meter 1.1.1
log date: 2014-05-29 23:55:49

––––––––––––––––––––––––––––––––––––––––
Statistics for: 08-Real Wild Child (Wild One)
Number of samples: 9763740
Duration: 3:41
––––––––––––––––––––––––––––––––––––––––

Left Right

Peak Value: -0.20 dB –- -0.20 dB
Avg RMS: -13.85 dB –- -13.44 dB
DR channel: 12.48 dB –- 11.97 dB
––––––––––––––––––––––––––––––––––––––––

Official DR Value: DR12

Samplerate: 44100 Hz
Channels: 2
Bits per sample: 16
Bitrate: 929 kbps
Codec: FLAC
================================================================================

VA - Pretty Woman: Original Motion Picture Soundtrack (1990) [Re-Up]

VA - Pretty Woman: Original Motion Picture Soundtrack (1990) [Re-Up]