Tags
Language
Tags

VA - Soul Jazz Records Presents Cuba: Music And Revolution - Culture Clash In Havana - Experiments In Latin Music 1975-85 (2021

Posted By: ciklon5
VA - Soul Jazz Records Presents Cuba: Music And Revolution - Culture Clash In Havana - Experiments In Latin Music 1975-85 (2021

VA - Soul Jazz Records Presents Cuba: Music And Revolution - Culture Clash In Havana - Experiments In Latin Music 1975-85 (2021
FLAC (tracks + .cue,log) | 01:28:23 | 563 Mb
Genre: Jazz, Latin, Funk, Soul / Label: Soul Jazz Records

Cuba: Music and Revolution: Culture Clash in Havana: Experiments in Latin Music 1975-85 Vol. 1 is a new album compiled by Gilles Peterson and Stuart Baker (Soul Jazz Records) that explores the many new styles that emerged in Cuba in the 1970s as Jazz, Funk, Brazilian Tropicalia and even Disco mixed together with Latin and Salsa on the island as Cuban artists experimented with new musical forms created in the unique socialist state. The music on this album features legendary Cuban groups such as Irakere, Los Van Van and Pablo Milanés as well as a host of lesser known artists such as the radical Grupo De Experimentación, Juan Pablo Torres and Algo Nuevo, Grupo Monumental and Orquesta Ritmo Oriental, groups whose names remain largely unknown and much of whose music has never been heard outside of Cuba. This album is released in conjunction with Egrem, the Cuban state record company.

Track List:
Disc 1
1. Grupo Irakere – Chequere Son (05:24)
2. Conjunto Rumbavana – El Son Del Campeon (05:03)
3. Juan Formell & Los Van Van – Mi Ritmo Caliente (03:14)
4. Grupo Monumental – Mi Son Caridad (03:54)
5. Grupo De Experimentación Sonora Del ICAIC – Sondeando (03:17)
6. Las D'Aida – Con Cadencia y Con Dulzura (04:48)
7. Juan Formell & Los Van Van – Y No Le Conviene (04:01)
8. Pablo Milanés – Te Quiero Porque Te Quiero (03:16)
9. Emiliano Salvador – Luna Wanestain (08:32)
10. Los Reyes 73 – Un Lamento Hecho Cancion (04:04)

Disc 2
1. Eduardo Ramos – Vocación Revolución (02:34)
2. Grupo Monumental – Hasta Las Cuantas (04:17)
3. Los 5 U 4 – Solo Esta Musica (02:38)
4. Grupo De Experimentación Sonora Del ICAIC – Canción Con Todos (03:27)
5. Orquesta Los Van Van – Yo Se Que Van Van (01:24)
6. Grupo Monumental – Nadie Se Siente Cansado (02:58)
7. Orquesta Ritmo Oriental – Maria, Baila El Son (02:52)
8. Juan Pablo Torres Y Algo Nuevo – Rompe Cocorioco (04:21)
9. Los Reyes 73 – Grandes Amigos (04:19)
10. Paquito D'Rivera – La Patica (03:10)
11. Grupo De Experimentación Sonora Del ICAIC – Grifo (06:20)
12. Raúl Gómez – Dacapo (03:48)
13. Grupo Irakere – Juana 1600 (05:01)

Exact Audio Copy V1.3 from 2. September 2016

EAC extraction logfile from 3. February 2021, 14:07

Various / Cuba: Music and Revolution - Culture Clash In Havana Cuba - Experiments in Latin Music 1975-85 Vol. 1

Used drive : OPTIARC DVD RW AD-5630A Adapter: 1 ID: 0

Read mode : Secure
Utilize accurate stream : Yes
Defeat audio cache : Yes
Make use of C2 pointers : No

Read offset correction : 48
Overread into Lead-In and Lead-Out : No
Fill up missing offset samples with silence : Yes
Delete leading and trailing silent blocks : No
Null samples used in CRC calculations : Yes
Used interface : Native Win32 interface for Win NT & 2000
Gap handling : Appended to previous track

Used output format : User Defined Encoder
Selected bitrate : 1024 kBit/s
Quality : High
Add ID3 tag : No
Command line compressor : C:\flac-1.3.2-win\flac-1.3.2-win\win64\flac.exe
Additional command line options : -8 -V -T "ARTIST=%artist%" -T "TITLE=%title%" -T "ALBUM=%albumtitle%" -T "DATE=%year%" -T "TRACKNUMBER=%tracknr%" -T "GENRE=%genre%" -T "PERFORMER=%albuminterpret%" -T "COMPOSER=%composer%" %haslyrics%–tag-from-file=LYRICS="%lyricsfile%"%haslyrics% -T "ALBUMARTIST=%albumartist%" -T "DISCNUMBER=%cdnumber%" -T "TOTALDISCS=%totalcds%" -T "TOTALTRACKS=%numtracks%" -T "COMMENT=%comment%" %source% -o %dest%


TOC of the extracted CD

Track | Start | Length | Start sector | End sector
––––––––––––––––––––––––––––-
1 | 0:00.00 | 5:24.18 | 0 | 24317
2 | 5:24.18 | 5:04.23 | 24318 | 47140
3 | 10:28.41 | 3:14.52 | 47141 | 61742
4 | 13:43.18 | 3:55.22 | 61743 | 79389
5 | 17:38.40 | 3:18.66 | 79390 | 94305
6 | 20:57.31 | 4:47.71 | 94306 | 115901
7 | 25:45.27 | 4:02.52 | 115902 | 134103
8 | 29:48.04 | 3:17.74 | 134104 | 148952
9 | 33:06.03 | 8:34.06 | 148953 | 187508
10 | 41:40.09 | 4:02.16 | 187509 | 205674


Track 1

Filename C:\Cuba Music and Revolution - Culture Clash In Havana Cuba - Experiments in Latin Music 1975-85 Vol. 1\01 - Various - Track01.wav

Pre-gap length 0:00:02.00

Peak level 96.6 %
Extraction speed 1.4 X
Track quality 100.0 %
Test CRC 1E49B5B1
Copy CRC 1E49B5B1
Track not present in AccurateRip database
Copy OK

Track 2

Filename C:\Cuba Music and Revolution - Culture Clash In Havana Cuba - Experiments in Latin Music 1975-85 Vol. 1\02 - Various - Track02.wav

Pre-gap length 0:00:01.85

Peak level 96.6 %
Extraction speed 1.6 X
Track quality 100.0 %
Test CRC EF0917A9
Copy CRC EF0917A9
Track not present in AccurateRip database
Copy OK

Track 3

Filename C:\Cuba Music and Revolution - Culture Clash In Havana Cuba - Experiments in Latin Music 1975-85 Vol. 1\03 - Various - Track03.wav

Pre-gap length 0:00:02.65

Peak level 96.6 %
Extraction speed 1.7 X
Track quality 100.0 %
Test CRC 14711118
Copy CRC 14711118
Track not present in AccurateRip database
Copy OK

Track 4

Filename C:\Cuba Music and Revolution - Culture Clash In Havana Cuba - Experiments in Latin Music 1975-85 Vol. 1\04 - Various - Track04.wav

Pre-gap length 0:00:02.61

Peak level 96.6 %
Extraction speed 1.9 X
Track quality 100.0 %
Test CRC E6CFAA7A
Copy CRC E6CFAA7A
Track not present in AccurateRip database
Copy OK

Track 5

Filename C:\Cuba Music and Revolution - Culture Clash In Havana Cuba - Experiments in Latin Music 1975-85 Vol. 1\05 - Various - Track05.wav

Pre-gap length 0:00:02.46

Peak level 96.6 %
Extraction speed 1.7 X
Track quality 99.9 %
Test CRC F5F7E529
Copy CRC F5F7E529
Track not present in AccurateRip database
Copy OK

Track 6

Filename C:\Cuba Music and Revolution - Culture Clash In Havana Cuba - Experiments in Latin Music 1975-85 Vol. 1\06 - Various - Track06.wav

Pre-gap length 0:00:03.04

Peak level 96.6 %
Extraction speed 2.1 X
Track quality 100.0 %
Test CRC 117F4962
Copy CRC 117F4962
Track not present in AccurateRip database
Copy OK

Track 7

Filename C:\Cuba Music and Revolution - Culture Clash In Havana Cuba - Experiments in Latin Music 1975-85 Vol. 1\07 - Various - Track07.wav

Pre-gap length 0:00:01.74

Peak level 96.6 %
Extraction speed 2.0 X
Track quality 99.9 %
Test CRC 98C01269
Copy CRC 98C01269
Track not present in AccurateRip database
Copy OK

Track 8

Filename C:\Cuba Music and Revolution - Culture Clash In Havana Cuba - Experiments in Latin Music 1975-85 Vol. 1\08 - Various - Track08.wav

Pre-gap length 0:00:02.86

Peak level 96.6 %
Extraction speed 2.2 X
Track quality 100.0 %
Test CRC 0E4762E9
Copy CRC 0E4762E9
Track not present in AccurateRip database
Copy OK

Track 9

Filename C:\Cuba Music and Revolution - Culture Clash In Havana Cuba - Experiments in Latin Music 1975-85 Vol. 1\09 - Various - Track09.wav

Pre-gap length 0:00:03.09

Peak level 100.0 %
Extraction speed 2.6 X
Track quality 100.0 %
Test CRC 1C7BE587
Copy CRC 1C7BE587
Track not present in AccurateRip database
Copy OK

Track 10

Filename C:\Cuba Music and Revolution - Culture Clash In Havana Cuba - Experiments in Latin Music 1975-85 Vol. 1\10 - Various - Track10.wav

Pre-gap length 0:00:02.18

Peak level 96.6 %
Extraction speed 2.6 X
Track quality 100.0 %
Test CRC C969C1A8
Copy CRC C969C1A8
Track not present in AccurateRip database
Copy OK


None of the tracks are present in the AccurateRip database

No errors occurred

End of status report

–– CUETools DB Plugin V2.1.6

[CTDB TOCID: .rYvwoJiQZ2_Ugm4eJn2BFRAItI-] found
Submit result: .rYvwoJiQZ2_Ugm4eJn2BFRAItI- has been confirmed
Track | CTDB Status
1 | (1/1) Accurately ripped
2 | (1/1) Accurately ripped
3 | (1/1) Accurately ripped
4 | (1/1) Accurately ripped
5 | (1/1) Accurately ripped
6 | (1/1) Accurately ripped
7 | (1/1) Accurately ripped
8 | (1/1) Accurately ripped
9 | (1/1) Accurately ripped
10 | (1/1) Accurately ripped


==== Log checksum A1E5C22CA67BEA2B97B561BC260EDB97639E55EE1E1781E9094EBFA696191211 ====
Exact Audio Copy V1.3 from 2. September 2016

EAC extraction logfile from 3. February 2021, 15:09

Unknown Artist / Unknown Title

Used drive : OPTIARC DVD RW AD-5630A Adapter: 1 ID: 0

Read mode : Secure
Utilize accurate stream : Yes
Defeat audio cache : Yes
Make use of C2 pointers : No

Read offset correction : 48
Overread into Lead-In and Lead-Out : No
Fill up missing offset samples with silence : Yes
Delete leading and trailing silent blocks : No
Null samples used in CRC calculations : Yes
Used interface : Native Win32 interface for Win NT & 2000
Gap handling : Appended to previous track

Used output format : User Defined Encoder
Selected bitrate : 1024 kBit/s
Quality : High
Add ID3 tag : No
Command line compressor : C:\flac-1.3.2-win\flac-1.3.2-win\win64\flac.exe
Additional command line options : -8 -V -T "ARTIST=%artist%" -T "TITLE=%title%" -T "ALBUM=%albumtitle%" -T "DATE=%year%" -T "TRACKNUMBER=%tracknr%" -T "GENRE=%genre%" -T "PERFORMER=%albuminterpret%" -T "COMPOSER=%composer%" %haslyrics%–tag-from-file=LYRICS="%lyricsfile%"%haslyrics% -T "ALBUMARTIST=%albumartist%" -T "DISCNUMBER=%cdnumber%" -T "TOTALDISCS=%totalcds%" -T "TOTALTRACKS=%numtracks%" -T "COMMENT=%comment%" %source% -o %dest%


TOC of the extracted CD

Track | Start | Length | Start sector | End sector
––––––––––––––––––––––––––––-
1 | 0:00.00 | 2:34.30 | 0 | 11579
2 | 2:34.30 | 4:18.40 | 11580 | 30969
3 | 6:52.70 | 2:37.70 | 30970 | 42814
4 | 9:30.65 | 3:28.14 | 42815 | 58428
5 | 12:59.04 | 1:25.03 | 58429 | 64806
6 | 14:24.07 | 2:58.44 | 64807 | 78200
7 | 17:22.51 | 2:53.42 | 78201 | 91217
8 | 20:16.18 | 4:21.65 | 91218 | 110857
9 | 24:38.08 | 4:19.60 | 110858 | 130342
10 | 28:57.68 | 3:09.74 | 130343 | 144591
11 | 32:07.67 | 6:19.51 | 144592 | 173067
12 | 38:27.43 | 3:49.11 | 173068 | 190253
13 | 42:16.54 | 4:59.11 | 190254 | 212689


Track 1

Filename C:\Cuba Music and Revolution - Culture Clash In Havana Cuba - Experiments in Latin Music 1975-85 Vol. 1\01 - Unknown Artist - Track01.wav

Pre-gap length 0:00:02.00

Peak level 96.6 %
Extraction speed 1.2 X
Track quality 100.0 %
Test CRC 61B92946
Copy CRC 61B92946
Track not present in AccurateRip database
Copy OK

Track 2

Filename C:\Cuba Music and Revolution - Culture Clash In Havana Cuba - Experiments in Latin Music 1975-85 Vol. 1\02 - Unknown Artist - Track02.wav

Pre-gap length 0:00:01.53

Peak level 96.6 %
Extraction speed 1.5 X
Track quality 100.0 %
Test CRC B22D0D56
Copy CRC B22D0D56
Track not present in AccurateRip database
Copy OK

Track 3

Filename C:\Cuba Music and Revolution - Culture Clash In Havana Cuba - Experiments in Latin Music 1975-85 Vol. 1\03 - Unknown Artist - Track03.wav

Pre-gap length 0:00:02.60

Peak level 96.6 %
Extraction speed 1.5 X
Track quality 100.0 %
Test CRC 4EE460F5
Copy CRC 4EE460F5
Track not present in AccurateRip database
Copy OK

Track 4

Filename C:\Cuba Music and Revolution - Culture Clash In Havana Cuba - Experiments in Latin Music 1975-85 Vol. 1\04 - Unknown Artist - Track04.wav

Pre-gap length 0:00:01.64

Peak level 93.7 %
Extraction speed 1.7 X
Track quality 100.0 %
Test CRC 25257C4B
Copy CRC 25257C4B
Track not present in AccurateRip database
Copy OK

Track 5

Filename C:\Cuba Music and Revolution - Culture Clash In Havana Cuba - Experiments in Latin Music 1975-85 Vol. 1\05 - Unknown Artist - Track05.wav

Pre-gap length 0:00:02.40

Peak level 91.9 %
Extraction speed 1.5 X
Track quality 100.0 %
Test CRC 0DEACA1A
Copy CRC 0DEACA1A
Track not present in AccurateRip database
Copy OK

Track 6

Filename C:\Cuba Music and Revolution - Culture Clash In Havana Cuba - Experiments in Latin Music 1975-85 Vol. 1\06 - Unknown Artist - Track06.wav

Pre-gap length 0:00:02.58

Peak level 96.6 %
Extraction speed 1.5 X
Track quality 99.9 %
Test CRC 36D56441
Copy CRC 36D56441
Track not present in AccurateRip database
Copy OK

Track 7

Filename C:\Cuba Music and Revolution - Culture Clash In Havana Cuba - Experiments in Latin Music 1975-85 Vol. 1\07 - Unknown Artist - Track07.wav

Pre-gap length 0:00:02.00

Peak level 96.6 %
Extraction speed 1.8 X
Track quality 100.0 %
Test CRC 71A43F25
Copy CRC 71A43F25
Track not present in AccurateRip database
Copy OK

Track 8

Filename C:\Cuba Music and Revolution - Culture Clash In Havana Cuba - Experiments in Latin Music 1975-85 Vol. 1\08 - Unknown Artist - Track08.wav

Pre-gap length 0:00:03.36

Peak level 96.6 %
Extraction speed 2.1 X
Track quality 100.0 %
Test CRC 03E5DB2B
Copy CRC 03E5DB2B
Track not present in AccurateRip database
Copy OK

Track 9

Filename C:\Cuba Music and Revolution - Culture Clash In Havana Cuba - Experiments in Latin Music 1975-85 Vol. 1\09 - Unknown Artist - Track09.wav

Pre-gap length 0:00:02.32

Peak level 94.5 %
Extraction speed 2.2 X
Track quality 100.0 %
Test CRC 20889959
Copy CRC 20889959
Track not present in AccurateRip database
Copy OK

Track 10

Filename C:\Cuba Music and Revolution - Culture Clash In Havana Cuba - Experiments in Latin Music 1975-85 Vol. 1\10 - Unknown Artist - Track10.wav

Pre-gap length 0:00:02.80

Peak level 96.6 %
Extraction speed 2.2 X
Track quality 100.0 %
Test CRC FE793543
Copy CRC FE793543
Track not present in AccurateRip database
Copy OK

Track 11

Filename C:\Cuba Music and Revolution - Culture Clash In Havana Cuba - Experiments in Latin Music 1975-85 Vol. 1\11 - Unknown Artist - Track11.wav

Pre-gap length 0:00:01.36

Peak level 96.6 %
Extraction speed 2.5 X
Track quality 100.0 %
Test CRC C216040A
Copy CRC C216040A
Track not present in AccurateRip database
Copy OK

Track 12

Filename C:\Cuba Music and Revolution - Culture Clash In Havana Cuba - Experiments in Latin Music 1975-85 Vol. 1\12 - Unknown Artist - Track12.wav

Pre-gap length 0:00:00.94

Peak level 96.6 %
Extraction speed 2.5 X
Track quality 100.0 %
Test CRC C0540859
Copy CRC C0540859
Track not present in AccurateRip database
Copy OK

Track 13

Filename C:\Cuba Music and Revolution - Culture Clash In Havana Cuba - Experiments in Latin Music 1975-85 Vol. 1\13 - Unknown Artist - Track13.wav

Pre-gap length 0:00:02.22

Peak level 96.6 %
Extraction speed 2.4 X
Track quality 99.9 %
Test CRC FF9972C4
Copy CRC FF9972C4
Track not present in AccurateRip database
Copy OK


None of the tracks are present in the AccurateRip database

No errors occurred

End of status report

–– CUETools DB Plugin V2.1.6

[CTDB TOCID: leGi8aQTIQxEZFx7PB7iLxeNSpI-] found
Submit result: leGi8aQTIQxEZFx7PB7iLxeNSpI- has been confirmed
Track | CTDB Status
1 | (1/1) Accurately ripped
2 | (1/1) Accurately ripped
3 | (1/1) Accurately ripped
4 | (1/1) Accurately ripped
5 | (1/1) Accurately ripped
6 | (1/1) Accurately ripped
7 | (1/1) Accurately ripped
8 | (1/1) Accurately ripped
9 | (1/1) Accurately ripped
10 | (1/1) Accurately ripped
11 | (1/1) Accurately ripped
12 | (1/1) Accurately ripped
13 | (1/1) Accurately ripped


==== Log checksum B63E3497407775F60248EBD1F98CB3D52411713084E00A0C9C72C5D87DCFDD96 ====