Tags
Language
Tags

VA - The Ultimate Christmas Album, WCBS-FM 101.1, Vol. 6 (2001)

Posted By: Designol
VA - The Ultimate Christmas Album, WCBS-FM 101.1, Vol. 6 (2001)

VA - The Ultimate Christmas Album, WCBS-FM 101.1, Vol. 6 (2001)
25 MORE Great Songs for the 25th of December

EAC | FLAC | Tracks (Cue&Log) ~ 467 Mb | Mp3 (CBR320) ~ 181 Mb | Scans ~ 40 Mb
Label: Collectables Records | # COL-CD-2524 | Time: 01:19:14
Holidays, Pop/Rock, Vocal Pop, Vocal Jazz, R&B

The Ultimate Christmas Album, Vol. 6: WCBS FM 101.1 is another eclectic collection of pop holiday tunes from the '50s, '60s, '70s, and '80s, including Wham!'s "Last Christmas," the Beach Boys' "Santa Claus Is Coming to Town," and Andy Williams' "Let It Snow! Let It Snow! Let It Snow!." Aretha Franklin's "Winter Wonderland," America's "Hark! The Herald Angels Sing," and Connie Francis' "White Christmas" are some of the other highlights from this scattered compilation, which somehow mixes different sounds and eras into a festive celebration.

Heather Phares, All Music Guide

Tracklist:

01. Wham - Last Christmas (06:40)
02. The Beach Boys - Santa Claus Is Coming To Town (02:20)
03. Aretha Franklin - Winter Wonderland (02:10)
04. Tony Bennett - White Christmas (02:05)
05. The Jackson Five - Frosty The Snowman (02:40)
06. Andy Williams - Let It Snow! Let It Snow! Let It Snow! (02:16)
07. The O'Jays - Have Yourself A Merry Little Christmas (04:56)
08. America - Hark! The Herald Angels Sing (02:31)
09. Barry Manilow - The Christmas Song (03:55)
10. Diana Ross & The Supremes - The Children's Christmas Song (02:52)
11. Johnny Mathis - I'll Be Home For Christmas (04:04)
12. Kenny Vance & The Planotones - Doo Wop Christmas (02:45)
13. Doris Day - The Christmas Waltz (02:47)
14. Greg Lake - I Believe In Father Christmas (03:33)
15. Engelbert Humperdinck - A Night To Remember (03:17)
16. Tony Orlando - It Came Upon A Midnight Clear (01:52)
17. The Manhattan Transfer - Happy Holiday - The Holiday Season (04:07)
18. Aretha Franklin - Kissin' By The Mistletoe (03:07)
19. Andy Williams - Silver Bells (03:09)
20. Jimmy Durante - Frosty The Snowman (03:00)
21. Connie Francis - White Christmas (03:25)
22. Johnny Tillotson, Freddy Cannon, & Brian Hyland - Come On A Sleigh Ride With Me (02:22)
23. Perry Como - Santa Claus Is Coming To Town (02:43)
24. Linda Ronstadt - Have Yourself A Merry Little Christmas (03:54)
25. Harry Harrison - May You Always (02:34)


Exact Audio Copy V1.0 beta 6 from 9. April 2015

EAC extraction logfile from 3. December 2015, 23:13

Various Artists / The Ultimate Christmas Album Volume 6

Used drive : hp DVD-RAM GH82N Adapter: 1 ID: 0

Read mode : Secure
Utilize accurate stream : Yes
Defeat audio cache : Yes
Make use of C2 pointers : No

Read offset correction : 667
Overread into Lead-In and Lead-Out : No
Fill up missing offset samples with silence : Yes
Delete leading and trailing silent blocks : No
Null samples used in CRC calculations : Yes
Used interface : Native Win32 interface for Win NT & 2000
Gap handling : Appended to previous track

Used output format : User Defined Encoder
Selected bitrate : 1024 kBit/s
Quality : High
Add ID3 tag : No
Command line compressor : C:\Program Files (x86)\Exact Audio Copy\Flac\flac.exe
Additional command line options : -8 -V -T "ARTIST=%artist%" -T "TITLE=%title%" -T "ALBUM=%albumtitle%" -T "DATE=%year%" -T "TRACKNUMBER=%tracknr%" -T "TOTALTRACKS=%numtracks%" -T "GENRE=%genre%" -T "ALBUMARTIST=%albumartist%" -T "ALBUM ARTIST=%albumartist%" -T "COMMENT=EAC Secure Mode, Test & Copy, AccurateRip, FLAC -8" %source%


TOC of the extracted CD

Track | Start | Length | Start sector | End sector
––––––––––––––––––––––––––––-
1 | 0:00.00 | 6:40.61 | 0 | 30060
2 | 6:40.61 | 2:20.28 | 30061 | 40588
3 | 9:01.14 | 2:10.66 | 40589 | 50404
4 | 11:12.05 | 2:05.25 | 50405 | 59804
5 | 13:17.30 | 2:40.34 | 59805 | 71838
6 | 15:57.64 | 2:16.41 | 71839 | 82079
7 | 18:14.30 | 4:56.67 | 82080 | 104346
8 | 23:11.22 | 2:31.03 | 104347 | 115674
9 | 25:42.25 | 3:55.41 | 115675 | 133340
10 | 29:37.66 | 2:52.35 | 133341 | 146275
11 | 32:30.26 | 4:04.08 | 146276 | 164583
12 | 36:34.34 | 2:45.05 | 164584 | 176963
13 | 39:19.39 | 2:47.18 | 176964 | 189506
14 | 42:06.57 | 3:33.02 | 189507 | 205483
15 | 45:39.59 | 3:17.00 | 205484 | 220258
16 | 48:56.59 | 1:52.67 | 220259 | 228725
17 | 50:49.51 | 4:07.37 | 228726 | 247287
18 | 54:57.13 | 3:07.24 | 247288 | 261336
19 | 58:04.37 | 3:09.18 | 261337 | 275529
20 | 61:13.55 | 3:00.45 | 275530 | 289074
21 | 64:14.25 | 3:25.30 | 289075 | 304479
22 | 67:39.55 | 2:22.41 | 304480 | 315170
23 | 70:02.21 | 2:43.18 | 315171 | 327413
24 | 72:45.39 | 3:54.23 | 327414 | 344986
25 | 76:39.62 | 2:34.57 | 344987 | 356593


Track 1

Filename C:\EAC\01 - Wham - Last Christmas.wav

Pre-gap length 0:00:02.00

Peak level 100.0 %
Extraction speed 2.0 X
Track quality 100.0 %
Test CRC 029FD584
Copy CRC 029FD584
Accurately ripped (confidence 9) [18679183] (AR v2)
Copy OK

Track 2

Filename C:\EAC\02 - The Beach Boys - Santa Claus Is Coming To Town.wav

Pre-gap length 0:00:02.00

Peak level 100.0 %
Extraction speed 1.8 X
Track quality 100.0 %
Test CRC 82368203
Copy CRC 82368203
Accurately ripped (confidence 9) [0208B847] (AR v2)
Copy OK

Track 3

Filename C:\EAC\03 - Aretha Franklin - Winter Wonderland.wav

Pre-gap length 0:00:02.01

Peak level 100.0 %
Extraction speed 2.0 X
Track quality 100.0 %
Test CRC 987301E5
Copy CRC 987301E5
Accurately ripped (confidence 9) [888EB56F] (AR v2)
Copy OK

Track 4

Filename C:\EAC\04 - Tony Bennett - White Christmas.wav

Pre-gap length 0:00:02.00

Peak level 100.0 %
Extraction speed 2.0 X
Track quality 100.0 %
Test CRC CB4C0DE6
Copy CRC CB4C0DE6
Accurately ripped (confidence 9) [952B3C14] (AR v2)
Copy OK

Track 5

Filename C:\EAC\05 - The Jackson Five - Frosty The Snowman.wav

Pre-gap length 0:00:02.01

Peak level 100.0 %
Extraction speed 2.2 X
Track quality 100.0 %
Test CRC 99C7370F
Copy CRC 99C7370F
Accurately ripped (confidence 9) [3AD075A2] (AR v2)
Copy OK

Track 6

Filename C:\EAC\06 - Andy Williams - Let It Snow! Let It Snow! Let It Snow!.wav

Pre-gap length 0:00:02.00

Peak level 100.0 %
Extraction speed 2.2 X
Track quality 100.0 %
Test CRC 603B1A1C
Copy CRC 603B1A1C
Accurately ripped (confidence 9) [24D6D0AD] (AR v2)
Copy OK

Track 7

Filename C:\EAC\07 - The O'Jays - Have Yourself A Merry Little Christmas.wav

Pre-gap length 0:00:02.00

Peak level 100.0 %
Extraction speed 2.6 X
Track quality 100.0 %
Test CRC 7B2C109A
Copy CRC 7B2C109A
Accurately ripped (confidence 9) [6D0A56E1] (AR v2)
Copy OK

Track 8

Filename C:\EAC\08 - America - Hark! The Herald Angels Sing.wav

Pre-gap length 0:00:02.00

Peak level 99.9 %
Extraction speed 2.0 X
Track quality 99.9 %
Test CRC 16DA698D
Copy CRC 16DA698D
Accurately ripped (confidence 9) [A5E5D4F9] (AR v2)
Copy OK

Track 9

Filename C:\EAC\09 - Barry Manilow - The Christmas Song.wav

Pre-gap length 0:00:02.01

Peak level 100.0 %
Extraction speed 2.8 X
Track quality 100.0 %
Test CRC ACD94ACB
Copy CRC ACD94ACB
Accurately ripped (confidence 9) [FE70356A] (AR v2)
Copy OK

Track 10

Filename C:\EAC\10 - Diana Ross & The Supremes - The Children's Christmas Song.wav

Pre-gap length 0:00:02.01

Peak level 100.0 %
Extraction speed 2.7 X
Track quality 100.0 %
Test CRC 6224F72A
Copy CRC 6224F72A
Accurately ripped (confidence 9) [3F9076EE] (AR v2)
Copy OK

Track 11

Filename C:\EAC\11 - Johnny Mathis - I'll Be Home For Christmas.wav

Pre-gap length 0:00:02.00

Peak level 100.0 %
Extraction speed 3.0 X
Track quality 100.0 %
Test CRC 70BA974B
Copy CRC 70BA974B
Accurately ripped (confidence 9) [E264119F] (AR v2)
Copy OK

Track 12

Filename C:\EAC\12 - Kenny Vance & The Planotones - Doo Wop Christmas.wav

Pre-gap length 0:00:02.01

Peak level 100.0 %
Extraction speed 2.9 X
Track quality 100.0 %
Test CRC AA58428B
Copy CRC AA58428B
Accurately ripped (confidence 9) [8D94F0C7] (AR v2)
Copy OK

Track 13

Filename C:\EAC\13 - Doris Day - The Christmas Waltz.wav

Pre-gap length 0:00:02.00

Peak level 99.8 %
Extraction speed 2.8 X
Track quality 100.0 %
Test CRC CB453590
Copy CRC CB453590
Accurately ripped (confidence 9) [6578827E] (AR v2)
Copy OK

Track 14

Filename C:\EAC\14 - Greg Lake - I Believe In Father Christmas.wav

Pre-gap length 0:00:02.01

Peak level 100.0 %
Extraction speed 3.0 X
Track quality 100.0 %
Test CRC 258D6A41
Copy CRC 258D6A41
Accurately ripped (confidence 9) [394FEB23] (AR v2)
Copy OK

Track 15

Filename C:\EAC\15 - Engelbert Humperdinck - A Night To Remember.wav

Pre-gap length 0:00:02.00

Peak level 100.0 %
Extraction speed 3.2 X
Track quality 100.0 %
Test CRC 03FB24A1
Copy CRC 03FB24A1
Accurately ripped (confidence 9) [D9F19021] (AR v2)
Copy OK

Track 16

Filename C:\EAC\16 - Tony Orlando - It Came Upon A Midnight Clear.wav

Pre-gap length 0:00:02.00

Peak level 100.0 %
Extraction speed 2.2 X
Track quality 99.9 %
Test CRC A9D4F30C
Copy CRC A9D4F30C
Accurately ripped (confidence 9) [83043003] (AR v2)
Copy OK

Track 17

Filename C:\EAC\17 - The Manhattan Transfer - Happy Holiday - The Holiday Season.wav

Pre-gap length 0:00:02.01

Peak level 100.0 %
Extraction speed 3.4 X
Track quality 100.0 %
Test CRC 5477B183
Copy CRC 5477B183
Accurately ripped (confidence 9) [854F3613] (AR v2)
Copy OK

Track 18

Filename C:\EAC\18 - Aretha Franklin - Kissin' By The Mistletoe.wav

Pre-gap length 0:00:02.01

Peak level 100.0 %
Extraction speed 3.3 X
Track quality 100.0 %
Test CRC 4A9C074F
Copy CRC 4A9C074F
Accurately ripped (confidence 9) [9DB76B26] (AR v2)
Copy OK

Track 19

Filename C:\EAC\19 - Andy Williams - Silver Bells.wav

Pre-gap length 0:00:02.00

Peak level 99.6 %
Extraction speed 2.8 X
Track quality 99.9 %
Test CRC DE54DFCF
Copy CRC DE54DFCF
Accurately ripped (confidence 9) [A2349CAC] (AR v2)
Copy OK

Track 20

Filename C:\EAC\20 - Jimmy Durante - Frosty The Snowman.wav

Pre-gap length 0:00:02.00

Peak level 100.0 %
Extraction speed 2.9 X
Track quality 99.9 %
Test CRC 8F2AFFA3
Copy CRC 8F2AFFA3
Accurately ripped (confidence 9) [4B898122] (AR v2)
Copy OK

Track 21

Filename C:\EAC\21 - Connie Francis - White Christmas.wav

Pre-gap length 0:00:02.01

Peak level 100.0 %
Extraction speed 3.5 X
Track quality 100.0 %
Test CRC D141F9B8
Copy CRC D141F9B8
Accurately ripped (confidence 9) [1FB7C502] (AR v2)
Copy OK

Track 22

Filename C:\EAC\22 - Johnny Tillotson, Freddy Cannon, & Brian Hyland - Come On A Sleigh Ride With Me.wav

Pre-gap length 0:00:02.00

Peak level 100.0 %
Extraction speed 3.4 X
Track quality 100.0 %
Test CRC 8914AB0C
Copy CRC 8914AB0C
Accurately ripped (confidence 9) [873A3D51] (AR v2)
Copy OK

Track 23

Filename C:\EAC\23 - Perry Como - Santa Claus Is Coming To Town.wav

Pre-gap length 0:00:02.01

Peak level 100.0 %
Extraction speed 3.4 X
Track quality 100.0 %
Test CRC CE4C5BA7
Copy CRC CE4C5BA7
Accurately ripped (confidence 9) [5707A9BE] (AR v2)
Copy OK

Track 24

Filename C:\EAC\24 - Linda Ronstadt - Have Yourself A Merry Little Christmas.wav

Pre-gap length 0:00:02.00

Peak level 100.0 %
Extraction speed 3.7 X
Track quality 100.0 %
Test CRC 4CC1DB20
Copy CRC 4CC1DB20
Accurately ripped (confidence 9) [E764687B] (AR v2)
Copy OK

Track 25

Filename C:\EAC\25 - Harry Harrison - May You Always.wav

Pre-gap length 0:00:02.01

Peak level 100.0 %
Extraction speed 3.6 X
Track quality 100.0 %
Test CRC F1A20B7D
Copy CRC F1A20B7D
Accurately ripped (confidence 9) [9FF460EF] (AR v2)
Copy OK


All tracks accurately ripped

No errors occurred

End of status report

–– CUETools DB Plugin V2.1.6

[CTDB TOCID: mV7Nx2XEUK6I4cF4RcEB95WkmjE-] found
Submit result: mV7Nx2XEUK6I4cF4RcEB95WkmjE- has been confirmed
Track | CTDB Status
1 | (9/9) Accurately ripped
2 | (9/9) Accurately ripped
3 | (9/9) Accurately ripped
4 | (9/9) Accurately ripped
5 | (9/9) Accurately ripped
6 | (9/9) Accurately ripped
7 | (9/9) Accurately ripped
8 | (9/9) Accurately ripped
9 | (9/9) Accurately ripped
10 | (9/9) Accurately ripped
11 | (9/9) Accurately ripped
12 | (9/9) Accurately ripped
13 | (9/9) Accurately ripped
14 | (9/9) Accurately ripped
15 | (9/9) Accurately ripped
16 | (9/9) Accurately ripped
17 | (9/9) Accurately ripped
18 | (9/9) Accurately ripped
19 | (9/9) Accurately ripped
20 | (9/9) Accurately ripped
21 | (9/9) Accurately ripped
22 | (9/9) Accurately ripped
23 | (9/9) Accurately ripped
24 | (9/9) Accurately ripped
25 | (9/9) Accurately ripped


==== Log checksum E17CE314B8B69EE7C37F49769F4E0A560B809A27F9A22BED6344222FCB4C6DCE ====

foobar2000 1.2 / Dynamic Range Meter 1.1.1
log date: 2016-12-15 20:45:20

––––––––––––––––––––––––––––––––––––––––
Analyzed: America / The Ultimate Christmas Album Volume 6 (1)
Andy Williams / The Ultimate Christmas Album Volume 6 (2-3)
Aretha Franklin / The Ultimate Christmas Album Volume 6 (4-5)
Barry Manilow / The Ultimate Christmas Album Volume 6 (6)
Connie Francis / The Ultimate Christmas Album Volume 6 (7)
Diana Ross & The Supremes / The Ultimate Christmas Album Volume 6 (8)
Doris Day / The Ultimate Christmas Album Volume 6 (9)
Engelbert Humperdinck / The Ultimate Christmas Album Volume 6 (10)
Greg Lake / The Ultimate Christmas Album Volume 6 (11)
Harry Harrison / The Ultimate Christmas Album Volume 6 (12)
Jimmy Durante / The Ultimate Christmas Album Volume 6 (13)
Johnny Mathis / The Ultimate Christmas Album Volume 6 (14)
Johnny Tillotson, Freddy Cannon, & Brian Hyland / The Ultimate Christmas Album Volume 6 (15)
Kenny Vance & The Planotones / The Ultimate Christmas Album Volume 6 (16)
Linda Ronstadt / The Ultimate Christmas Album Volume 6 (17)
Perry Como / The Ultimate Christmas Album Volume 6 (18)
The Beach Boys / The Ultimate Christmas Album Volume 6 (19)
The Jackson Five / The Ultimate Christmas Album Volume 6 (20)
The Manhattan Transfer / The Ultimate Christmas Album Volume 6 (21)
The O'Jays / The Ultimate Christmas Album Volume 6 (22)
Tony Bennett / The Ultimate Christmas Album Volume 6 (23)
Tony Orlando / The Ultimate Christmas Album Volume 6 (24)
Wham / The Ultimate Christmas Album Volume 6 (25)
––––––––––––––––––––––––––––––––––––––––

DR Peak RMS Duration Track
––––––––––––––––––––––––––––––––––––––––
DR11 0.00 dB -13.25 dB 2:31 08-Hark! The Herald Angels Sing
DR11 0.00 dB -13.29 dB 2:17 06-Let It Snow! Let It Snow! Let It Snow!
DR11 -0.03 dB -12.91 dB 3:09 19-Silver Bells
DR11 0.00 dB -13.04 dB 2:11 03-Winter Wonderland
DR10 0.00 dB -12.11 dB 3:07 18-Kissin' By The Mistletoe
DR12 0.00 dB -15.14 dB 3:56 09-The Christmas Song
DR10 0.00 dB -15.37 dB 3:25 21-White Christmas
DR11 0.00 dB -12.37 dB 2:52 10-The Children's Christmas Song
DR10 -0.01 dB -12.74 dB 2:47 13-The Christmas Waltz
DR13 0.00 dB -15.62 dB 3:17 15-A Night To Remember
DR10 0.00 dB -13.19 dB 3:33 14-I Believe In Father Christmas
DR7 0.00 dB -8.27 dB 2:35 25-May You Always
DR11 0.00 dB -13.39 dB 3:01 20-Frosty The Snowman
DR10 0.00 dB -13.16 dB 4:04 11-I'll Be Home For Christmas
DR15 0.00 dB -16.65 dB 2:23 22-Come On A Sleigh Ride With Me
DR9 0.00 dB -11.13 dB 2:45 12-Doo Wop Christmas
DR8 0.00 dB -11.65 dB 3:54 24-Have Yourself A Merry Little Christmas
DR8 0.00 dB -11.62 dB 2:43 23-Santa Claus Is Coming To Town
DR11 0.00 dB -13.44 dB 2:20 02-Santa Claus Is Coming To Town
DR11 0.00 dB -12.87 dB 2:40 05-Frosty The Snowman
DR11 0.00 dB -13.11 dB 4:07 17-Happy Holiday - The Holiday Season
DR11 0.00 dB -13.49 dB 4:57 07-Have Yourself A Merry Little Christmas
DR10 0.00 dB -12.98 dB 2:05 04-White Christmas
DR12 0.00 dB -14.87 dB 1:53 16-It Came Upon A Midnight Clear
DR13 0.00 dB -15.16 dB 6:41 01-Last Christmas
––––––––––––––––––––––––––––––––––––––––

Number of tracks: 25
Official DR value: DR11

Samplerate: 44100 Hz
Channels: 2
Bits per sample: 16
Bitrate: 865 kbps
Codec: FLAC
================================================================================

VA - The Ultimate Christmas Album, WCBS-FM 101.1, Vol. 6 (2001)

VA - The Ultimate Christmas Album, WCBS-FM 101.1, Vol. 6 (2001)