Tags
Language
Tags

VA - Almost Famous [Super Deluxe Edition] (2021)

Posted By: JET 1
VA - Almost Famous [Super Deluxe Edition] (2021)

VA - Almost Famous [Super Deluxe Edition] (2021)
XLD Rip | FLAC (Tracks) +CUE, LOG | 1.87 GB
Genre: Soundtrack, Rock & Roll, Classic Rock | Label: Geffen Records | Catalog Number: B0033288-01

Universal Music are to release a five-CD super deluxe edition of the soundtrack to Cameron Crowe’s film Almost Famous (released in 2000). The semi autobiographical comedy drama follows the exploits of a young Rolling Stone journalist as he tours with the (fictional) band Stillwater. It was well-received at the time and won plenty of awards including a Best Original Screenplay Ocscar for Crowe.
The Almost Famous soundtrack included artists such as Led Zeppelin, Fleetwood Mac, Elton John, Cat Stevens and more plus six songs by the movie’s make believe band, Stillwater.
The new five-CD super deluxe version includes 102 tracks (songs/dialogue/score etc.) and features some unreleased cuts, including Elton John‘s ‘Tiny Dancer’ newly mixed with the cast members singing alongside the song (as featured in the film) and The Who’s ‘Amazing Journey / Sparks (Almost Famous Version)’, which was newly remixed & edited.
Neil Young‘s ‘Cortez the Killer’ wasn’t on the original soundtrack at all (since the audio featured in the movie was taken from the bootleg of a 1999 show), but Young recently unearthed it from his archive and newly mixed from the original multi-track analogue tape for this release. The reissue of Almost Famous includes film dialogue, Stillwater demos & jams and original score tracks by Nancy Wilson. This all sounds quite groovy until you see the price for this box set. The bean-counters at the label seem to have embraced the theme of Seventies rock excess, since UMC are asking £120 for five CDs and some bits of paper. An alternative is the original 17-track soundtrack which is also being reissued as a 2LP vinyl set with some unreleased photos to “enhance the packaging”. There’s also D2C version presented in a ‘tip-on’ vintage-style gatefold jacket with unique cover art & photos plus a massive storyboard poster.
The 5CD super deluxe of Almost Famous has been pushed back to the 20 August although the 2LP set will be reissued on 9 July 2021. A 4k UHD blu-ray edition of the film is also due in the summer.

X Lossless Decoder version 20211018 (154.0)

XLD extraction logfile from 2021-12-14 19:58:53 -0500

Various Artists / Almost Famous (Music From The Motion Picture) (20th Anniversary Super Deluxe Edition) [Disc 1]

Used drive : HL-DT-ST DVDRW GX50N (revision RR06)
Media type : Pressed CD

Ripper mode : XLD Secure Ripper
Disable audio cache : OK for the drive with a cache less than 1375KiB
Make use of C2 pointers : NO
Read offset correction : 6
Max retry count : 20
Gap status : Analyzed, Appended (except HTOA)

TOC of the extracted CD
Track | Start | Length | Start sector | End sector
––––––––––––––––––––––––––––-
1 | 00:00:00 | 02:21:72 | 0 | 10646
2 | 02:21:72 | 02:35:23 | 10647 | 22294
3 | 04:57:20 | 03:32:71 | 22295 | 38265
4 | 08:30:16 | 00:08:33 | 38266 | 38898
5 | 08:38:49 | 07:27:36 | 38899 | 72459
6 | 16:06:10 | 03:28:23 | 72460 | 88082
7 | 19:34:33 | 00:13:69 | 88083 | 89126
8 | 19:48:27 | 03:50:26 | 89127 | 106402
9 | 23:38:53 | 00:16:37 | 106403 | 107639
10 | 23:55:15 | 03:48:29 | 107640 | 124768
11 | 27:43:44 | 00:47:08 | 124769 | 128301
12 | 28:30:52 | 08:30:63 | 128302 | 166614
13 | 37:01:40 | 01:07:25 | 166615 | 171664
14 | 38:08:65 | 06:55:17 | 171665 | 202806
15 | 45:04:07 | 04:42:53 | 202807 | 224009
16 | 49:46:60 | 00:17:35 | 224010 | 225319
17 | 50:04:20 | 04:04:58 | 225320 | 243677
18 | 54:09:03 | 00:35:74 | 243678 | 246376
19 | 54:45:02 | 03:09:44 | 246377 | 260595

AccurateRip Summary (DiscID: 00272f17-022c34af-f90d9213)
Track 01 : OK (v2, confidence 4/4)
Track 02 : OK (v2, confidence 4/4)
Track 03 : OK (v2, confidence 4/4)
Track 04 : OK (v2, confidence 4/4)
Track 05 : OK (v2, confidence 4/4)
Track 06 : OK (v2, confidence 4/4)
Track 07 : OK (v2, confidence 4/4)
Track 08 : OK (v2, confidence 4/4)
Track 09 : OK (v2, confidence 4/4)
Track 10 : OK (v2, confidence 4/4)
Track 11 : OK (v2, confidence 4/4)
Track 12 : OK (v2, confidence 4/4)
Track 13 : OK (v2, confidence 4/4)
Track 14 : OK (v2, confidence 4/4)
Track 15 : OK (v2, confidence 4/4)
Track 16 : OK (v2, confidence 4/4)
Track 17 : OK (v2, confidence 4/4)
Track 18 : OK (v2, confidence 4/4)
Track 19 : OK (v2, confidence 4/4)
->All tracks accurately ripped.

All Tracks
Album gain : -6.46 dB
Peak : 0.954285
Statistics
Read error : 0
Jitter error (maybe fixed) : 0
Retry sector count : 0
Damaged sector count : 0

Track 01
Filename : /Volumes/5TB/XLD Rips/Various Artists - Almost Famous (Music From The Motion Picture) (20th Anniversary Super Deluxe Edition) [Disc 1] (2021) [FLAC]/01 The Chipmunk Song (Christmas Don't Be Late).flac
Pre-gap length : 00:02:00

Track gain : -4.20 dB
Peak : 0.600159
CRC32 hash (test run) : E96FFD5C
CRC32 hash : E96FFD5C
CRC32 hash (skip zero) : F094CC90
AccurateRip v1 signature : CED289EE
AccurateRip v2 signature : 3E98AD45
->Accurately ripped (v2, confidence 4/4)
Statistics
Read error : 0
Jitter error (maybe fixed) : 0
Retry sector count : 0
Damaged sector count : 0

Track 02
Filename : /Volumes/5TB/XLD Rips/Various Artists - Almost Famous (Music From The Motion Picture) (20th Anniversary Super Deluxe Edition) [Disc 1] (2021) [FLAC]/02 The Oogum Boogum Song.flac
Pre-gap length : 00:01:00

Track gain : -5.58 dB
Peak : 0.697174
CRC32 hash (test run) : F69EF10F
CRC32 hash : F69EF10F
CRC32 hash (skip zero) : C832A5A6
AccurateRip v1 signature : E7034563
AccurateRip v2 signature : F0FD67B1
->Accurately ripped (v2, confidence 4/4)
Statistics
Read error : 0
Jitter error (maybe fixed) : 0
Retry sector count : 0
Damaged sector count : 0

Track 03
Filename : /Volumes/5TB/XLD Rips/Various Artists - Almost Famous (Music From The Motion Picture) (20th Anniversary Super Deluxe Edition) [Disc 1] (2021) [FLAC]/03 America.flac
Pre-gap length : 00:01:22

Track gain : -2.89 dB
Peak : 0.943329
CRC32 hash (test run) : 68665467
CRC32 hash : 68665467
CRC32 hash (skip zero) : 898EFD90
AccurateRip v1 signature : C1AD30D4
AccurateRip v2 signature : 777B7DC0
->Accurately ripped (v2, confidence 4/4)
Statistics
Read error : 0
Jitter error (maybe fixed) : 0
Retry sector count : 0
Damaged sector count : 0

Track 04
Filename : /Volumes/5TB/XLD Rips/Various Artists - Almost Famous (Music From The Motion Picture) (20th Anniversary Super Deluxe Edition) [Disc 1] (2021) [FLAC]/04 _One Day You'll Be Cool_.flac

Track gain : 6.43 dB
Peak : 0.292267
CRC32 hash (test run) : C1B3AFD0
CRC32 hash : C1B3AFD0
CRC32 hash (skip zero) : CEFCE4A7
AccurateRip v1 signature : 89901F1D
AccurateRip v2 signature : 8A6A792A
->Accurately ripped (v2, confidence 4/4)
Statistics
Read error : 0
Jitter error (maybe fixed) : 0
Retry sector count : 0
Damaged sector count : 0

Track 05
Filename : /Volumes/5TB/XLD Rips/Various Artists - Almost Famous (Music From The Motion Picture) (20th Anniversary Super Deluxe Edition) [Disc 1] (2021) [FLAC]/05 Amazing Journey-Sparks (_Almost Famous_ Version).flac

Track gain : -6.73 dB
Peak : 0.898285
CRC32 hash (test run) : B80EC809
CRC32 hash : B80EC809
CRC32 hash (skip zero) : 4516F2DD
AccurateRip v1 signature : 137BFF10
AccurateRip v2 signature : 32DF3E08
->Accurately ripped (v2, confidence 4/4)
Statistics
Read error : 0
Jitter error (maybe fixed) : 0
Retry sector count : 0
Damaged sector count : 0

Track 06
Filename : /Volumes/5TB/XLD Rips/Various Artists - Almost Famous (Music From The Motion Picture) (20th Anniversary Super Deluxe Edition) [Disc 1] (2021) [FLAC]/06 Search And Destroy.flac

Track gain : -9.97 dB
Peak : 0.523193
CRC32 hash (test run) : D359F71F
CRC32 hash : D359F71F
CRC32 hash (skip zero) : F101C208
AccurateRip v1 signature : 821EE1F9
AccurateRip v2 signature : 87514612
->Accurately ripped (v2, confidence 4/4)
Statistics
Read error : 0
Jitter error (maybe fixed) : 0
Retry sector count : 0
Damaged sector count : 0

Track 07
Filename : /Volumes/5TB/XLD Rips/Various Artists - Almost Famous (Music From The Motion Picture) (20th Anniversary Super Deluxe Edition) [Disc 1] (2021) [FLAC]/07 _Rock N' Roll It's Over_.flac
Pre-gap length : 00:01:03

Track gain : 1.25 dB
Peak : 0.543457
CRC32 hash (test run) : D1FAF17B
CRC32 hash : D1FAF17B
CRC32 hash (skip zero) : 309B15ED
AccurateRip v1 signature : C460501D
AccurateRip v2 signature : A6AEC125
->Accurately ripped (v2, confidence 4/4)
Statistics
Read error : 0
Jitter error (maybe fixed) : 0
Retry sector count : 0
Damaged sector count : 0

Track 08
Filename : /Volumes/5TB/XLD Rips/Various Artists - Almost Famous (Music From The Motion Picture) (20th Anniversary Super Deluxe Edition) [Disc 1] (2021) [FLAC]/08 It Wouldn't Have Made Any Difference.flac
Pre-gap length : 00:00:01

Track gain : -6.27 dB
Peak : 0.952209
CRC32 hash (test run) : 609A0545
CRC32 hash : 609A0545
CRC32 hash (skip zero) : 40A2724F
AccurateRip v1 signature : 6D1D0FAB
AccurateRip v2 signature : 6E2C33D9
->Accurately ripped (v2, confidence 4/4)
Statistics
Read error : 0
Jitter error (maybe fixed) : 0
Retry sector count : 0
Damaged sector count : 0

Track 09
Filename : /Volumes/5TB/XLD Rips/Various Artists - Almost Famous (Music From The Motion Picture) (20th Anniversary Super Deluxe Edition) [Disc 1] (2021) [FLAC]/09 _Don't Take Drugs_.flac

Track gain : 4.10 dB
Peak : 0.326599
CRC32 hash (test run) : 7185F109
CRC32 hash : 7185F109
CRC32 hash (skip zero) : 32ED4601
AccurateRip v1 signature : E5B08EBF
AccurateRip v2 signature : C056A29C
->Accurately ripped (v2, confidence 4/4)
Statistics
Read error : 0
Jitter error (maybe fixed) : 0
Retry sector count : 0
Damaged sector count : 0

Track 10
Filename : /Volumes/5TB/XLD Rips/Various Artists - Almost Famous (Music From The Motion Picture) (20th Anniversary Super Deluxe Edition) [Disc 1] (2021) [FLAC]/10 Teacher (U.S. Version).flac

Track gain : -7.22 dB
Peak : 0.954285
CRC32 hash (test run) : 77A5B39B
CRC32 hash : 77A5B39B
CRC32 hash (skip zero) : 9BC11764
AccurateRip v1 signature : B36B287D
AccurateRip v2 signature : 8D8AC1F0
->Accurately ripped (v2, confidence 4/4)
Statistics
Read error : 0
Jitter error (maybe fixed) : 0
Retry sector count : 0
Damaged sector count : 0

Track 11
Filename : /Volumes/5TB/XLD Rips/Various Artists - Almost Famous (Music From The Motion Picture) (20th Anniversary Super Deluxe Edition) [Disc 1] (2021) [FLAC]/11 _We Are Band Aids_.flac

Track gain : 9.76 dB
Peak : 0.267914
CRC32 hash (test run) : 53289558
CRC32 hash : 53289558
CRC32 hash (skip zero) : 34FC5A52
AccurateRip v1 signature : 79F03A31
AccurateRip v2 signature : 476325A4
->Accurately ripped (v2, confidence 4/4)
Statistics
Read error : 0
Jitter error (maybe fixed) : 0
Retry sector count : 0
Damaged sector count : 0

Track 12
Filename : /Volumes/5TB/XLD Rips/Various Artists - Almost Famous (Music From The Motion Picture) (20th Anniversary Super Deluxe Edition) [Disc 1] (2021) [FLAC]/12 Roundabout.flac

Track gain : -6.70 dB
Peak : 0.949738
CRC32 hash (test run) : E3284C86
CRC32 hash : E3284C86
CRC32 hash (skip zero) : B14C6B65
AccurateRip v1 signature : CA1ACC6F
AccurateRip v2 signature : FF5B91EA
->Accurately ripped (v2, confidence 4/4)
Statistics
Read error : 0
Jitter error (maybe fixed) : 0
Retry sector count : 0
Damaged sector count : 0

Track 13
Filename : /Volumes/5TB/XLD Rips/Various Artists - Almost Famous (Music From The Motion Picture) (20th Anniversary Super Deluxe Edition) [Disc 1] (2021) [FLAC]/13 _Incendiary_.flac

Track gain : 8.20 dB
Peak : 0.448364
CRC32 hash (test run) : 31F7E7C0
CRC32 hash : 31F7E7C0
CRC32 hash (skip zero) : 83986000
AccurateRip v1 signature : 0B240072
AccurateRip v2 signature : 8577210F
->Accurately ripped (v2, confidence 4/4)
Statistics
Read error : 0
Jitter error (maybe fixed) : 0
Retry sector count : 0
Damaged sector count : 0

Track 14
Filename : /Volumes/5TB/XLD Rips/Various Artists - Almost Famous (Music From The Motion Picture) (20th Anniversary Super Deluxe Edition) [Disc 1] (2021) [FLAC]/14 I've Seen All Good People: a. Your Move, b. All Good People.flac

Track gain : -5.92 dB
Peak : 0.877014
CRC32 hash (test run) : FC7E8A35
CRC32 hash : FC7E8A35
CRC32 hash (skip zero) : C3BC496B
AccurateRip v1 signature : 726316E1
AccurateRip v2 signature : 14EEE40D
->Accurately ripped (v2, confidence 4/4)
Statistics
Read error : 0
Jitter error (maybe fixed) : 0
Retry sector count : 0
Damaged sector count : 0

Track 15
Filename : /Volumes/5TB/XLD Rips/Various Artists - Almost Famous (Music From The Motion Picture) (20th Anniversary Super Deluxe Edition) [Disc 1] (2021) [FLAC]/15 Feel Flows.flac

Track gain : -4.38 dB
Peak : 0.950745
CRC32 hash (test run) : AF482485
CRC32 hash : AF482485
CRC32 hash (skip zero) : 9D1CB76A
AccurateRip v1 signature : 65110C8F
AccurateRip v2 signature : 16329D01
->Accurately ripped (v2, confidence 4/4)
Statistics
Read error : 0
Jitter error (maybe fixed) : 0
Retry sector count : 0
Damaged sector count : 0

Track 16
Filename : /Volumes/5TB/XLD Rips/Various Artists - Almost Famous (Music From The Motion Picture) (20th Anniversary Super Deluxe Edition) [Disc 1] (2021) [FLAC]/16 _This Is Penny Lane_.flac

Track gain : 9.68 dB
Peak : 0.356384
CRC32 hash (test run) : FF7DFF40
CRC32 hash : FF7DFF40
CRC32 hash (skip zero) : AFB0FB88
AccurateRip v1 signature : B9BF817A
AccurateRip v2 signature : 504B5058
->Accurately ripped (v2, confidence 4/4)
Statistics
Read error : 0
Jitter error (maybe fixed) : 0
Retry sector count : 0
Damaged sector count : 0

Track 17
Filename : /Volumes/5TB/XLD Rips/Various Artists - Almost Famous (Music From The Motion Picture) (20th Anniversary Super Deluxe Edition) [Disc 1] (2021) [FLAC]/17 River.flac

Track gain : -0.86 dB
Peak : 0.725769
CRC32 hash (test run) : 2AC9A3BA
CRC32 hash : 2AC9A3BA
CRC32 hash (skip zero) : D1CFD6BA
AccurateRip v1 signature : 89F00EB3
AccurateRip v2 signature : 9B800F31
->Accurately ripped (v2, confidence 4/4)
Statistics
Read error : 0
Jitter error (maybe fixed) : 0
Retry sector count : 0
Damaged sector count : 0

Track 18
Filename : /Volumes/5TB/XLD Rips/Various Artists - Almost Famous (Music From The Motion Picture) (20th Anniversary Super Deluxe Edition) [Disc 1] (2021) [FLAC]/18 _Piggyback Ride (San Diego)_.flac

Track gain : 5.51 dB
Peak : 0.310059
CRC32 hash (test run) : 6DEBD7C7
CRC32 hash : 6DEBD7C7
CRC32 hash (skip zero) : CF65C686
AccurateRip v1 signature : E572A528
AccurateRip v2 signature : C61BA8DF
->Accurately ripped (v2, confidence 4/4)
Statistics
Read error : 0
Jitter error (maybe fixed) : 0
Retry sector count : 0
Damaged sector count : 0

Track 19
Filename : /Volumes/5TB/XLD Rips/Various Artists - Almost Famous (Music From The Motion Picture) (20th Anniversary Super Deluxe Edition) [Disc 1] (2021) [FLAC]/19 Fever Dog.flac

Track gain : -8.17 dB
Peak : 0.948120
CRC32 hash (test run) : 650FDD95
CRC32 hash : 650FDD95
CRC32 hash (skip zero) : 6F3768D6
AccurateRip v1 signature : F3C48DB7
AccurateRip v2 signature : 59DE8DD3
->Accurately ripped (v2, confidence 4/4)
Statistics
Read error : 0
Jitter error (maybe fixed) : 0
Retry sector count : 0
Damaged sector count : 0

No errors occurred

End of status report

––-BEGIN XLD SIGNATURE––-
x1LDhxPGavp9BoeM8SofMJ6fIrt5wY93Fi24uuBTF8WUlozHXNJiMYwumm4t8Kuj9g80vqg7lHlG0SLiCVdUt042YOT9Od3t8fWMyEi
––-END XLD SIGNATURE––-

X Lossless Decoder version 20211018 (154.0)

XLD extraction logfile from 2021-12-14 20:21:46 -0500

Various Artists / Almost Famous (Music From The Motion Picture) (20th Anniversary Super Deluxe Edition) [Disc 2]

Used drive : HL-DT-ST DVDRW GX50N (revision RR06)
Media type : Pressed CD

Ripper mode : XLD Secure Ripper
Disable audio cache : OK for the drive with a cache less than 1375KiB
Make use of C2 pointers : NO
Read offset correction : 6
Max retry count : 20
Gap status : Analyzed, Appended (except HTOA)

TOC of the extracted CD
Track | Start | Length | Start sector | End sector
––––––––––––––––––––––––––––-
1 | 00:00:00 | 05:57:40 | 0 | 26814
2 | 05:57:40 | 03:10:16 | 26815 | 41080
3 | 09:07:56 | 04:18:07 | 41081 | 60437
4 | 13:25:63 | 03:18:55 | 60438 | 75342
5 | 16:44:43 | 00:57:00 | 75343 | 79617
6 | 17:41:43 | 03:21:29 | 79618 | 94721
7 | 21:02:72 | 03:12:27 | 94722 | 109148
8 | 24:15:24 | 04:57:34 | 109149 | 131457
9 | 29:12:58 | 00:17:68 | 131458 | 132800
10 | 29:30:51 | 02:56:21 | 132801 | 146021
11 | 32:26:72 | 05:55:30 | 146022 | 172676
12 | 38:22:27 | 01:12:26 | 172677 | 178102
13 | 39:34:53 | 04:12:11 | 178103 | 197013
14 | 43:46:64 | 05:36:70 | 197014 | 222283
15 | 49:23:59 | 02:29:26 | 222284 | 233484
16 | 51:53:10 | 08:16:65 | 233485 | 270749
17 | 60:10:00 | 06:02:36 | 270750 | 297935
18 | 66:12:36 | 03:53:05 | 297936 | 315415
19 | 70:05:41 | 01:18:03 | 315416 | 321268
20 | 71:23:44 | 05:10:01 | 321269 | 344519
21 | 76:33:45 | 03:23:74 | 344520 | 359818

AccurateRip Summary (DiscID: 003a25a0-037f57b0-4312bd15)
Track 01 : OK (v2, confidence 4/4)
Track 02 : OK (v2, confidence 4/4)
Track 03 : OK (v2, confidence 4/4)
Track 04 : OK (v2, confidence 4/4)
Track 05 : OK (v2, confidence 4/4)
Track 06 : OK (v2, confidence 4/4)
Track 07 : OK (v2, confidence 4/4)
Track 08 : OK (v2, confidence 4/4)
Track 09 : OK (v2, confidence 4/4)
Track 10 : OK (v2, confidence 4/4)
Track 11 : OK (v2, confidence 4/4)
Track 12 : OK (v2, confidence 4/4)
Track 13 : OK (v2, confidence 4/4)
Track 14 : OK (v2, confidence 4/4)
Track 15 : OK (v2, confidence 4/4)
Track 16 : OK (v2, confidence 4/4)
Track 17 : OK (v2, confidence 4/4)
Track 18 : OK (v2, confidence 4/4)
Track 19 : OK (v2, confidence 4/4)
Track 20 : OK (v2, confidence 4/4)
Track 21 : OK (v2, confidence 4/4)
->All tracks accurately ripped.

All Tracks
Album gain : -6.40 dB
Peak : 0.961182
Statistics
Read error : 0
Jitter error (maybe fixed) : 0
Retry sector count : 0
Damaged sector count : 0

Track 01
Filename : /Volumes/5TB/XLD Rips/Various Artists - Almost Famous (Music From The Motion Picture) (20th Anniversary Super Deluxe Edition) [Disc 2] (2021) [FLAC]/01 Every Picture Tells A Story - Album Version.flac
Pre-gap length : 00:02:00

Track gain : -6.53 dB
Peak : 0.952545
CRC32 hash (test run) : 505775A2
CRC32 hash : 505775A2
CRC32 hash (skip zero) : 66F631EB
AccurateRip v1 signature : 5D652BDF
AccurateRip v2 signature : E8C403C5
->Accurately ripped (v2, confidence 4/4)
Statistics
Read error : 0
Jitter error (maybe fixed) : 0
Retry sector count : 0
Damaged sector count : 0

Track 02
Filename : /Volumes/5TB/XLD Rips/Various Artists - Almost Famous (Music From The Motion Picture) (20th Anniversary Super Deluxe Edition) [Disc 2] (2021) [FLAC]/02 Small Time Blues - (Acoustic) .flac

Track gain : -1.24 dB
Peak : 0.921814
CRC32 hash (test run) : B4D42841
CRC32 hash : B4D42841
CRC32 hash (skip zero) : 284AB849
AccurateRip v1 signature : A186DA79
AccurateRip v2 signature : 8D3FB1C7
->Accurately ripped (v2, confidence 4/4)
Statistics
Read error : 0
Jitter error (maybe fixed) : 0
Retry sector count : 0
Damaged sector count : 0

Track 03
Filename : /Volumes/5TB/XLD Rips/Various Artists - Almost Famous (Music From The Motion Picture) (20th Anniversary Super Deluxe Edition) [Disc 2] (2021) [FLAC]/03 Something In The Air - Album Version.flac

Track gain : -3.99 dB
Peak : 0.948425
CRC32 hash (test run) : C452D148
CRC32 hash : C452D148
CRC32 hash (skip zero) : 79172E81
AccurateRip v1 signature : 7C817D4E
AccurateRip v2 signature : 01904B24
->Accurately ripped (v2, confidence 4/4)
Statistics
Read error : 0
Jitter error (maybe fixed) : 0
Retry sector count : 0
Damaged sector count : 0

Track 04
Filename : /Volumes/5TB/XLD Rips/Various Artists - Almost Famous (Music From The Motion Picture) (20th Anniversary Super Deluxe Edition) [Disc 2] (2021) [FLAC]/04 Easy To Slip.flac

Track gain : -6.70 dB
Peak : 0.956390
CRC32 hash (test run) : 83700E5C
CRC32 hash : 83700E5C
CRC32 hash (skip zero) : EAA41E7B
AccurateRip v1 signature : CD40D013
AccurateRip v2 signature : 0AF5A0C4
->Accurately ripped (v2, confidence 4/4)
Statistics
Read error : 0
Jitter error (maybe fixed) : 0
Retry sector count : 0
Damaged sector count : 0

Track 05
Filename : /Volumes/5TB/XLD Rips/Various Artists - Almost Famous (Music From The Motion Picture) (20th Anniversary Super Deluxe Edition) [Disc 2] (2021) [FLAC]/05 _Rolling Stone Magazine_ - Dialog.flac

Track gain : 9.46 dB
Peak : 0.258484
CRC32 hash (test run) : F49A203E
CRC32 hash : F49A203E
CRC32 hash (skip zero) : D80C5942
AccurateRip v1 signature : 65E22CC8
AccurateRip v2 signature : E7D54FA6
->Accurately ripped (v2, confidence 4/4)
Statistics
Read error : 0
Jitter error (maybe fixed) : 0
Retry sector count : 0
Damaged sector count : 0

Track 06
Filename : /Volumes/5TB/XLD Rips/Various Artists - Almost Famous (Music From The Motion Picture) (20th Anniversary Super Deluxe Edition) [Disc 2] (2021) [FLAC]/06 Go All The Way.flac

Track gain : -8.34 dB
Peak : 0.947235
CRC32 hash (test run) : 9F954297
CRC32 hash : 9F954297
CRC32 hash (skip zero) : F7FCA7DC
AccurateRip v1 signature : 7C93EAD3
AccurateRip v2 signature : F550C915
->Accurately ripped (v2, confidence 4/4)
Statistics
Read error : 0
Jitter error (maybe fixed) : 0
Retry sector count : 0
Damaged sector count : 0

Track 07
Filename : /Volumes/5TB/XLD Rips/Various Artists - Almost Famous (Music From The Motion Picture) (20th Anniversary Super Deluxe Edition) [Disc 2] (2021) [FLAC]/07 Mr. Farmer.flac

Track gain : -6.10 dB
Peak : 0.905518
CRC32 hash (test run) : 6D54A5E2
CRC32 hash : 6D54A5E2
CRC32 hash (skip zero) : B8C5356C
AccurateRip v1 signature : CF0A5C4E
AccurateRip v2 signature : 6224D012
->Accurately ripped (v2, confidence 4/4)
Statistics
Read error : 0
Jitter error (maybe fixed) : 0
Retry sector count : 0
Damaged sector count : 0

Track 08
Filename : /Volumes/5TB/XLD Rips/Various Artists - Almost Famous (Music From The Motion Picture) (20th Anniversary Super Deluxe Edition) [Disc 2] (2021) [FLAC]/08 One Way Out - Live At Fillmore East, June 27 1971.flac

Track gain : -7.42 dB
Peak : 0.951599
CRC32 hash (test run) : 8136FBBE
CRC32 hash : 8136FBBE
CRC32 hash (skip zero) : 4D8D3996
AccurateRip v1 signature : F491B6CA
AccurateRip v2 signature : 8D561776
->Accurately ripped (v2, confidence 4/4)
Statistics
Read error : 0
Jitter error (maybe fixed) : 0
Retry sector count : 0
Damaged sector count : 0

Track 09
Filename : /Volumes/5TB/XLD Rips/Various Artists - Almost Famous (Music From The Motion Picture) (20th Anniversary Super Deluxe Edition) [Disc 2] (2021) [FLAC]/09 _Don't Forget The Rules_ - Dialog.flac

Track gain : 9.92 dB
Peak : 0.205017
CRC32 hash (test run) : AC87AA01
CRC32 hash : AC87AA01
CRC32 hash (skip zero) : 6329BBF9
AccurateRip v1 signature : E29F9F68
AccurateRip v2 signature : 25460202
->Accurately ripped (v2, confidence 4/4)
Statistics
Read error : 0
Jitter error (maybe fixed) : 0
Retry sector count : 0
Damaged sector count : 0

Track 10
Filename : /Volumes/5TB/XLD Rips/Various Artists - Almost Famous (Music From The Motion Picture) (20th Anniversary Super Deluxe Edition) [Disc 2] (2021) [FLAC]/10 Albert Flasher - Live .flac

Track gain : -6.68 dB
Peak : 0.700256
CRC32 hash (test run) : E7077A15
CRC32 hash : E7077A15
CRC32 hash (skip zero) : FB0FDE52
AccurateRip v1 signature : C2769419
AccurateRip v2 signature : CEF29CF8
->Accurately ripped (v2, confidence 4/4)
Statistics
Read error : 0
Jitter error (maybe fixed) : 0
Retry sector count : 0
Damaged sector count : 0

Track 11
Filename : /Volumes/5TB/XLD Rips/Various Artists - Almost Famous (Music From The Motion Picture) (20th Anniversary Super Deluxe Edition) [Disc 2] (2021) [FLAC]/11 Simple Man.flac

Track gain : -5.75 dB
Peak : 0.951477
CRC32 hash (test run) : 6AB77625
CRC32 hash : 6AB77625
CRC32 hash (skip zero) : 98CB450A
AccurateRip v1 signature : 0C5C330E
AccurateRip v2 signature : F119F4B3
->Accurately ripped (v2, confidence 4/4)
Statistics
Read error : 0
Jitter error (maybe fixed) : 0
Retry sector count : 0
Damaged sector count : 0

Track 12
Filename : /Volumes/5TB/XLD Rips/Various Artists - Almost Famous (Music From The Motion Picture) (20th Anniversary Super Deluxe Edition) [Disc 2] (2021) [FLAC]/12 _Just Make Us Look Cool_ - Dialog.flac

Track gain : 11.99 dB
Peak : 0.224640
CRC32 hash (test run) : 730609BA
CRC32 hash : 730609BA
CRC32 hash (skip zero) : 440D2E2D
AccurateRip v1 signature : AB6108D5
AccurateRip v2 signature : 8060D64E
->Accurately ripped (v2, confidence 4/4)
Statistics
Read error : 0
Jitter error (maybe fixed) : 0
Retry sector count : 0
Damaged sector count : 0

Track 13
Filename : /Volumes/5TB/XLD Rips/Various Artists - Almost Famous (Music From The Motion Picture) (20th Anniversary Super Deluxe Edition) [Disc 2] (2021) [FLAC]/13 Love Thing.flac

Track gain : -7.19 dB
Peak : 0.948975
CRC32 hash (test run) : 0DF0018F
CRC32 hash : 0DF0018F
CRC32 hash (skip zero) : 001EC9C2
AccurateRip v1 signature : 797C720F
AccurateRip v2 signature : 845E6109
->Accurately ripped (v2, confidence 4/4)
Statistics
Read error : 0
Jitter error (maybe fixed) : 0
Retry sector count : 0
Damaged sector count : 0

Track 14
Filename : /Volumes/5TB/XLD Rips/Various Artists - Almost Famous (Music From The Motion Picture) (20th Anniversary Super Deluxe Edition) [Disc 2] (2021) [FLAC]/14 That's The Way - Album Version.flac

Track gain : -4.11 dB
Peak : 0.939850
CRC32 hash (test run) : F38F774B
CRC32 hash : F38F774B
CRC32 hash (skip zero) : 14180B35
AccurateRip v1 signature : 57321960
AccurateRip v2 signature : 573FFA7F
->Accurately ripped (v2, confidence 4/4)
Statistics
Read error : 0
Jitter error (maybe fixed) : 0
Retry sector count : 0
Damaged sector count : 0

Track 15
Filename : /Volumes/5TB/XLD Rips/Various Artists - Almost Famous (Music From The Motion Picture) (20th Anniversary Super Deluxe Edition) [Disc 2] (2021) [FLAC]/15 Everybody Knows This Is Nowhere.flac

Track gain : -7.89 dB
Peak : 0.950867
CRC32 hash (test run) : 09CDC28C
CRC32 hash : 09CDC28C
CRC32 hash (skip zero) : 1D230570
AccurateRip v1 signature : E0A9F71C
AccurateRip v2 signature : 22CDF1FC
->Accurately ripped (v2, confidence 4/4)
Statistics
Read error : 0
Jitter error (maybe fixed) : 0
Retry sector count : 0
Damaged sector count : 0

Track 16
Filename : /Volumes/5TB/XLD Rips/Various Artists - Almost Famous (Music From The Motion Picture) (20th Anniversary Super Deluxe Edition) [Disc 2] (2021) [FLAC]/16 Future Games.flac

Track gain : -5.98 dB
Peak : 0.961182
CRC32 hash (test run) : 85663756
CRC32 hash : 85663756
CRC32 hash (skip zero) : 7B617935
AccurateRip v1 signature : 4E369E9E
AccurateRip v2 signature : A380D6DE
->Accurately ripped (v2, confidence 4/4)
Statistics
Read error : 0
Jitter error (maybe fixed) : 0
Retry sector count : 0
Damaged sector count : 0

Track 17
Filename : /Volumes/5TB/XLD Rips/Various Artists - Almost Famous (Music From The Motion Picture) (20th Anniversary Super Deluxe Edition) [Disc 2] (2021) [FLAC]/17 Burn.flac

Track gain : -7.53 dB
Peak : 0.951233
CRC32 hash (test run) : 4F0B6EE7
CRC32 hash : 4F0B6EE7
CRC32 hash (skip zero) : B9E7E81F
AccurateRip v1 signature : 9ED6F4BB
AccurateRip v2 signature : 630E9757
->Accurately ripped (v2, confidence 4/4)
Statistics
Read error : 0
Jitter error (maybe fixed) : 0
Retry sector count : 0
Damaged sector count : 0

Track 18
Filename : /Volumes/5TB/XLD Rips/Various Artists - Almost Famous (Music From The Motion Picture) (20th Anniversary Super Deluxe Edition) [Disc 2] (2021) [FLAC]/18 You Had To Be There.flac

Track gain : -8.61 dB
Peak : 0.951019
CRC32 hash (test run) : 9D3BCA59
CRC32 hash : 9D3BCA59
CRC32 hash (skip zero) : 85F5E86A
AccurateRip v1 signature : CA78D654
AccurateRip v2 signature : 945F7C91
->Accurately ripped (v2, confidence 4/4)
Statistics
Read error : 0
Jitter error (maybe fixed) : 0
Retry sector count : 0
Damaged sector count : 0

Track 19
Filename : /Volumes/5TB/XLD Rips/Various Artists - Almost Famous (Music From The Motion Picture) (20th Anniversary Super Deluxe Edition) [Disc 2] (2021) [FLAC]/19 _I Am A Golden God_ - Dialog.flac

Track gain : 1.80 dB
Peak : 0.435089
CRC32 hash (test run) : 23BFCD22
CRC32 hash : 23BFCD22
CRC32 hash (skip zero) : 815829D3
AccurateRip v1 signature : D277C672
AccurateRip v2 signature : 795D5474
->Accurately ripped (v2, confidence 4/4)
Statistics
Read error : 0
Jitter error (maybe fixed) : 0
Retry sector count : 0
Damaged sector count : 0

Track 20
Filename : /Volumes/5TB/XLD Rips/Various Artists - Almost Famous (Music From The Motion Picture) (20th Anniversary Super Deluxe Edition) [Disc 2] (2021) [FLAC]/20 Dear Jill - Album Version.flac

Track gain : -4.42 dB
Peak : 0.956360
CRC32 hash (test run) : D803993D
CRC32 hash : D803993D
CRC32 hash (skip zero) : E04F9674
AccurateRip v1 signature : D7D10695
AccurateRip v2 signature : F57EF72C
->Accurately ripped (v2, confidence 4/4)
Statistics
Read error : 0
Jitter error (maybe fixed) : 0
Retry sector count : 0
Damaged sector count : 0

Track 21
Filename : /Volumes/5TB/XLD Rips/Various Artists - Almost Famous (Music From The Motion Picture) (20th Anniversary Super Deluxe Edition) [Disc 2] (2021) [FLAC]/21 Tiny Dancer - Almost Famous Version.flac

Track gain : -5.93 dB
Peak : 0.952179
CRC32 hash (test run) : 64726386
CRC32 hash : 64726386
CRC32 hash (skip zero) : D6A1D11C
AccurateRip v1 signature : D992E683
AccurateRip v2 signature : 5E1F38AD
->Accurately ripped (v2, confidence 4/4)
Statistics
Read error : 0
Jitter error (maybe fixed) : 0
Retry sector count : 0
Damaged sector count : 0

No errors occurred

End of status report

––-BEGIN XLD SIGNATURE––-
aPnd1XlXlX0Kjy_stY1cd2WG3G7WdDed0kwiOPl7XwMDClNlKJXHg3dCk6xhHfpETdfbhB1I6MTxGPZ_wxfq2xAbIvB_bdXjU8zk.uq
––-END XLD SIGNATURE––-

X Lossless Decoder version 20211018 (154.0)

XLD extraction logfile from 2021-12-14 20:47:29 -0500

Various Artists / Almost Famous (Music From The Motion Picture) (20th Anniversary Super Deluxe Edition) [Disc 3]

Used drive : HL-DT-ST DVDRW GX50N (revision RR06)
Media type : Pressed CD

Ripper mode : XLD Secure Ripper
Disable audio cache : OK for the drive with a cache less than 1375KiB
Make use of C2 pointers : NO
Read offset correction : 6
Max retry count : 20
Gap status : Analyzed, Appended (except HTOA)

TOC of the extracted CD
Track | Start | Length | Start sector | End sector
––––––––––––––––––––––––––––-
1 | 00:00:00 | 03:02:53 | 0 | 13702
2 | 03:02:53 | 03:46:59 | 13703 | 30711
3 | 06:49:37 | 02:39:46 | 30712 | 42682
4 | 09:29:08 | 01:49:19 | 42683 | 50876
5 | 11:18:27 | 05:44:68 | 50877 | 76744
6 | 17:03:20 | 00:05:54 | 76745 | 77173
7 | 17:08:74 | 00:13:51 | 77174 | 78199
8 | 17:22:50 | 03:47:65 | 78200 | 95289
9 | 21:10:40 | 01:20:56 | 95290 | 101345
10 | 22:31:21 | 01:41:66 | 101346 | 108986
11 | 24:13:12 | 05:13:20 | 108987 | 132481
12 | 29:26:32 | 02:31:56 | 132482 | 143862
13 | 31:58:13 | 04:40:00 | 143863 | 164862
14 | 36:38:13 | 03:40:32 | 164863 | 181394
15 | 40:18:45 | 01:16:35 | 181395 | 187129
16 | 41:35:05 | 04:59:28 | 187130 | 209582
17 | 46:34:33 | 02:50:39 | 209583 | 222371
18 | 49:24:72 | 02:52:01 | 222372 | 235272
19 | 52:16:73 | 08:36:61 | 235273 | 274033
20 | 60:53:59 | 01:12:27 | 274034 | 279460
21 | 62:06:11 | 07:36:74 | 279461 | 313734
22 | 69:43:10 | 00:16:25 | 313735 | 314959
23 | 69:59:35 | 02:05:54 | 314960 | 324388
24 | 72:05:14 | 00:06:66 | 324389 | 324904
25 | 72:12:05 | 03:12:56 | 324905 | 339360

AccurateRip Summary (DiscID: 0041f8c3-04b53ddd-4d11ac19)
Track 01 : OK (v2, confidence 4/4)
Track 02 : OK (v2, confidence 4/4)
Track 03 : OK (v2, confidence 4/4)
Track 04 : OK (v2, confidence 4/4)
Track 05 : OK (v2, confidence 4/4)
Track 06 : OK (v2, confidence 2/2)
Track 07 : OK (v2, confidence 4/4)
Track 08 : OK (v2, confidence 4/4)
Track 09 : OK (v2, confidence 4/4)
Track 10 : OK (v2, confidence 4/4)
Track 11 : OK (v2, confidence 4/4)
Track 12 : OK (v2, confidence 4/4)
Track 13 : OK (v2, confidence 4/4)
Track 14 : OK (v2, confidence 4/4)
Track 15 : OK (v2, confidence 4/4)
Track 16 : OK (v2, confidence 4/4)
Track 17 : OK (v2, confidence 4/4)
Track 18 : OK (v2, confidence 4/4)
Track 19 : OK (v2, confidence 4/4)
Track 20 : OK (v2, confidence 4/4)
Track 21 : OK (v2, confidence 4/4)
Track 22 : OK (v2, confidence 4/4)
Track 23 : OK (v2, confidence 4/4)
Track 24 : OK (v2, confidence 4/4)
Track 25 : OK (v2, confidence 4/4)
->All tracks accurately ripped.

All Tracks
Album gain : -6.27 dB
Peak : 0.962372
Statistics
Read error : 0
Jitter error (maybe fixed) : 0
Retry sector count : 0
Damaged sector count : 0

Track 01
Filename : /Volumes/5TB/XLD Rips/Various Artists - Almost Famous (Music From The Motion Picture) (20th Anniversary Super Deluxe Edition) [Disc 3] (2021) [FLAC]/01 Looking At You.flac
Pre-gap length : 00:02:00

Track gain : -9.48 dB
Peak : 0.865265
CRC32 hash (test run) : 47A30F31
CRC32 hash : 47A30F31
CRC32 hash (skip zero) : F941DAAD
AccurateRip v1 signature : 5538C540
AccurateRip v2 signature : 0A82D340
->Accurately ripped (v2, confidence 4/4)
Statistics
Read error : 0
Jitter error (maybe fixed) : 0
Retry sector count : 0
Damaged sector count : 0

Track 02
Filename : /Volumes/5TB/XLD Rips/Various Artists - Almost Famous (Music From The Motion Picture) (20th Anniversary Super Deluxe Edition) [Disc 3] (2021) [FLAC]/02 Reeling In The Years (Live).flac

Track gain : -8.53 dB
Peak : 0.951813
CRC32 hash (test run) : 3DCB1E1F
CRC32 hash : 3DCB1E1F
CRC32 hash (skip zero) : A31B71CA
AccurateRip v1 signature : BD603BF0
AccurateRip v2 signature : 882707FD
->Accurately ripped (v2, confidence 4/4)
Statistics
Read error : 0
Jitter error (maybe fixed) : 0
Retry sector count : 0
Damaged sector count : 0

Track 03
Filename : /Volumes/5TB/XLD Rips/Various Artists - Almost Famous (Music From The Motion Picture) (20th Anniversary Super Deluxe Edition) [Disc 3] (2021) [FLAC]/03 Lucky Trumble.flac

Track gain : -4.29 dB
Peak : 0.827240
CRC32 hash (test run) : 86A0D7DF
CRC32 hash : 86A0D7DF
CRC32 hash (skip zero) : 643D80B9
AccurateRip v1 signature : C84C2222
AccurateRip v2 signature : BA9E4D2B
->Accurately ripped (v2, confidence 4/4)
Statistics
Read error : 0
Jitter error (maybe fixed) : 0
Retry sector count : 0
Damaged sector count : 0

Track 04
Filename : /Volumes/5TB/XLD Rips/Various Artists - Almost Famous (Music From The Motion Picture) (20th Anniversary Super Deluxe Edition) [Disc 3] (2021) [FLAC]/04 Untitled.flac

Track gain : -0.15 dB
Peak : 0.947632
CRC32 hash (test run) : 3ADC48F5
CRC32 hash : 3ADC48F5
CRC32 hash (skip zero) : E201B181
AccurateRip v1 signature : 17183274
AccurateRip v2 signature : 8C8C9828
->Accurately ripped (v2, confidence 4/4)
Statistics
Read error : 0
Jitter error (maybe fixed) : 0
Retry sector count : 0
Damaged sector count : 0

Track 05
Filename : /Volumes/5TB/XLD Rips/Various Artists - Almost Famous (Music From The Motion Picture) (20th Anniversary Super Deluxe Edition) [Disc 3] (2021) [FLAC]/05 I'm Waiting For The Man (Live).flac

Track gain : -7.74 dB
Peak : 0.962372
CRC32 hash (test run) : 02CF5142
CRC32 hash : 02CF5142
CRC32 hash (skip zero) : 2EC18F86
AccurateRip v1 signature : 7A8307A6
AccurateRip v2 signature : 8290B1AB
->Accurately ripped (v2, confidence 4/4)
Statistics
Read error : 0
Jitter error (maybe fixed) : 0
Retry sector count : 0
Damaged sector count : 0

Track 06
Filename : /Volumes/5TB/XLD Rips/Various Artists - Almost Famous (Music From The Motion Picture) (20th Anniversary Super Deluxe Edition) [Disc 3] (2021) [FLAC]/06 _Your Mom Kind Of Freaked Me Out_ - Dialogue.flac

Track gain : 11.62 dB
Peak : 0.237427
CRC32 hash (test run) : EBB3D501
CRC32 hash : EBB3D501
CRC32 hash (skip zero) : 14F6D0BA
AccurateRip v1 signature : EE64ABFF
AccurateRip v2 signature : B65690B2
->Accurately ripped (v2, confidence 2/2)
Statistics
Read error : 0
Jitter error (maybe fixed) : 0
Retry sector count : 0
Damaged sector count : 0

Track 07
Filename : /Volumes/5TB/XLD Rips/Various Artists - Almost Famous (Music From The Motion Picture) (20th Anniversary Super Deluxe Edition) [Disc 3] (2021) [FLAC]/07 _Please Welcom Stillwater_ - Dialogue.flac

Track gain : 1.15 dB
Peak : 0.431610
CRC32 hash (test run) : 45A3ADBF
CRC32 hash : 45A3ADBF
CRC32 hash (skip zero) : F22C4C6A
AccurateRip v1 signature : 44AB7EB7
AccurateRip v2 signature : 0DA2B83D
->Accurately ripped (v2, confidence 4/4)
Statistics
Read error : 0
Jitter error (maybe fixed) : 0
Retry sector count : 0
Damaged sector count : 0

Track 08
Filename : /Volumes/5TB/XLD Rips/Various Artists - Almost Famous (Music From The Motion Picture) (20th Anniversary Super Deluxe Edition) [Disc 3] (2021) [FLAC]/08 Love Comes And Goes.flac

Track gain : -6.74 dB
Peak : 0.951233
CRC32 hash (test run) : B446CF1D
CRC32 hash : B446CF1D
CRC32 hash (skip zero) : 6E0D569C
AccurateRip v1 signature : 257728E5
AccurateRip v2 signature : 0C3E6C2B
->Accurately ripped (v2, confidence 4/4)
Statistics
Read error : 0
Jitter error (maybe fixed) : 0
Retry sector count : 0
Damaged sector count : 0

Track 09
Filename : /Volumes/5TB/XLD Rips/Various Artists - Almost Famous (Music From The Motion Picture) (20th Anniversary Super Deluxe Edition) [Disc 3] (2021) [FLAC]/09 _You Gotta Take What You Can, When You Can_ - Dialogue.flac

Track gain : 9.78 dB
Peak : 0.298615
CRC32 hash (test run) : 9115FB96
CRC32 hash : 9115FB96
CRC32 hash (skip zero) : 561E818E
AccurateRip v1 signature : 62F136C1
AccurateRip v2 signature : DFCAC19C
->Accurately ripped (v2, confidence 4/4)
Statistics
Read error : 0
Jitter error (maybe fixed) : 0
Retry sector count : 0
Damaged sector count : 0

Track 10
Filename : /Volumes/5TB/XLD Rips/Various Artists - Almost Famous (Music From The Motion Picture) (20th Anniversary Super Deluxe Edition) [Disc 3] (2021) [FLAC]/10 The Wind.flac

Track gain : -1.87 dB
Peak : 0.869995
CRC32 hash (test run) : 6D354B4B
CRC32 hash : 6D354B4B
CRC32 hash (skip zero) : AF56EEDB
AccurateRip v1 signature : ED32575D
AccurateRip v2 signature : 07770EF4
->Accurately ripped (v2, confidence 4/4)
Statistics
Read error : 0
Jitter error (maybe fixed) : 0
Retry sector count : 0
Damaged sector count : 0

Track 11
Filename : /Volumes/5TB/XLD Rips/Various Artists - Almost Famous (Music From The Motion Picture) (20th Anniversary Super Deluxe Edition) [Disc 3] (2021) [FLAC]/11 Voodoo Child (Slight Return).flac

Track gain : -6.90 dB
Peak : 0.714935
CRC32 hash (test run) : E599F8ED
CRC32 hash : E599F8ED
CRC32 hash (skip zero) : 2F704847
AccurateRip v1 signature : 70FD5ACA
AccurateRip v2 signature : 24FD0971
->Accurately ripped (v2, confidence 4/4)
Statistics
Read error : 0
Jitter error (maybe fixed) : 0
Retry sector count : 0
Damaged sector count : 0

Track 12
Filename : /Volumes/5TB/XLD Rips/Various Artists - Almost Famous (Music From The Motion Picture) (20th Anniversary Super Deluxe Edition) [Disc 3] (2021) [FLAC]/12 Slip Away.flac

Track gain : -4.12 dB
Peak : 0.953796
CRC32 hash (test run) : 6761F959
CRC32 hash : 6761F959
CRC32 hash (skip zero) : DB39B3DB
AccurateRip v1 signature : 32F85DDB
AccurateRip v2 signature : 67B521D1
->Accurately ripped (v2, confidence 4/4)
Statistics
Read error : 0
Jitter error (maybe fixed) : 0
Retry sector count : 0
Damaged sector count : 0

Track 13
Filename : /Volumes/5TB/XLD Rips/Various Artists - Almost Famous (Music From The Motion Picture) (20th Anniversary Super Deluxe Edition) [Disc 3] (2021) [FLAC]/13 Misty Mountain Hop.flac

Track gain : -7.92 dB
Peak : 0.921326
CRC32 hash (test run) : E8DB33E3
CRC32 hash : E8DB33E3
CRC32 hash (skip zero) : CBABADED
AccurateRip v1 signature : 36244E9D
AccurateRip v2 signature : 7A547B2E
->Accurately ripped (v2, confidence 4/4)
Statistics
Read error : 0
Jitter error (maybe fixed) : 0
Retry sector count : 0
Damaged sector count : 0

Track 14
Filename : /Volumes/5TB/XLD Rips/Various Artists - Almost Famous (Music From The Motion Picture) (20th Anniversary Super Deluxe Edition) [Disc 3] (2021) [FLAC]/14 Wishing Well.flac

Track gain : -6.40 dB
Peak : 0.844696
CRC32 hash (test run) : CC8F1752
CRC32 hash : CC8F1752
CRC32 hash (skip zero) : 6760522C
AccurateRip v1 signature : 0FD3D814
AccurateRip v2 signature : 39C433CE
->Accurately ripped (v2, confidence 4/4)
Statistics
Read error : 0
Jitter error (maybe fixed) : 0
Retry sector count : 0
Damaged sector count : 0

Track 15
Filename : /Volumes/5TB/XLD Rips/Various Artists - Almost Famous (Music From The Motion Picture) (20th Anniversary Super Deluxe Edition) [Disc 3] (2021) [FLAC]/15 _Cover Of The Rolling Stone_ - Dialogue.flac

Track gain : -0.71 dB
Peak : 0.762299
CRC32 hash (test run) : BB4583BE
CRC32 hash : BB4583BE
CRC32 hash (skip zero) : 5B555663
AccurateRip v1 signature : D2B74082
AccurateRip v2 signature : FCAD75BD
->Accurately ripped (v2, confidence 4/4)
Statistics
Read error : 0
Jitter error (maybe fixed) : 0
Retry sector count : 0
Damaged sector count : 0

Track 16
Filename : /Volumes/5TB/XLD Rips/Various Artists - Almost Famous (Music From The Motion Picture) (20th Anniversary Super Deluxe Edition) [Disc 3] (2021) [FLAC]/16 Mona Lisa And Mad Hatters.flac

Track gain : -5.55 dB
Peak : 0.919434
CRC32 hash (test run) : B206F358
CRC32 hash : B206F358
CRC32 hash (skip zero) : 9E98A85F
AccurateRip v1 signature : 4BD995E2
AccurateRip v2 signature : F5D3CB3E
->Accurately ripped (v2, confidence 4/4)
Statistics
Read error : 0
Jitter error (maybe fixed) : 0
Retry sector count : 0
Damaged sector count : 0

Track 17
Filename : /Volumes/5TB/XLD Rips/Various Artists - Almost Famous (Music From The Motion Picture) (20th Anniversary Super Deluxe Edition) [Disc 3] (2021) [FLAC]/17 Colour My World.flac

Track gain : -2.67 dB
Peak : 0.955933
CRC32 hash (test run) : 55CAF09D
CRC32 hash : 55CAF09D
CRC32 hash (skip zero) : 892368E2
AccurateRip v1 signature : 9E06CA26
AccurateRip v2 signature : 8550EC80
->Accurately ripped (v2, confidence 4/4)
Statistics
Read error : 0
Jitter error (maybe fixed) : 0
Retry sector count : 0
Damaged sector count : 0

Track 18
Filename : /Volumes/5TB/XLD Rips/Various Artists - Almost Famous (Music From The Motion Picture) (20th Anniversary Super Deluxe Edition) [Disc 3] (2021) [FLAC]/18 My Cherie Amour.flac

Track gain : -7.01 dB
Peak : 0.860718
CRC32 hash (test run) : 038F277E
CRC32 hash : 038F277E
CRC32 hash (skip zero) : 54AD3C8D
AccurateRip v1 signature : CF4791FD
AccurateRip v2 signature : 18DF6C51
->Accurately ripped (v2, confidence 4/4)
Statistics
Read error : 0
Jitter error (maybe fixed) : 0
Retry sector count : 0
Damaged sector count : 0

Track 19
Filename : /Volumes/5TB/XLD Rips/Various Artists - Almost Famous (Music From The Motion Picture) (20th Anniversary Super Deluxe Edition) [Disc 3] (2021) [FLAC]/19 Cortez The Killer (Live).flac

Track gain : -5.25 dB
Peak : 0.853485
CRC32 hash (test run) : 3A94F413
CRC32 hash : 3A94F413
CRC32 hash (skip zero) : F11F9398
AccurateRip v1 signature : 7E5EA093
AccurateRip v2 signature : 293E1591
->Accurately ripped (v2, confidence 4/4)
Statistics
Read error : 0
Jitter error (maybe fixed) : 0
Retry sector count : 0
Damaged sector count : 0

Track 20
Filename : /Volumes/5TB/XLD Rips/Various Artists - Almost Famous (Music From The Motion Picture) (20th Anniversary Super Deluxe Edition) [Disc 3] (2021) [FLAC]/20 _You Made Friends With Them_ - Dialogue.flac

Track gain : 12.85 dB
Peak : 0.209686
CRC32 hash (test run) : EE0C769F
CRC32 hash : EE0C769F
CRC32 hash (skip zero) : 9FE48ABE
AccurateRip v1 signature : C5414724
AccurateRip v2 signature : 3382A4AA
->Accurately ripped (v2, confidence 4/4)
Statistics
Read error : 0
Jitter error (maybe fixed) : 0
Retry sector count : 0
Damaged sector count : 0

Track 21
Filename : /Volumes/5TB/XLD Rips/Various Artists - Almost Famous (Music From The Motion Picture) (20th Anniversary Super Deluxe Edition) [Disc 3] (2021) [FLAC]/21 The Rain Song.flac

Track gain : -4.02 dB
Peak : 0.950195
CRC32 hash (test run) : 1D23D48F
CRC32 hash : 1D23D48F
CRC32 hash (skip zero) : F45C54C7
AccurateRip v1 signature : 4BF324F4
AccurateRip v2 signature : B963C118
->Accurately ripped (v2, confidence 4/4)
Statistics
Read error : 0
Jitter error (maybe fixed) : 0
Retry sector count : 0
Damaged sector count : 0

Track 22
Filename : /Volumes/5TB/XLD Rips/Various Artists - Almost Famous (Music From The Motion Picture) (20th Anniversary Super Deluxe Edition) [Disc 3] (2021) [FLAC]/22 _We All Know What You Did To Him_ - Dialogue.flac

Track gain : 13.87 dB
Peak : 0.221741
CRC32 hash (test run) : F7002E57
CRC32 hash : F7002E57
CRC32 hash (skip zero) : 4964C8F3
AccurateRip v1 signature : 2844660D
AccurateRip v2 signature : 6FD76811
->Accurately ripped (v2, confidence 4/4)
Statistics
Read error : 0
Jitter error (maybe fixed) : 0
Retry sector count : 0
Damaged sector count : 0

Track 23
Filename : /Volumes/5TB/XLD Rips/Various Artists - Almost Famous (Music From The Motion Picture) (20th Anniversary Super Deluxe Edition) [Disc 3] (2021) [FLAC]/23 Bron-Yr-Aur.flac

Track gain : -0.78 dB
Peak : 0.778625
CRC32 hash (test run) : AE74773C
CRC32 hash : AE74773C
CRC32 hash (skip zero) : EEB68590
AccurateRip v1 signature : E33516E0
AccurateRip v2 signature : B523D125
->Accurately ripped (v2, confidence 4/4)
Statistics
Read error : 0
Jitter error (maybe fixed) : 0
Retry sector count : 0
Damaged sector count : 0

Track 24
Filename : /Volumes/5TB/XLD Rips/Various Artists - Almost Famous (Music From The Motion Picture) (20th Anniversary Super Deluxe Edition) [Disc 3] (2021) [FLAC]/24 _What Do You Love About Music__.flac

Track gain : 12.76 dB
Peak : 0.243561
CRC32 hash (test run) : 3A5E4EE8
CRC32 hash : 3A5E4EE8
CRC32 hash (skip zero) : 32EF5EAF
AccurateRip v1 signature : 269CFF55
AccurateRip v2 signature : DF72454D
->Accurately ripped (v2, confidence 4/4)
Statistics
Read error : 0
Jitter error (maybe fixed) : 0
Retry sector count : 0
Damaged sector count : 0

Track 25
Filename : /Volumes/5TB/XLD Rips/Various Artists - Almost Famous (Music From The Motion Picture) (20th Anniversary Super Deluxe Edition) [Disc 3] (2021) [FLAC]/25 Tangerine.flac

Track gain : -5.26 dB
Peak : 0.950348
CRC32 hash (test run) : 861C53F8
CRC32 hash : 861C53F8
CRC32 hash (skip zero) : CDD1ED64
AccurateRip v1 signature : 74720283
AccurateRip v2 signature : 7E8AC42D
->Accurately ripped (v2, confidence 4/4)
Statistics
Read error : 0
Jitter error (maybe fixed) : 0
Retry sector count : 0
Damaged sector count : 0

No errors occurred

End of status report

––-BEGIN XLD SIGNATURE––-
1VEAHFOg7a60NAEMPUayp4_BNHgC0G7QUsaUKKV73dJUCe2MNakSScORoP22RnOGdbRtZa.PaRRIaltYWgmkL7FxjPvUqYWIn5_90Zq
––-END XLD SIGNATURE––-

X Lossless Decoder version 20211018 (154.0)

XLD extraction logfile from 2021-12-14 21:59:35 -0500

Various Artists / Almost Famous (Music From The Motion Picture) (20th Anniversary Super Deluxe Edition) [Disc 4]

Used drive : HL-DT-ST DVDRW GX50N (revision RR06)
Media type : Pressed CD

Ripper mode : XLD Secure Ripper
Disable audio cache : OK for the drive with a cache less than 1375KiB
Make use of C2 pointers : NO
Read offset correction : 6
Max retry count : 20
Gap status : Analyzed, Appended (except HTOA)

TOC of the extracted CD
Track | Start | Length | Start sector | End sector
––––––––––––––––––––––––––––-
1 | 00:00:00 | 03:09:67 | 0 | 14241
2 | 03:09:67 | 04:13:48 | 14242 | 33264
3 | 07:23:40 | 03:54:13 | 33265 | 50827
4 | 11:17:53 | 04:35:37 | 50828 | 71489
5 | 15:53:15 | 03:46:70 | 71490 | 88509
6 | 19:40:10 | 03:48:29 | 88510 | 105638
7 | 23:28:39 | 03:55:31 | 105639 | 123294
8 | 27:23:70 | 03:12:04 | 123295 | 137698
9 | 30:35:74 | 04:15:38 | 137699 | 156861
10 | 34:51:37 | 03:52:60 | 156862 | 174321
11 | 38:44:22 | 03:49:03 | 174322 | 191499
12 | 42:33:25 | 04:39:21 | 191500 | 212445
13 | 47:12:46 | 03:32:58 | 212446 | 228403
14 | 50:45:29 | 03:07:50 | 228404 | 242478
15 | 53:53:04 | 01:51:59 | 242479 | 250862
16 | 55:44:63 | 02:00:70 | 250863 | 259932

AccurateRip Summary (DiscID: 0023bb91-01ab39e8-e00d8910)
Track 01 : OK (v2, confidence 4/4)
Track 02 : OK (v2, confidence 4/4)
Track 03 : OK (v2, confidence 4/4)
Track 04 : OK (v2, confidence 4/4)
Track 05 : OK (v2, confidence 4/4)
Track 06 : OK (v2, confidence 4/4)
Track 07 : OK (v2, confidence 4/4)
Track 08 : OK (v2, confidence 4/4)
Track 09 : OK (v2, confidence 4/4)
Track 10 : OK (v2, confidence 4/4)
Track 11 : OK (v2, confidence 4/4)
Track 12 : OK (v2, confidence 4/4)
Track 13 : OK (v2, confidence 4/4)
Track 14 : OK (v2, confidence 4/4)
Track 15 : OK (v2, confidence 4/4)
Track 16 : OK (v2, confidence 4/4)
->All tracks accurately ripped.

All Tracks
Album gain : -7.62 dB
Peak : 0.953369
Statistics
Read error : 0
Jitter error (maybe fixed) : 0
Retry sector count : 0
Damaged sector count : 0

Track 01
Filename : /Volumes/5TB/XLD Rips/Various Artists - Almost Famous (Music From The Motion Picture) (20th Anniversary Super Deluxe Edition) [Disc 4] (2021) [FLAC]/01 Fever Dog.flac
Pre-gap length : 00:02:00

Track gain : -8.90 dB
Peak : 0.953186
CRC32 hash (test run) : 0EDC1BF7
CRC32 hash : 0EDC1BF7
CRC32 hash (skip zero) : 4661B10A
AccurateRip v1 signature : 3B33E199
AccurateRip v2 signature : 1B4672EF
->Accurately ripped (v2, confidence 4/4)
Statistics
Read error : 0
Jitter error (maybe fixed) : 0
Retry sector count : 0
Damaged sector count : 0

Track 02
Filename : /Volumes/5TB/XLD Rips/Various Artists - Almost Famous (Music From The Motion Picture) (20th Anniversary Super Deluxe Edition) [Disc 4] (2021) [FLAC]/02 Love Thing.flac

Track gain : -8.13 dB
Peak : 0.952087
CRC32 hash (test run) : F58E8731
CRC32 hash : F58E8731
CRC32 hash (skip zero) : 6D9378DA
AccurateRip v1 signature : 48496733
AccurateRip v2 signature : 6AC8D9E4
->Accurately ripped (v2, confidence 4/4)
Statistics
Read error : 0
Jitter error (maybe fixed) : 0
Retry sector count : 0
Damaged sector count : 0

Track 03
Filename : /Volumes/5TB/XLD Rips/Various Artists - Almost Famous (Music From The Motion Picture) (20th Anniversary Super Deluxe Edition) [Disc 4] (2021) [FLAC]/03 You Had To Be There.flac

Track gain : -9.14 dB
Peak : 0.953278
CRC32 hash (test run) : 99A46CBC
CRC32 hash : 99A46CBC
CRC32 hash (skip zero) : 1EA80E14
AccurateRip v1 signature : A78096B6
AccurateRip v2 signature : 01699317
->Accurately ripped (v2, confidence 4/4)
Statistics
Read error : 0
Jitter error (maybe fixed) : 0
Retry sector count : 0
Damaged sector count : 0

Track 04
Filename : /Volumes/5TB/XLD Rips/Various Artists - Almost Famous (Music From The Motion Picture) (20th Anniversary Super Deluxe Edition) [Disc 4] (2021) [FLAC]/04 Hour Of Need.flac

Track gain : -7.63 dB
Peak : 0.953064
CRC32 hash (test run) : 9741BE9C
CRC32 hash : 9741BE9C
CRC32 hash (skip zero) : 2781BD22
AccurateRip v1 signature : 706AAE56
AccurateRip v2 signature : D8D873D5
->Accurately ripped (v2, confidence 4/4)
Statistics
Read error : 0
Jitter error (maybe fixed) : 0
Retry sector count : 0
Damaged sector count : 0

Track 05
Filename : /Volumes/5TB/XLD Rips/Various Artists - Almost Famous (Music From The Motion Picture) (20th Anniversary Super Deluxe Edition) [Disc 4] (2021) [FLAC]/05 Chance Upon You.flac

Track gain : -6.75 dB
Peak : 0.952515
CRC32 hash (test run) : DC080D22
CRC32 hash : DC080D22
CRC32 hash (skip zero) : D63E70E5
AccurateRip v1 signature : 30A07823
AccurateRip v2 signature : CA4655F4
->Accurately ripped (v2, confidence 4/4)
Statistics
Read error : 0
Jitter error (maybe fixed) : 0
Retry sector count : 0
Damaged sector count : 0

Track 06
Filename : /Volumes/5TB/XLD Rips/Various Artists - Almost Famous (Music From The Motion Picture) (20th Anniversary Super Deluxe Edition) [Disc 4] (2021) [FLAC]/06 Love Comes And Goes.flac

Track gain : -7.59 dB
Peak : 0.953369
CRC32 hash (test run) : AAB6AEDA
CRC32 hash : AAB6AEDA
CRC32 hash (skip zero) : 73334049
AccurateRip v1 signature : 7B3BFB2F
AccurateRip v2 signature : 50ECA0C3
->Accurately ripped (v2, confidence 4/4)
Statistics
Read error : 0
Jitter error (maybe fixed) : 0
Retry sector count : 0
Damaged sector count : 0

Track 07
Filename : /Volumes/5TB/XLD Rips/Various Artists - Almost Famous (Music From The Motion Picture) (20th Anniversary Super Deluxe Edition) [Disc 4] (2021) [FLAC]/07 Love Comes And Goes (Early Version) (Demo).flac

Track gain : -7.05 dB
Peak : 0.917450
CRC32 hash (test run) : C9DBF0F5
CRC32 hash : C9DBF0F5
CRC32 hash (skip zero) : 9C56A1D6
AccurateRip v1 signature : EF87BBFC
AccurateRip v2 signature : 7626813B
->Accurately ripped (v2, confidence 4/4)
Statistics
Read error : 0
Jitter error (maybe fixed) : 0
Retry sector count : 0
Damaged sector count : 0

Track 08
Filename : /Volumes/5TB/XLD Rips/Various Artists - Almost Famous (Music From The Motion Picture) (20th Anniversary Super Deluxe Edition) [Disc 4] (2021) [FLAC]/08 Fever Dog (Demo).flac

Track gain : -8.77 dB
Peak : 0.937134
CRC32 hash (test run) : 914F1AD0
CRC32 hash : 914F1AD0
CRC32 hash (skip zero) : F79BCDAA
AccurateRip v1 signature : 0997C962
AccurateRip v2 signature : FFBD3AA4
->Accurately ripped (v2, confidence 4/4)
Statistics
Read error : 0
Jitter error (maybe fixed) : 0
Retry sector count : 0
Damaged sector count : 0

Track 09
Filename : /Volumes/5TB/XLD Rips/Various Artists - Almost Famous (Music From The Motion Picture) (20th Anniversary Super Deluxe Edition) [Disc 4] (2021) [FLAC]/09 Love Thing (Demo).flac

Track gain : -8.12 dB
Peak : 0.924622
CRC32 hash (test run) : 643EEB7C
CRC32 hash : 643EEB7C
CRC32 hash (skip zero) : 6BECB35E
AccurateRip v1 signature : 081D8BDF
AccurateRip v2 signature : 42E60504
->Accurately ripped (v2, confidence 4/4)
Statistics
Read error : 0
Jitter error (maybe fixed) : 0
Retry sector count : 0
Damaged sector count : 0

Track 10
Filename : /Volumes/5TB/XLD Rips/Various Artists - Almost Famous (Music From The Motion Picture) (20th Anniversary Super Deluxe Edition) [Disc 4] (2021) [FLAC]/10 Chance Upon You (Demo).flac

Track gain : -6.71 dB
Peak : 0.926849
CRC32 hash (test run) : EEC237AE
CRC32 hash : EEC237AE
CRC32 hash (skip zero) : ABBAAA4B
AccurateRip v1 signature : 88B80469
AccurateRip v2 signature : 843CF100
->Accurately ripped (v2, confidence 4/4)
Statistics
Read error : 0
Jitter error (maybe fixed) : 0
Retry sector count : 0
Damaged sector count : 0

Track 11
Filename : /Volumes/5TB/XLD Rips/Various Artists - Almost Famous (Music From The Motion Picture) (20th Anniversary Super Deluxe Edition) [Disc 4] (2021) [FLAC]/11 Love Comes And Goes (Demo).flac

Track gain : -7.65 dB
Peak : 0.930115
CRC32 hash (test run) : 9E28C14B
CRC32 hash : 9E28C14B
CRC32 hash (skip zero) : 05865C6F
AccurateRip v1 signature : 33206A7F
AccurateRip v2 signature : BF9A635B
->Accurately ripped (v2, confidence 4/4)
Statistics
Read error : 0
Jitter error (maybe fixed) : 0
Retry sector count : 0
Damaged sector count : 0

Track 12
Filename : /Volumes/5TB/XLD Rips/Various Artists - Almost Famous (Music From The Motion Picture) (20th Anniversary Super Deluxe Edition) [Disc 4] (2021) [FLAC]/12 Hour Of Need (Demo).flac

Track gain : -7.64 dB
Peak : 0.917023
CRC32 hash (test run) : 59806C96
CRC32 hash : 59806C96
CRC32 hash (skip zero) : 9D30E00C
AccurateRip v1 signature : 532A34B8
AccurateRip v2 signature : FA576275
->Accurately ripped (v2, confidence 4/4)
Statistics
Read error : 0
Jitter error (maybe fixed) : 0
Retry sector count : 0
Damaged sector count : 0

Track 13
Filename : /Volumes/5TB/XLD Rips/Various Artists - Almost Famous (Music From The Motion Picture) (20th Anniversary Super Deluxe Edition) [Disc 4] (2021) [FLAC]/13 You Had To Be There (Demo).flac

Track gain : -7.90 dB
Peak : 0.924011
CRC32 hash (test run) : 16FAC6CF
CRC32 hash : 16FAC6CF
CRC32 hash (skip zero) : AD00B4E0
AccurateRip v1 signature : B4A589E1
AccurateRip v2 signature : BD477F3E
->Accurately ripped (v2, confidence 4/4)
Statistics
Read error : 0
Jitter error (maybe fixed) : 0
Retry sector count : 0
Damaged sector count : 0

Track 14
Filename : /Volumes/5TB/XLD Rips/Various Artists - Almost Famous (Music From The Motion Picture) (20th Anniversary Super Deluxe Edition) [Disc 4] (2021) [FLAC]/14 That's The Way (Acoustic) (Backstage Jam).flac

Track gain : -2.99 dB
Peak : 0.950256
CRC32 hash (test run) : 2AD69C23
CRC32 hash : 2AD69C23
CRC32 hash (skip zero) : F0D023DF
AccurateRip v1 signature : 15E236F1
AccurateRip v2 signature : FDECC772
->Accurately ripped (v2, confidence 4/4)
Statistics
Read error : 0
Jitter error (maybe fixed) : 0
Retry sector count : 0
Damaged sector count : 0

Track 15
Filename : /Volumes/5TB/XLD Rips/Various Artists - Almost Famous (Music From The Motion Picture) (20th Anniversary Super Deluxe Edition) [Disc 4] (2021) [FLAC]/15 Down By The River (Acoustic) (Backstage Jam).flac

Track gain : -4.09 dB
Peak : 0.950592
CRC32 hash (test run) : 6A0617B3
CRC32 hash : 6A0617B3
CRC32 hash (skip zero) : 34FB5A2D
AccurateRip v1 signature : FA0E65FA
AccurateRip v2 signature : 33D51205
->Accurately ripped (v2, confidence 4/4)
Statistics
Read error : 0
Jitter error (maybe fixed) : 0
Retry sector count : 0
Damaged sector count : 0

Track 16
Filename : /Volumes/5TB/XLD Rips/Various Artists - Almost Famous (Music From The Motion Picture) (20th Anniversary Super Deluxe Edition) [Disc 4] (2021) [FLAC]/16 Fever Dog (Acoustic) (Backstage Jam).flac

Track gain : -5.85 dB
Peak : 0.950470
CRC32 hash (test run) : 929A541F
CRC32 hash : 929A541F
CRC32 hash (skip zero) : 749438AE
AccurateRip v1 signature : 815D08C6
AccurateRip v2 signature : AEC9429A
->Accurately ripped (v2, confidence 4/4)
Statistics
Read error : 0
Jitter error (maybe fixed) : 0
Retry sector count : 0
Damaged sector count : 0

No errors occurred

End of status report

––-BEGIN XLD SIGNATURE––-
.HKmwnaef7Saok3E6pCIg1NyEtlJA5vAmoRoK7g9mKL4vzlLSk8Oix3QiX5Y3rTZHVNb7R1V_gERZJ6D9WOG33GeKj3hwYxB0MeYbL4
––-END XLD SIGNATURE––-

X Lossless Decoder version 20211018 (154.0)

XLD extraction logfile from 2021-12-14 21:30:54 -0500

Various Artists / Almost Famous (Music From The Motion Picture) (20th Anniversary Super Deluxe Edition) [Disc 5]

Used drive : HL-DT-ST DVDRW GX50N (revision RR06)
Media type : Pressed CD

Ripper mode : XLD Secure Ripper
Disable audio cache : OK for the drive with a cache less than 1375KiB
Make use of C2 pointers : NO
Read offset correction : 6
Max retry count : 20
Gap status : Analyzed, Appended (except HTOA)

TOC of the extracted CD
Track | Start | Length | Start sector | End sector
––––––––––––––––––––––––––––-
1 | 00:00:00 | 01:02:14 | 0 | 4663
2 | 01:02:14 | 01:39:00 | 4664 | 12088
3 | 02:41:14 | 02:45:11 | 12089 | 24474
4 | 05:26:25 | 00:47:33 | 24475 | 28032
5 | 06:13:58 | 01:41:26 | 28033 | 35633
6 | 07:55:09 | 02:05:09 | 35634 | 45017
7 | 10:00:18 | 01:36:34 | 45018 | 52251
8 | 11:36:52 | 01:25:62 | 52252 | 58688
9 | 13:02:39 | 01:17:37 | 58689 | 64500
10 | 14:20:01 | 02:07:55 | 64501 | 74080
11 | 16:27:56 | 02:06:10 | 74081 | 83540
12 | 18:33:66 | 01:34:44 | 83541 | 90634
13 | 20:08:35 | 01:31:64 | 90635 | 97523
14 | 21:40:24 | 01:29:61 | 97524 | 104259
15 | 23:10:10 | 00:59:48 | 104260 | 108732
16 | 24:09:58 | 02:02:07 | 108733 | 117889
17 | 26:11:65 | 02:00:52 | 117890 | 126941
18 | 28:12:42 | 01:31:22 | 126942 | 133788
19 | 29:43:64 | 01:19:16 | 133789 | 139729
20 | 31:03:05 | 02:28:02 | 139730 | 150831
21 | 33:31:07 | 04:10:44 | 150832 | 169625

AccurateRip Summary (DiscID: 001a4a3a-0195c83d-2008d515)
Track 01 : OK (v2, confidence 4/4)
Track 02 : OK (v2, confidence 4/4)
Track 03 : OK (v2, confidence 4/4)
Track 04 : OK (v2, confidence 4/4)
Track 05 : OK (v2, confidence 4/4)
Track 06 : OK (v2, confidence 4/4)
Track 07 : OK (v2, confidence 4/4)
Track 08 : OK (v2, confidence 4/4)
Track 09 : OK (v2, confidence 4/4)
Track 10 : OK (v2, confidence 4/4)
Track 11 : OK (v2, confidence 4/4)
Track 12 : OK (v2, confidence 4/4)
Track 13 : OK (v2, confidence 4/4)
Track 14 : OK (v2, confidence 4/4)
Track 15 : OK (v2, confidence 4/4)
Track 16 : OK (v2, confidence 4/4)
Track 17 : OK (v2, confidence 4/4)
Track 18 : OK (v2, confidence 4/4)
Track 19 : OK (v2, confidence 4/4)
Track 20 : OK (v2, confidence 4/4)
Track 21 : OK (v2, confidence 4/4)
->All tracks accurately ripped.

All Tracks
Album gain : -6.45 dB
Peak : 0.944244
Statistics
Read error : 0
Jitter error (maybe fixed) : 0
Retry sector count : 0
Damaged sector count : 0

Track 01
Filename : /Volumes/5TB/XLD Rips/Various Artists - Almost Famous (Music From The Motion Picture) (20th Anniversary Super Deluxe Edition) [Disc 5] (2021) [FLAC]/01 Prefunction.flac
Pre-gap length : 00:02:00

Track gain : -5.49 dB
Peak : 0.929749
CRC32 hash (test run) : 0F061C59
CRC32 hash : 0F061C59
CRC32 hash (skip zero) : 8067E843
AccurateRip v1 signature : A5DA9246
AccurateRip v2 signature : B690B237
->Accurately ripped (v2, confidence 4/4)
Statistics
Read error : 0
Jitter error (maybe fixed) : 0
Retry sector count : 0
Damaged sector count : 0

Track 02
Filename : /Volumes/5TB/XLD Rips/Various Artists - Almost Famous (Music From The Motion Picture) (20th Anniversary Super Deluxe Edition) [Disc 5] (2021) [FLAC]/02 Cabin By The River.flac

Track gain : -6.14 dB
Peak : 0.936737
CRC32 hash (test run) : 744BB9D2
CRC32 hash : 744BB9D2
CRC32 hash (skip zero) : 258508E5
AccurateRip v1 signature : F34DB00A
AccurateRip v2 signature : 9D617A47
->Accurately ripped (v2, confidence 4/4)
Statistics
Read error : 0
Jitter error (maybe fixed) : 0
Retry sector count : 0
Damaged sector count : 0

Track 03
Filename : /Volumes/5TB/XLD Rips/Various Artists - Almost Famous (Music From The Motion Picture) (20th Anniversary Super Deluxe Edition) [Disc 5] (2021) [FLAC]/03 Lucky Trumble - Album Version - Longer Fade.flac

Track gain : -6.12 dB
Peak : 0.931396
CRC32 hash (test run) : 13B01971
CRC32 hash : 13B01971
CRC32 hash (skip zero) : 5E0FD02C
AccurateRip v1 signature : 0CE74412
AccurateRip v2 signature : 8006CFCB
->Accurately ripped (v2, confidence 4/4)
Statistics
Read error : 0
Jitter error (maybe fixed) : 0
Retry sector count : 0
Damaged sector count : 0

Track 04
Filename : /Volumes/5TB/XLD Rips/Various Artists - Almost Famous (Music From The Motion Picture) (20th Anniversary Super Deluxe Edition) [Disc 5] (2021) [FLAC]/04 Dapple Tree.flac

Track gain : -4.14 dB
Peak : 0.931335
CRC32 hash (test run) : 4E9A5845
CRC32 hash : 4E9A5845
CRC32 hash (skip zero) : D0B5FA38
AccurateRip v1 signature : F0DD5EF4
AccurateRip v2 signature : 2ADC2C58
->Accurately ripped (v2, confidence 4/4)
Statistics
Read error : 0
Jitter error (maybe fixed) : 0
Retry sector count : 0
Damaged sector count : 0

Track 05
Filename : /Volumes/5TB/XLD Rips/Various Artists - Almost Famous (Music From The Motion Picture) (20th Anniversary Super Deluxe Edition) [Disc 5] (2021) [FLAC]/05 Cabin In The Air.flac

Track gain : -6.35 dB
Peak : 0.940979
CRC32 hash (test run) : B930B5B2
CRC32 hash : B930B5B2
CRC32 hash (skip zero) : D50652A4
AccurateRip v1 signature : E63084B3
AccurateRip v2 signature : 01D43805
->Accurately ripped (v2, confidence 4/4)
Statistics
Read error : 0
Jitter error (maybe fixed) : 0
Retry sector count : 0
Damaged sector count : 0

Track 06
Filename : /Volumes/5TB/XLD Rips/Various Artists - Almost Famous (Music From The Motion Picture) (20th Anniversary Super Deluxe Edition) [Disc 5] (2021) [FLAC]/06 Dear Peggy.flac

Track gain : -5.84 dB
Peak : 0.938507
CRC32 hash (test run) : DE6EE5F0
CRC32 hash : DE6EE5F0
CRC32 hash (skip zero) : FE3FCEA6
AccurateRip v1 signature : 14029CCF
AccurateRip v2 signature : 22DF0B1F
->Accurately ripped (v2, confidence 4/4)
Statistics
Read error : 0
Jitter error (maybe fixed) : 0
Retry sector count : 0
Damaged sector count : 0

Track 07
Filename : /Volumes/5TB/XLD Rips/Various Artists - Almost Famous (Music From The Motion Picture) (20th Anniversary Super Deluxe Edition) [Disc 5] (2021) [FLAC]/07 Bye Bye Now.flac

Track gain : -5.14 dB
Peak : 0.923889
CRC32 hash (test run) : 9CEF1642
CRC32 hash : 9CEF1642
CRC32 hash (skip zero) : 5DE83309
AccurateRip v1 signature : 546D7390
AccurateRip v2 signature : 6E16EFC0
->Accurately ripped (v2, confidence 4/4)
Statistics
Read error : 0
Jitter error (maybe fixed) : 0
Retry sector count : 0
Damaged sector count : 0

Track 08
Filename : /Volumes/5TB/XLD Rips/Various Artists - Almost Famous (Music From The Motion Picture) (20th Anniversary Super Deluxe Edition) [Disc 5] (2021) [FLAC]/08 Cabin - Outtake 1.flac

Track gain : -4.24 dB
Peak : 0.941711
CRC32 hash (test run) : F3A33AF9
CRC32 hash : F3A33AF9
CRC32 hash (skip zero) : 67FEF4F1
AccurateRip v1 signature : 919EC62B
AccurateRip v2 signature : 5E9718D4
->Accurately ripped (v2, confidence 4/4)
Statistics
Read error : 0
Jitter error (maybe fixed) : 0
Retry sector count : 0
Damaged sector count : 0

Track 09
Filename : /Volumes/5TB/XLD Rips/Various Artists - Almost Famous (Music From The Motion Picture) (20th Anniversary Super Deluxe Edition) [Disc 5] (2021) [FLAC]/09 Moody - Outtake.flac

Track gain : -6.26 dB
Peak : 0.933350
CRC32 hash (test run) : CC6E3684
CRC32 hash : CC6E3684
CRC32 hash (skip zero) : B4C9BE5D
AccurateRip v1 signature : 7FDD82CB
AccurateRip v2 signature : 6F417E7A
->Accurately ripped (v2, confidence 4/4)
Statistics
Read error : 0
Jitter error (maybe fixed) : 0
Retry sector count : 0
Damaged sector count : 0

Track 10
Filename : /Volumes/5TB/XLD Rips/Various Artists - Almost Famous (Music From The Motion Picture) (20th Anniversary Super Deluxe Edition) [Disc 5] (2021) [FLAC]/10 Morrocco - Outtake.flac

Track gain : -5.96 dB
Peak : 0.932709
CRC32 hash (test run) : 0A3C59F6
CRC32 hash : 0A3C59F6
CRC32 hash (skip zero) : E5FDCFE3
AccurateRip v1 signature : 697CB203
AccurateRip v2 signature : 034625BB
->Accurately ripped (v2, confidence 4/4)
Statistics
Read error : 0
Jitter error (maybe fixed) : 0
Retry sector count : 0
Damaged sector count : 0

Track 11
Filename : /Volumes/5TB/XLD Rips/Various Artists - Almost Famous (Music From The Motion Picture) (20th Anniversary Super Deluxe Edition) [Disc 5] (2021) [FLAC]/11 Aurora - Outtake.flac

Track gain : -7.52 dB
Peak : 0.931335
CRC32 hash (test run) : 9A51912C
CRC32 hash : 9A51912C
CRC32 hash (skip zero) : 6341D484
AccurateRip v1 signature : DFAA95AB
AccurateRip v2 signature : C88B0BFC
->Accurately ripped (v2, confidence 4/4)
Statistics
Read error : 0
Jitter error (maybe fixed) : 0
Retry sector count : 0
Damaged sector count : 0

Track 12
Filename : /Volumes/5TB/XLD Rips/Various Artists - Almost Famous (Music From The Motion Picture) (20th Anniversary Super Deluxe Edition) [Disc 5] (2021) [FLAC]/12 Mood Swing - Outtake.flac

Track gain : -8.43 dB
Peak : 0.944244
CRC32 hash (test run) : 7C5BD0DB
CRC32 hash : 7C5BD0DB
CRC32 hash (skip zero) : FD612635
AccurateRip v1 signature : 3AAC989F
AccurateRip v2 signature : 19681179
->Accurately ripped (v2, confidence 4/4)
Statistics
Read error : 0
Jitter error (maybe fixed) : 0
Retry sector count : 0
Damaged sector count : 0

Track 13
Filename : /Volumes/5TB/XLD Rips/Various Artists - Almost Famous (Music From The Motion Picture) (20th Anniversary Super Deluxe Edition) [Disc 5] (2021) [FLAC]/13 The Teenager - Outtake.flac

Track gain : -6.55 dB
Peak : 0.935394
CRC32 hash (test run) : E455D487
CRC32 hash : E455D487
CRC32 hash (skip zero) : B131B2B4
AccurateRip v1 signature : 88C01ADC
AccurateRip v2 signature : B64040F6
->Accurately ripped (v2, confidence 4/4)
Statistics
Read error : 0
Jitter error (maybe fixed) : 0
Retry sector count : 0
Damaged sector count : 0

Track 14
Filename : /Volumes/5TB/XLD Rips/Various Artists - Almost Famous (Music From The Motion Picture) (20th Anniversary Super Deluxe Edition) [Disc 5] (2021) [FLAC]/14 Borealis - Outtake.flac

Track gain : -9.01 dB
Peak : 0.936707
CRC32 hash (test run) : 2E0DD087
CRC32 hash : 2E0DD087
CRC32 hash (skip zero) : 56698804
AccurateRip v1 signature : 71A6BA39
AccurateRip v2 signature : E28F524E
->Accurately ripped (v2, confidence 4/4)
Statistics
Read error : 0
Jitter error (maybe fixed) : 0
Retry sector count : 0
Damaged sector count : 0

Track 15
Filename : /Volumes/5TB/XLD Rips/Various Artists - Almost Famous (Music From The Motion Picture) (20th Anniversary Super Deluxe Edition) [Disc 5] (2021) [FLAC]/15 Strummy - Outtake.flac

Track gain : -6.35 dB
Peak : 0.934235
CRC32 hash (test run) : D9F236CD
CRC32 hash : D9F236CD
CRC32 hash (skip zero) : DF7D4657
AccurateRip v1 signature : A8FF566F
AccurateRip v2 signature : CFF083AE
->Accurately ripped (v2, confidence 4/4)
Statistics
Read error : 0
Jitter error (maybe fixed) : 0
Retry sector count : 0
Damaged sector count : 0

Track 16
Filename : /Volumes/5TB/XLD Rips/Various Artists - Almost Famous (Music From The Motion Picture) (20th Anniversary Super Deluxe Edition) [Disc 5] (2021) [FLAC]/16 Tiny Dancer Intro - Outtake.flac

Track gain : -3.22 dB
Peak : 0.932190
CRC32 hash (test run) : 961CA319
CRC32 hash : 961CA319
CRC32 hash (skip zero) : 9BEE1F2F
AccurateRip v1 signature : C96D84A7
AccurateRip v2 signature : BB25E314
->Accurately ripped (v2, confidence 4/4)
Statistics
Read error : 0
Jitter error (maybe fixed) : 0
Retry sector count : 0
Damaged sector count : 0

Track 17
Filename : /Volumes/5TB/XLD Rips/Various Artists - Almost Famous (Music From The Motion Picture) (20th Anniversary Super Deluxe Edition) [Disc 5] (2021) [FLAC]/17 Mando Swagger - Outtake.flac

Track gain : -7.71 dB
Peak : 0.939331
CRC32 hash (test run) : 0857CC84
CRC32 hash : 0857CC84
CRC32 hash (skip zero) : 041B490D
AccurateRip v1 signature : 6C9EA994
AccurateRip v2 signature : ACBEA933
->Accurately ripped (v2, confidence 4/4)
Statistics
Read error : 0
Jitter error (maybe fixed) : 0
Retry sector count : 0
Damaged sector count : 0

Track 18
Filename : /Volumes/5TB/XLD Rips/Various Artists - Almost Famous (Music From The Motion Picture) (20th Anniversary Super Deluxe Edition) [Disc 5] (2021) [FLAC]/18 Cabin - Outtake 2.flac

Track gain : -2.93 dB
Peak : 0.932251
CRC32 hash (test run) : 41579363
CRC32 hash : 41579363
CRC32 hash (skip zero) : 2608B62B
AccurateRip v1 signature : 3F6EDC44
AccurateRip v2 signature : E51376C9
->Accurately ripped (v2, confidence 4/4)
Statistics
Read error : 0
Jitter error (maybe fixed) : 0
Retry sector count : 0
Damaged sector count : 0

Track 19
Filename : /Volumes/5TB/XLD Rips/Various Artists - Almost Famous (Music From The Motion Picture) (20th Anniversary Super Deluxe Edition) [Disc 5] (2021) [FLAC]/19 Love Stopm - Outtake.flac

Track gain : -3.33 dB
Peak : 0.933624
CRC32 hash (test run) : 48B890AD
CRC32 hash : 48B890AD
CRC32 hash (skip zero) : 670C7CD7
AccurateRip v1 signature : DF349F87
AccurateRip v2 signature : 368D1A34
->Accurately ripped (v2, confidence 4/4)
Statistics
Read error : 0
Jitter error (maybe fixed) : 0
Retry sector count : 0
Damaged sector count : 0

Track 20
Filename : /Volumes/5TB/XLD Rips/Various Artists - Almost Famous (Music From The Motion Picture) (20th Anniversary Super Deluxe Edition) [Disc 5] (2021) [FLAC]/20 Function - Outtake.flac

Track gain : -7.85 dB
Peak : 0.934326
CRC32 hash (test run) : 28968408
CRC32 hash : 28968408
CRC32 hash (skip zero) : 00180331
AccurateRip v1 signature : FCF35A97
AccurateRip v2 signature : 6870FF5F
->Accurately ripped (v2, confidence 4/4)
Statistics
Read error : 0
Jitter error (maybe fixed) : 0
Retry sector count : 0
Damaged sector count : 0

Track 21
Filename : /Volumes/5TB/XLD Rips/Various Artists - Almost Famous (Music From The Motion Picture) (20th Anniversary Super Deluxe Edition) [Disc 5] (2021) [FLAC]/21 Aaron's Real Room - Outtake.flac

Track gain : -6.08 dB
Peak : 0.934875
CRC32 hash (test run) : 504B4604
CRC32 hash : 504B4604
CRC32 hash (skip zero) : 66E30A6A
AccurateRip v1 signature : B62AE544
AccurateRip v2 signature : 926120A3
->Accurately ripped (v2, confidence 4/4)
Statistics
Read error : 0
Jitter error (maybe fixed) : 0
Retry sector count : 0
Damaged sector count : 0

No errors occurred

End of status report

––-BEGIN XLD SIGNATURE––-
IAJ15RsdWgpHF9.knEwiciDqKdtbkRbDCOxHvCfPRYprkI6mqB6o1SmBTrRxtylaXo77WsVZGpia9z5E.SLumXeJPs1dwasew3QbfQC
––-END XLD SIGNATURE––-

Tracklist :::
CD1
1. The Chipmunks - The Chipmunk Song (Christmas Don't Be Late) (2:22)
2. Brenton Wood - The Oogum Boogum Song (2:35)
3. Simon & Garfunkel - America (3:33)
4. Almost Famous Motion Picture Cast - "One Day You'll Be Cool" (0:08)
5. The Who - Amazing Journey/Sparks ("Almost Famous" Version) (7:27)
6. Iggy & The Stooges - Search And Destroy (3:28)
7. Almost Famous Motion Picture Cast - "Rock N' Roll It's Over" (0:14)
8. Todd Rundgren - It Wouldn't Have Made Any Difference (3:50)
9. Almost Famous Motion Picture Cast - "Don't Take Drugs" (0:16)
10. Jethro Tull - Teacher (U.S. Version) (3:48)
11. Estrella Starr, William Miller, Penny Lane - "We Are Band Aids" (0:47)
12. Yes - Roundabout (8:31)
13. William Miller & Stillwater - "Incendiary" (1:07)
14. Yes - I've Seen All Good People: a. Your Move, b. All Good People (6:55)
15. The Beach Boys - Feel Flows (4:43)
16. William Miller, Penny Lane, Russell Hammond - "This Is Penny Lane" (0:17)
17. Joni Mitchell - River (4:05)
18. Stillwater/Dick Roswell - "Piggyback Ride (San Diego)" (0:36)
19. Stillwater - Fever Dog (3:10)

CD2
1. Rod Stewart - Every Picture Tells A Story - Album Version (5:58)
2. The Hyatt Singers - Small Time Blues - (Acoustic) (3:10)
3. Stillwater - Something In The Air - Album Version (4:18)
4. Little Feat - Easy To Slip (3:19)
5. William Miller, Elaine Miller, Ben Fong-Torres - "Rolling Stone Magazine" - Dialog (0:57)
6. Raspberries - Go All The Way (3:21)
7. The Seeds - Mr. Farmer (3:12)
8. The Allman Brothers Band - One Way Out - Live At Fillmore East, June 27 1971 (4:57)
9. Jeff Bebe, Russell Hammond - "Don't Forget The Rules" - Dialog (0:18)
10. The Guess Who - Albert Flasher - Live (2:56)
11. Lynyrd Skynyrd - Simple Man (5:55)
12. William Miller, Russell Hammond - "Just Make Us Look Cool" - Dialog (1:12)
13. Stillwater - Love Thing (4:12)
14. Led Zeppelin - That's The Way - Album Version (5:37)
15. Neil Young, Crazy Horse - Everybody Knows This Is Nowhere (2:29)
16. Fleetwood Mac - Future Games (8:17)
17. Deep Purple - Burn (6:02)
18. Stillwater - You Had To Be There (3:53)
19. William Miller, Russell Hammond - "I Am A Golden God" - Dialog (1:18)
20. Blodwyn Pig - Dear Jill - Album Version (5:10)
21. Elton John - Tiny Dancer - Almost Famous Version (3:24)

CD3
1. MC5 - Looking At You (3:03)
2. Steely Dan - Reeling In The Years (Live) (3:47)
3. Nancy Wilson - Lucky Trumble (2:40)
4. Almost Famous Motion Picture Cast - Untitled (1:49)
5. David Bowie - I'm Waiting For The Man (Live) (5:45)
6. Russell Hammond And William Miller - "Your Mom Kind Of Freaked Me Out" - Dialogue (0:06)
7. Almost Famous Motion Picture Cast - "Please Welcom Stillwater" - Dialogue (0:14)
8. Stillwater - Love Comes And Goes (3:48)
9. Russell Hammond, Dennis Hope, Larry Fellows, Jeff Bebe, Dick Roswell - "You Gotta Take What You Can, When You Can" - Dialogue (1:21)
10. Cat Stevens - The Wind (1:42)
11. The Jimi Hendrix Experience - Voodoo Child (Slight Return) (5:13)
12. Clarence Carter - Slip Away (2:32)
13. Led Zeppelin - Misty Mountain Hop (4:40)
14. Free - Wishing Well (3:40)
15. William Miller and Jeff Bebe - "Cover Of The Rolling Stone" - Dialogue (1:16)
16. Elton John - Mona Lisa And Mad Hatters (4:59)
17. Jefferson High School Band - Colour My World (2:51)
18. Stevie Wonder - My Cherie Amour (2:52)
19. Neil Young - Cortez The Killer (Live) (8:37)
20. Almost Famous Motion Picture Cast - "You Made Friends With Them" - Dialogue (1:12)
21. Led Zeppelin - The Rain Song (7:37)
22. Sapphire and Russell Hammond - "We All Know What You Did To Him" - Dialogue (0:16)
23. Led Zeppelin - Bron-Yr-Aur (2:06)
24. Almost Famous Motion Picture Cast - "What Do You Love About Music_" (0:07)
25. Led Zeppelin - Tangerine (3:13)

CD4
1. Stillwater - Fever Dog (3:10)
2. Stillwater - Love Thing (4:14)
3. Stillwater - You Had To Be There (3:54)
4. Stillwater - Hour Of Need (4:35)
5. Stillwater - Chance Upon You (3:47)
6. Stillwater - Love Comes And Goes (3:48)
7. Stillwater - Love Comes And Goes (Early Version) (Demo) (3:55)
8. Stillwater - Fever Dog (Demo) (3:12)
9. Stillwater - Love Thing (Demo) (4:16)
10. Stillwater - Chance Upon You (Demo) (3:53)
11. Stillwater - Love Comes And Goes (Demo) (3:49)
12. Stillwater - Hour Of Need (Demo) (4:39)
13. Stillwater - You Had To Be There (Demo) (3:33)
14. Larry Fellows,Ed Valencourt - That's The Way (Acoustic) (Backstage Jam) (3:08)
15. Larry Fellows,Ed Valencourt - Down By The River (Acoustic) (Backstage Jam) (1:52)
16. Stillwater - Fever Dog (Acoustic) (Backstage Jam) (2:01)

CD5
1. Nancy Wilson - Prefunction (1:02)
2. Nancy Wilson - Cabin By The River (1:39)
3. Nancy Wilson - Lucky Trumble - Album Version / Longer Fade (2:45)
4. Nancy Wilson - Dapple Tree (0:47)
5. Nancy wilson - Cabin In The Air (1:41)
6. Nancy Wilson - Dear Peggy (2:05)
7. Nancy Wilson - Bye Bye Now (1:36)
8. Nancy Wilson - Cabin - Outtake 1 (1:26)
9. Nancy Wilson - Moody - Outtake (1:17)
10. Nancy Wilson - Morrocco - Outtake (2:08)
11. Nancy Wilson - Aurora - Outtake (2:06)
12. Nancy Wilson - Mood Swing - Outtake (1:35)
13. Nancy Wilson - The Teenager - Outtake (1:32)
14. Nancy Wilson - Borealis - Outtake (1:30)
15. Nancy Wilson - Strummy - Outtake (1:00)
16. Nancy Wilson - Tiny Dancer Intro - Outtake (2:02)
17. Nancy Wilson - Mando Swagger - Outtake (2:01)
18. Nancy Wilson - Cabin - Outtake 2 (1:31)
19. Nancy Wilson - Love Stopm - Outtake (1:19)
20. Nancy Wilson - Function - Outtake (2:28)
21. Nancy Wilson - Aaron's Real Room - Outtake (4:11)

VA - Almost Famous [Super Deluxe Edition] (2021)

VA - Almost Famous [Super Deluxe Edition] (2021)