Subcategories
Tags
Language
Tags

V.A. - Le Café Abstrait By Raphaël Marionneau Vol. 7 (2010)

Posted By: gribovar
V.A. - Le Café Abstrait By Raphaël Marionneau Vol. 7 (2010)

V.A. - Le Cafe Abstrait By Raphael Marionneau Vol. 7 (2010)
EAC Rip | WavPack (image+.cue+log) - 905 MB | MP3 CBR 320 kbps (LAME 3.93) - 354 MB | Covers - 8 MB
Genre: Chillout, Downtempo | RAR 3% Rec. | Label: Abstrait Music (AM22)

More than the compilation series, more than the lovingly organised events, more than the radio shows: "Le Café Abstrait" is a philosophy of lifestyle: relaxed and culturally open-minded.
It was "Le Café Abstrait" and its mastermind, Raphaël Marionneau, who pioneered chill-out culture at Hamburg's internationally renown Mojo club in 1996: "Le Café Abstrait" reinvented nightclubbing in a new relaxing way. Once a month, stylish sofa installations and light projections transformed Mojo's dancefloor into a gigantic living room. There, up to 400 laid-back nightlife connoisseurs indulged in relaxation and Raphaël Marionneau's very special downtempo music selections. A new lifestyle was born: the couch culture.
Its spirit still lives on today in various cultural and musical projects. Raphaël Marionneau took abstrait from the Mojo club to new places and spaces: concert halls, lounges, cinemas, beaches, beach clubs and festivals. Even Hamburg's planetarium hosts a regular abstrait event, where Raphaël and world renown guests hypnotize the audience with an intergalactic multimedia-show. The French soundpilot loves to transform places, bringing together seemingly opposed cultural scenes and disparate, musically interested people of all ages. While abstrait metamorphosed, its initial intend remained: Raphaël Marionneau wants to touch people with his musical choices and seeks to slow down hectic, stressful every day life. Thanks to radio sessions and various recordings, abstrait also helps you to relax at home. During the past ten years Raphaël Marionneau has released more than 30 compilations, including the successful compilation series "Le Café Abstrait".
CD 1 Tracklist (L'Été):
01. Klangstein - Deepdive
02. Orange & Tusnelda - Stay Asleep
03. Coastline - Adriatic Sea
04. Mystic Diversions - Dance Of The Seven Veils (Album Version)
05. Luis Junior - Luminis
06. Sinatic - Sunset Beach
07. Anil Chawla & Dale Anderson - Pimento Groove
08. Nacho Sotomayor - Mirror Room
09. Jens Buchert - Vibes Deluxe
10. Sine - Samsara
11. Gold Lounge - Aegean Summer (Cyclades Mix)
12. Redlounge Orchestra - Rhodescreen Island
13. Michael E - Bittersweet
14. Shine - Comme Si L'Amour

Total time: 01:17:17

CD 2 Tracklist (L'Hiver):
01. Frederic Charpagne - Mediolanum
02. Ambray - Maya
03. Future Loop Foundation - The Sea & The Sky (Aaron Jerome Remix) [4:38]
04. Murya - Gray Daze
05. Deeper Sublime - Japanese Garden
06. Chris Zippel - Red River
07. Bud Butler - A New Space
08. En Voice - Lost In Space
09. L'Odo - Poursuite
10. Dulac & Dubois - Till The Break Of Dawn (Lounge Edit)
11. For Found Future - A Fine Day
12. Yosebu - My Garden
13. Leonhard North - Na Vi
14. Ypey - Nap Track
15. Bob Holroyd - Approaching Scilence

Total time: 01:13:04

Exact Audio Copy V0.99 prebeta 5 from 4. May 2009

EAC extraction logfile from 23. October 2010, 21:50

Various / Le Cafe Abstrait vol.7 (CD1)

Used drive : PLEXTOR DVDR PX-800A Adapter: 0 ID: 0

Read mode : Secure
Utilize accurate stream : Yes
Defeat audio cache : Yes
Make use of C2 pointers : No

Read offset correction : 48
Overread into Lead-In and Lead-Out : Yes
Fill up missing offset samples with silence : Yes
Delete leading and trailing silent blocks : No
Null samples used in CRC calculations : Yes
Used interface : Installed external ASPI interface

Used output format : User Defined Encoder
Selected bitrate : 1024 kBit/s
Quality : High
Add ID3 tag : No
Command line compressor : C:\Program Files\Exact Audio Copy\wavpack.exe
Additional command line options : -hmxd -w "GENRE=%m" -w "DATE=%y" -w "COMMENT=Released by a-one" %s %d


TOC of the extracted CD

Track | Start | Length | Start sector | End sector
––––––––––––––––––––––––––––-
1 | 0:00.00 | 5:38.44 | 0 | 25393
2 | 5:38.44 | 6:47.44 | 25394 | 55962
3 | 12:26.13 | 5:36.21 | 55963 | 81183
4 | 18:02.34 | 6:45.09 | 81184 | 111567
5 | 24:47.43 | 5:04.02 | 111568 | 134369
6 | 29:51.45 | 4:28.58 | 134370 | 154527
7 | 34:20.28 | 6:26.41 | 154528 | 183518
8 | 40:46.69 | 5:26.43 | 183519 | 208011
9 | 46:13.37 | 5:49.33 | 208012 | 234219
10 | 52:02.70 | 5:02.06 | 234220 | 256875
11 | 57:05.01 | 5:22.38 | 256876 | 281063
12 | 62:27.39 | 4:27.11 | 281064 | 301099
13 | 66:54.50 | 5:35.09 | 301100 | 326233
14 | 72:29.59 | 4:47.19 | 326234 | 347777


Range status and errors

Selected range

Filename C:\Rips\Various Artists - Le Cafe Abstrait vol.7 (CD1).wav

Peak level 98.8 %
Range quality 99.9 %
Test CRC 16885C5C
Copy CRC 16885C5C
Copy OK

No errors occurred


AccurateRip summary

Track 1 not present in database
Track 2 not present in database
Track 3 not present in database
Track 4 not present in database
Track 5 not present in database
Track 6 not present in database
Track 7 not present in database
Track 8 not present in database
Track 9 not present in database
Track 10 not present in database
Track 11 not present in database
Track 12 not present in database
Track 13 not present in database
Track 14 not present in database

None of the tracks are present in the AccurateRip database

End of status report

[CUETools log; Date: 14.01.2021 3:19:11; Version: 2.1.4]
[CTDB TOCID: _Uq1XVnGIaGQzzsYa5SIzHfOCgg-] found.
Track | CTDB Status
1 | (18/18) Accurately ripped
2 | (18/18) Accurately ripped
3 | (18/18) Accurately ripped
4 | (18/18) Accurately ripped
5 | (18/18) Accurately ripped
6 | (18/18) Accurately ripped
7 | (18/18) Accurately ripped
8 | (18/18) Accurately ripped
9 | (18/18) Accurately ripped
10 | (18/18) Accurately ripped
11 | (18/18) Accurately ripped
12 | (18/18) Accurately ripped
13 | (18/18) Accurately ripped
14 | (18/18) Accurately ripped
[AccurateRip ID: 002939f2-01b3ead8-cd121d0e] found.
Track [ CRC | V2 ] Status
01 [527339ed|cb3a937d] (03+08/11) Accurately ripped
02 [394dca3b|15cb610e] (03+08/11) Accurately ripped
03 [2020c9af|bc832cb4] (03+08/11) Accurately ripped
04 [e3288fbd|687aab6f] (03+08/11) Accurately ripped
05 [f519b81a|9f52438d] (02+08/10) Accurately ripped
06 [eef72e58|1b053b7f] (03+08/11) Accurately ripped
07 [1c6ec463|91b41a6d] (03+08/11) Accurately ripped
08 [fa4aab8c|fe403d65] (03+08/11) Accurately ripped
09 [68c1b0e2|78748bcf] (03+08/11) Accurately ripped
10 [d4a5d64e|bff590c1] (03+08/11) Accurately ripped
11 [96bec377|d3bcb6d1] (03+08/11) Accurately ripped
12 [63c8524e|660d18d2] (03+08/11) Accurately ripped
13 [6c82dbf5|c16c3403] (03+08/11) Accurately ripped
14 [cc29d60e|71b16156] (03+08/11) Accurately ripped

Track Peak [ CRC32 ] [W/O NULL] [ LOG ]
– 98,8 [16885C5C] [D272992A] CRC32
01 98,8 [CC5FCE93] [0122A41A]
02 98,8 [F73B4CC5] [6E40D354]
03 96,5 [C8FD67F8] [95AAD746]
04 98,8 [B105B004] [A44CA756]
05 95,4 [C5CC32BE] [BF282490]
06 95,0 [42419209] [FFFC5102]
07 97,6 [C95F3592] [242C5782]
08 96,6 [9138CA83] [A06EB2B6]
09 98,8 [B849B0CD] [C9D311F2]
10 97,7 [EF7BC120] [08D6FF10]
11 98,8 [84337BED] [1847BF62]
12 97,7 [B11050AE] [F525102C]
13 98,8 [BD42482A] [B1C46E88]
14 98,8 [AE9D16D1] [10F3D8EB]

Exact Audio Copy V0.99 prebeta 5 from 4. May 2009

EAC extraction logfile from 23. October 2010, 22:43

Various / Le Cafe Abstrait vol.7 (CD2)

Used drive : PLEXTOR DVDR PX-800A Adapter: 0 ID: 0

Read mode : Secure
Utilize accurate stream : Yes
Defeat audio cache : Yes
Make use of C2 pointers : No

Read offset correction : 48
Overread into Lead-In and Lead-Out : Yes
Fill up missing offset samples with silence : Yes
Delete leading and trailing silent blocks : No
Null samples used in CRC calculations : Yes
Used interface : Installed external ASPI interface

Used output format : User Defined Encoder
Selected bitrate : 1024 kBit/s
Quality : High
Add ID3 tag : No
Command line compressor : C:\Program Files\Exact Audio Copy\wavpack.exe
Additional command line options : -hmxd -w "GENRE=%m" -w "DATE=%y" -w "COMMENT=Released by a-one" %s %d


TOC of the extracted CD

Track | Start | Length | Start sector | End sector
––––––––––––––––––––––––––––-
1 | 0:00.00 | 5:04.62 | 0 | 22861
2 | 5:04.62 | 5:43.72 | 22862 | 48658
3 | 10:48.59 | 4:38.30 | 48659 | 69538
4 | 15:27.14 | 4:32.12 | 69539 | 89950
5 | 19:59.26 | 4:22.03 | 89951 | 109603
6 | 24:21.29 | 5:34.25 | 109604 | 134678
7 | 29:55.54 | 5:25.27 | 134679 | 159080
8 | 35:21.06 | 5:52.30 | 159081 | 185510
9 | 41:13.36 | 3:34.14 | 185511 | 201574
10 | 44:47.50 | 4:49.64 | 201575 | 223313
11 | 49:37.39 | 4:33.52 | 223314 | 243840
12 | 54:11.16 | 5:32.22 | 243841 | 268762
13 | 59:43.38 | 4:58.62 | 268763 | 291174
14 | 64:42.25 | 5:17.73 | 291175 | 315022
15 | 70:00.23 | 3:03.15 | 315023 | 328762


Range status and errors

Selected range

Filename C:\Rips\Various Artists - Le Cafe Abstrait vol.7 (CD2).wav

Peak level 98.8 %
Range quality 99.9 %
Test CRC 8325C316
Copy CRC 8325C316
Copy OK

No errors occurred


AccurateRip summary

Track 1 not present in database
Track 2 not present in database
Track 3 not present in database
Track 4 not present in database
Track 5 not present in database
Track 6 not present in database
Track 7 not present in database
Track 8 not present in database
Track 9 not present in database
Track 10 not present in database
Track 11 not present in database
Track 12 not present in database
Track 13 not present in database
Track 14 not present in database
Track 15 not present in database

None of the tracks are present in the AccurateRip database

End of status report

[CUETools log; Date: 14.01.2021 3:20:04; Version: 2.1.4]
[CTDB TOCID: Dh.tYBYoCcwC.MI2YDT6PBFYfoA-] found.
Track | CTDB Status
1 | (18/18) Accurately ripped
2 | (18/18) Accurately ripped
3 | (18/18) Accurately ripped
4 | (18/18) Accurately ripped
5 | (18/18) Accurately ripped
6 | (18/18) Accurately ripped
7 | (18/18) Accurately ripped
8 | (18/18) Accurately ripped
9 | (18/18) Accurately ripped
10 | (18/18) Accurately ripped
11 | (18/18) Accurately ripped
12 | (18/18) Accurately ripped
13 | (18/18) Accurately ripped
14 | (18/18) Accurately ripped
15 | (18/18) Accurately ripped
[AccurateRip ID: 002914f4-01d01e47-e3111f0f] found.
Track [ CRC | V2 ] Status
01 [d27514a5|0865f277] (03+08/11) Accurately ripped
02 [feafd5d4|b84c9f01] (03+08/11) Accurately ripped
03 [4280720d|6134f2a7] (03+08/11) Accurately ripped
04 [307c83ea|e77132ef] (03+08/11) Accurately ripped
05 [6efdb92f|08b36a55] (03+08/11) Accurately ripped
06 [8b155f9f|0a4f0bbc] (03+08/11) Accurately ripped
07 [99df54fa|290c2b8b] (03+08/11) Accurately ripped
08 [fff8dabc|6a93236c] (02+08/10) Accurately ripped
09 [55a319cc|da369b08] (03+08/11) Accurately ripped
10 [e77c803a|67ced798] (03+08/11) Accurately ripped
11 [f46c268d|831418e4] (03+08/11) Accurately ripped
12 [6c26a9e6|86e76cbe] (03+08/11) Accurately ripped
13 [cf79c8b1|8a82b9a4] (03+08/11) Accurately ripped
14 [333c03ed|98c20b14] (03+08/11) Accurately ripped
15 [5ba59146|61531e31] (03+08/11) Accurately ripped

Track Peak [ CRC32 ] [W/O NULL] [ LOG ]
– 98,8 [8325C316] [967E7E98] CRC32
01 98,8 [78949139] [F2261F7E]
02 94,3 [7A528D7D] [C3E5437A]
03 97,7 [5ED286F3] [88403394]
04 97,1 [AB0C58E7] [BE7A6610]
05 97,7 [D99DC98D] [00F90ECB]
06 98,8 [301DB431] [ACCCD6D4]
07 98,8 [95EE5809] [0B91DC05]
08 96,5 [8C166D69] [6093FCDE]
09 98,8 [5DC49846] [ECE13389]
10 98,8 [D7C14F51] [9D0C61CF]
11 98,8 [DEC53315] [D1BB6067]
12 96,7 [87861C25] [686077F2]
13 95,0 [C439F2E3] [E2C0C82B]
14 97,3 [5F0F410E] [62D12570]
15 97,6 [C4ECF7F4] [11806C6C]

Thanks to a-one

See also:
V.A. - Le Café Abstrait By Raphaël Marionneau Vol. 6 (2009)
V.A. - Le Café Abstrait By Raphaël Marionneau Vol. 9 (2012)
V.A. - Le Café Abstrait By Raphaël Marionneau Vol. 10 (2013)