Tags
Language
Tags

Various Composers - Classic Cinema (2007) 3 CD Set [Re-Up]

Posted By: Efgrapha
Various Composers - Classic Cinema (2007) 3 CD Set [Re-Up]

Various Composers - Classic Cinema (2007) 3 CD Set
EAC | WV (Image) + cue.+log ~ 923 Mb | Mp3, CBR320 kbps ~ 441 Mb | Scans included | 03:02:24
Soundtracks, Neo-Classical, Classical | Label: Sony BMG/Sony Classical | # 88697161052

2007 three CD collection of soundtracks from classic movies of our time. With a generous playing time of over three hours, this stunning set offers something for everyone: from Elmer Bernstein's The Magnificent Seven and Max Steiner's Gone With the Wind to the more recent, represented by Hans Zimmer's Gladiator and Klaus Badelt's Pirates of the Caribbean via Dances with Wolves, The Mission, Lord of the Rings and Batman, to name but a few! Enjoy unforgettable movie themes from a wide range of famous composers from John Williams and Danny Elfman to Rachel Portman and Ennio Morricone.

Various Composers - Classic Cinema (2007) 3 CD Set [Re-Up]


Tracklist:

CD1:

01. John Williams - Superman: The Movie [Main Theme] (4:23)
02. Alan Silvestri - Back to the Future [Main Theme] (3:27)
03. James Horner - Apollo 13 [The Launch] (9:56)
04. John Williams, arr. Adam Saunders - Star Wars: Episode II - Attack of the Clones [Across the Stars] (5:43)
05. Ennio Morricone - The Mission [Gabriel's Oboe] (2:23)
06. Tan Dun, arr. Christopher Tin - Crouching Tiger, Hidden Dragon [The Eternal Vow] (5:58)
07. Nigel Hess - Ladies in Lavender [Ladies in Lavender] (3:59)
08. Maurice Jarre, arr. Christopher Palmer - Ghost [Main Theme] (5:05)
09. Michael Nyman, arr. Paul Bateman - The Piano [The Heart Asks Pleasure First] (3:48)
10. John Barry, arr. Nic Raine - Out of Africa [Main Theme] (3:28)
11. Maurice Jarre, arr. Christopher Palmer - Witness [Building the Barn] (3:58)
12. David Arnold - The Stepford Wives [Main Theme] (2:39)
13. Danny Elfman, arr. Christopher Bankey - Batman [Main Theme] (2:36)
14. John Williams - Star Wars: Episode IV - A New Hope [Main Theme] (5:25)

CD2:

01. John Williams - E.T.: The Extra-Terrestrial [Flying Theme] (3:47)
02. John Williams - Harry Potter and the Philosopher's Stone [Harry's Wonderful World] (5:17)
03. Jan A.P. Kaczmarek, arr. Christopher Tin - Finding Neverland [Impossible Opening] (3:44)
04. Klaus Badelt, arr. Nic Raine - Pirates of the Caribbean [Main Theme] (5:51)
05. John Williams - Raiders of the Lost Ark [Raiders March] (5:27)
06. Alexandre Desplat - Girl with a Pearl Earring [Griet's Theme] (4:10)
07. John Barry, arr. Nic Raine - Dances with Wolves [John Dunbar Theme] (3:52)
08. Debbie Wiseman - Arsène Lupin [Overture] (5:03)
09. George Fenton - Stage Beauty [Main Theme] (4:41)
10. Stephen Warbeck - Shakespeare in Love [Suite] (3:33)
11. Craig Armstrong, arr. Paul Bateman - Romeo + Juliet [Balcony Scene] (5:51)
12. Rachel Portman - Oliver Twist [Main Theme] (4:59)
13. Maurice Jarre - Doctor Zhivago [Lara's Theme] (3:18)

CD3:

01. Max Steiner - Gone with the Wind [Main Theme] (4:34)
02. Richard Addinsell - Dangerous Moonlight [Warsaw Concerto] (9:24)
03. Craig Armstrong - Love Actually [Glasgow Love Theme] (2:10)
04. Hans Zimmer - Gladiator [Suite] (7:17)
05. Samuel Barber - Platoon [Adagio for Strings] (7:09)
06. John Williams - Schindler's List [Main Theme] (3:58)
07. John Williams - Saving Private Ryan [Hymn to the Fallen] (6:43)
08. Gabriel Yared - The English Patient [Theme] (1:25)
09. Elmer Bernstein - The Magnificent Seven [Main Theme] (4:34)
10. Maurice Jarre - Lawrence of Arabia [Overture] (4:26)
11. Howard Shore, arr. Nic Raine - The Lord of the Rings [Main Theme] (5:27)
12. Jerome Moross - The Big Country [Main Theme] (2:56)


Exact Audio Copy V0.99 prebeta 4 from 23. January 2008

EAC extraction logfile from 3. July 2009, 13:40

Various / Classic Cinema - CD1

Used drive : TSSTcorpCDDVDW SH-S203D Adapter: 2 ID: 0

Read mode : Secure
Utilize accurate stream : Yes
Defeat audio cache : Yes
Make use of C2 pointers : No

Read offset correction : 6
Overread into Lead-In and Lead-Out : No
Fill up missing offset samples with silence : Yes
Delete leading and trailing silent blocks : No
Null samples used in CRC calculations : Yes
Used interface : Native Win32 interface for Win NT & 2000

Used output format : Internal WAV Routines
Sample format : 44.100 Hz; 16 Bit; Stereo


TOC of the extracted CD

Track | Start | Length | Start sector | End sector
––––––––––––––––––––––––––––-
1 | 0:00.00 | 4:23.07 | 0 | 19731
2 | 4:23.07 | 3:27.29 | 19732 | 35285
3 | 7:50.36 | 9:55.66 | 35286 | 79976
4 | 17:46.27 | 5:43.28 | 79977 | 105729
5 | 23:29.55 | 2:22.39 | 105730 | 116418
6 | 25:52.19 | 5:58.21 | 116419 | 143289
7 | 31:50.40 | 3:59.15 | 143290 | 161229
8 | 35:49.55 | 5:05.33 | 161230 | 184137
9 | 40:55.13 | 3:47.62 | 184138 | 201224
10 | 44:43.00 | 3:27.71 | 201225 | 216820
11 | 48:10.71 | 3:57.73 | 216821 | 234668
12 | 52:08.69 | 2:38.53 | 234669 | 246571
13 | 54:47.47 | 2:35.66 | 246572 | 258262
14 | 57:23.38 | 5:24.59 | 258263 | 282621


Range status and errors

Selected range

Filename C:\DAE\Various Composers -2007- Classic Cinema\CD1\Classic Cinema - CD1.wav

Peak level 100.0 %
Range quality 100.0 %
Test CRC 01B17567
Copy CRC 01B17567
Copy OK

No errors occurred


AccurateRip summary

Track 1 accurately ripped (confidence 1) [0712CA7C]
Track 2 accurately ripped (confidence 1) [0397853A]
Track 3 accurately ripped (confidence 1) [A804A0CB]
Track 4 accurately ripped (confidence 1) [9A64D9E7]
Track 5 accurately ripped (confidence 1) [7432DFE1]
Track 6 accurately ripped (confidence 1) [9F9BB826]
Track 7 accurately ripped (confidence 1) [EFFB9ECC]
Track 8 accurately ripped (confidence 1) [A2A2404F]
Track 9 accurately ripped (confidence 1) [2D5BE559]
Track 10 accurately ripped (confidence 1) [B6EBEE01]
Track 11 accurately ripped (confidence 1) [FA10BDB3]
Track 12 accurately ripped (confidence 1) [BE755AB1]
Track 13 accurately ripped (confidence 1) [EC987617]
Track 14 accurately ripped (confidence 1) [79052011]

All tracks accurately ripped

End of status report

[CUETools log; Date: 10.09.2017 22:13:21; Version: 2.1.4]
[CTDB TOCID: ondR927uJ7i1r33ej0Gv28_yULA-] found.
Track | CTDB Status
1 | (28/28) Accurately ripped
2 | (28/28) Accurately ripped
3 | (28/28) Accurately ripped
4 | (28/28) Accurately ripped
5 | (28/28) Accurately ripped
6 | (28/28) Accurately ripped
7 | (28/28) Accurately ripped
8 | (28/28) Accurately ripped
9 | (28/28) Accurately ripped
10 | (28/28) Accurately ripped
11 | (28/28) Accurately ripped
12 | (28/28) Accurately ripped
13 | (28/28) Accurately ripped
14 | (27/28) Accurately ripped
[AccurateRip ID: 0022e196-016ceee8-c00eb80e] found.
Track [ CRC | V2 ] Status
01 [0712ca7c|470840d7] (11+15/28) Accurately ripped
02 [0397853a|fc3843d7] (11+14/27) Accurately ripped
03 [a804a0cb|6a8c2c68] (11+14/27) Accurately ripped
04 [9a64d9e7|8c6dc4d9] (11+14/27) Accurately ripped
05 [7432dfe1|003f2f18] (11+14/27) Accurately ripped
06 [9f9bb826|5cf4cbf8] (11+14/27) Accurately ripped
07 [effb9ecc|ed617fc5] (11+14/27) Accurately ripped
08 [a2a2404f|97e4b043] (11+14/27) Accurately ripped
09 [2d5be559|0d0b919f] (11+14/27) Accurately ripped
10 [b6ebee01|9d0cb90d] (11+14/27) Accurately ripped
11 [fa10bdb3|b3ee2259] (11+13/26) Accurately ripped
12 [be755ab1|edc2d5cc] (11+13/26) Accurately ripped
13 [ec987617|e09c9a04] (10+14/26) Accurately ripped
14 [79052011|d1772172] (10+15/27) Accurately ripped
Offsetted by -652:
01 [bacf9754] (02/28) Accurately ripped
02 [04d73602] (02/27) Accurately ripped
03 [2eaa9a13] (02/27) Accurately ripped
04 [a11cfe53] (02/27) Accurately ripped
05 [5900fee1] (02/27) Accurately ripped
06 [f846cd2a] (02/27) Accurately ripped
07 [582f305c] (02/27) Accurately ripped
08 [d8707c8b] (02/27) Accurately ripped
09 [85b1c08d] (02/27) Accurately ripped
10 [ca26e54d] (02/27) Accurately ripped
11 [6d9fe20f] (02/26) Accurately ripped
12 [8157be05] (02/26) Accurately ripped
13 [75752cef] (02/26) Accurately ripped
14 [a71f75e5] (02/27) Accurately ripped

Track Peak [ CRC32 ] [W/O NULL]
– 100,0 [01B17567] [3660FA3C]
01 100,0 [798C841A] [028BA8F4]
02 62,3 [2A6FC647] [66A07C35]
03 93,0 [2198FD74] [FDA04F32]
04 72,4 [26DBB58E] [78791157]
05 68,1 [5F8882D7] [4C9DAB17]
06 84,3 [C9347DA4] [5F113205]
07 72,6 [86C53019] [ACC67C57]
08 79,9 [BB8AD921] [DCA4651B]
09 69,3 [C996C955] [5875F7B6]
10 93,9 [FE00537F] [30E00699]
11 82,3 [A0E69AD4] [CC41B0C2]
12 82,7 [BC9D6B33] [00AB76C7]
13 100,0 [E69CC105] [B1FA972C]
14 81,6 [103DAA67] [382B25C7]

foobar2000 1.2 / Dynamic Range Meter 1.1.1
log date: 2013-07-10 14:16:40

––––––––––––––––––––––––––––––––––––––––
Analyzed: Alan Silvestri / Classic Cinema - CD1 (1)
Danny Elfman, arr. Christopher Bankey / Classic Cinema - CD1 (2)
––––––––––––––––––––––––––––––––––––––––

DR Peak RMS Duration Track
––––––––––––––––––––––––––––––––––––––––
DR7 -4.10 dB -13.87 dB 3:27 02-Back to the Future [Main Theme]
DR12 0.00 dB -15.36 dB 2:36 13-Batman [Main Theme]
––––––––––––––––––––––––––––––––––––––––

Number of tracks: 2
Official DR value: DR9

Samplerate: 44100 Hz
Channels: 2
Bits per sample: 16
Bitrate: 706 kbps
Codec: WavPack
================================================================================

––––––––––––––––––––––––––––––––––––––––
Statistics for: 12-The Stepford Wives [Main Theme]
Number of samples: 6998964
Duration: 2:39
––––––––––––––––––––––––––––––––––––––––

Left Right

Peak Value: -1.64 dB –- -1.65 dB
Avg RMS: -13.28 dB –- -13.77 dB
DR channel: 8.13 dB –- 8.48 dB
––––––––––––––––––––––––––––––––––––––––

Official DR Value: DR8

Samplerate: 44100 Hz
Channels: 2
Bits per sample: 16
Bitrate: 706 kbps
Codec: WavPack
================================================================================
––––––––––––––––––––––––––––––––––––––––
Statistics for: 05-The Mission [Gabriel's Oboe]
Number of samples: 6285132
Duration: 2:23
––––––––––––––––––––––––––––––––––––––––

Left Right

Peak Value: -4.14 dB –- -3.33 dB
Avg RMS: -17.11 dB –- -17.95 dB
DR channel: 9.22 dB –- 10.03 dB
––––––––––––––––––––––––––––––––––––––––

Official DR Value: DR10

Samplerate: 44100 Hz
Channels: 2
Bits per sample: 16
Bitrate: 706 kbps
Codec: WavPack
================================================================================
––––––––––––––––––––––––––––––––––––––––
Analyzed: James Horner / Classic Cinema - CD1 (1)
John Barry, arr. Nic Raine / Classic Cinema - CD1 (2)
––––––––––––––––––––––––––––––––––––––––

DR Peak RMS Duration Track
––––––––––––––––––––––––––––––––––––––––
DR13 -0.62 dB -18.93 dB 9:56 03-Apollo 13 [The Launch]
DR12 -0.55 dB -16.21 dB 3:28 10-Out of Africa [Main Theme]
––––––––––––––––––––––––––––––––––––––––

Number of tracks: 2
Official DR value: DR12

Samplerate: 44100 Hz
Channels: 2
Bits per sample: 16
Bitrate: 706 kbps
Codec: WavPack
================================================================================

––––––––––––––––––––––––––––––––––––––––
Statistics for: 04-Star Wars: Episode II - Attack of the Clones [Across the Stars]
Number of samples: 15142764
Duration: 5:43
––––––––––––––––––––––––––––––––––––––––

Left Right

Peak Value: -2.80 dB –- -2.93 dB
Avg RMS: -15.96 dB –- -16.57 dB
DR channel: 8.56 dB –- 9.56 dB
––––––––––––––––––––––––––––––––––––––––

Official DR Value: DR9

Samplerate: 44100 Hz
Channels: 2
Bits per sample: 16
Bitrate: 706 kbps
Codec: WavPack
================================================================================
––––––––––––––––––––––––––––––––––––––––
Analyzed: John Williams / Classic Cinema - CD1
––––––––––––––––––––––––––––––––––––––––

DR Peak RMS Duration Track
––––––––––––––––––––––––––––––––––––––––
DR12 0.00 dB -14.85 dB 4:23 01-Superman: The Movie [Main Theme]
DR9 -1.76 dB -13.45 dB 5:25 14-Star Wars: Episode IV - A New Hope [Main Theme]
––––––––––––––––––––––––––––––––––––––––

Number of tracks: 2
Official DR value: DR11

Samplerate: 44100 Hz
Channels: 2
Bits per sample: 16
Bitrate: 706 kbps
Codec: WavPack
================================================================================

––––––––––––––––––––––––––––––––––––––––
Analyzed: Maurice Jarre, arr. Christopher Palmer / Classic Cinema - CD1
––––––––––––––––––––––––––––––––––––––––

DR Peak RMS Duration Track
––––––––––––––––––––––––––––––––––––––––
DR9 -1.94 dB -14.94 dB 5:05 08-Ghost [Main Theme]
DR9 -1.68 dB -15.02 dB 3:58 11-Witness [Building the Barn]
––––––––––––––––––––––––––––––––––––––––

Number of tracks: 2
Official DR value: DR9

Samplerate: 44100 Hz
Channels: 2
Bits per sample: 16
Bitrate: 706 kbps
Codec: WavPack
================================================================================

––––––––––––––––––––––––––––––––––––––––
Statistics for: 09-The Piano [The Heart Asks Pleasure First]
Number of samples: 10047156
Duration: 3:48
––––––––––––––––––––––––––––––––––––––––

Left Right

Peak Value: -3.19 dB –- -3.52 dB
Avg RMS: -15.67 dB –- -16.76 dB
DR channel: 9.40 dB –- 10.31 dB
––––––––––––––––––––––––––––––––––––––––

Official DR Value: DR10

Samplerate: 44100 Hz
Channels: 2
Bits per sample: 16
Bitrate: 706 kbps
Codec: WavPack
================================================================================
––––––––––––––––––––––––––––––––––––––––
Statistics for: 07-Ladies in Lavender [Ladies in Lavender]
Number of samples: 10548720
Duration: 3:59
––––––––––––––––––––––––––––––––––––––––

Left Right

Peak Value: -2.77 dB –- -3.02 dB
Avg RMS: -18.02 dB –- -19.57 dB
DR channel: 11.65 dB –- 12.92 dB
––––––––––––––––––––––––––––––––––––––––

Official DR Value: DR12

Samplerate: 44100 Hz
Channels: 2
Bits per sample: 16
Bitrate: 706 kbps
Codec: WavPack
================================================================================
––––––––––––––––––––––––––––––––––––––––
Statistics for: 06-Crouching Tiger, Hidden Dragon [The Eternal Vow]
Number of samples: 15800148
Duration: 5:58
––––––––––––––––––––––––––––––––––––––––

Left Right

Peak Value: -1.50 dB –- -1.48 dB
Avg RMS: -17.04 dB –- -17.88 dB
DR channel: 10.24 dB –- 11.19 dB
––––––––––––––––––––––––––––––––––––––––

Official DR Value: DR11

Samplerate: 44100 Hz
Channels: 2
Bits per sample: 16
Bitrate: 706 kbps
Codec: WavPack
================================================================================


Exact Audio Copy V0.99 prebeta 4 from 23. January 2008

EAC extraction logfile from 3. July 2009, 13:58

Various / Classic Cinema - CD2

Used drive : TSSTcorpCDDVDW SH-S203D Adapter: 2 ID: 0

Read mode : Secure
Utilize accurate stream : Yes
Defeat audio cache : Yes
Make use of C2 pointers : No

Read offset correction : 6
Overread into Lead-In and Lead-Out : No
Fill up missing offset samples with silence : Yes
Delete leading and trailing silent blocks : No
Null samples used in CRC calculations : Yes
Used interface : Native Win32 interface for Win NT & 2000

Used output format : Internal WAV Routines
Sample format : 44.100 Hz; 16 Bit; Stereo


TOC of the extracted CD

Track | Start | Length | Start sector | End sector
––––––––––––––––––––––––––––-
1 | 0:00.00 | 3:47.07 | 0 | 17031
2 | 3:47.07 | 5:16.52 | 17032 | 40783
3 | 9:03.59 | 3:43.38 | 40784 | 57546
4 | 12:47.22 | 5:51.33 | 57547 | 83904
5 | 18:38.55 | 5:27.17 | 83905 | 108446
6 | 24:05.72 | 4:10.05 | 108447 | 127201
7 | 28:16.02 | 3:52.31 | 127202 | 144632
8 | 32:08.33 | 5:02.74 | 144633 | 167356
9 | 37:11.32 | 4:41.02 | 167357 | 188433
10 | 41:52.34 | 3:32.61 | 188434 | 204394
11 | 45:25.20 | 5:50.50 | 204395 | 230694
12 | 51:15.70 | 4:59.10 | 230695 | 253129
13 | 56:15.05 | 3:17.48 | 253130 | 267952


Range status and errors

Selected range

Filename C:\DAE\Various Composers -2007- Classic Cinema\CD2\Classic Cinema - CD2.wav

Peak level 100.0 %
Range quality 100.0 %
Test CRC 232BE88D
Copy CRC 232BE88D
Copy OK

No errors occurred


AccurateRip summary

Track 1 accurately ripped (confidence 1) [4B82F699]
Track 2 accurately ripped (confidence 1) [615B8467]
Track 3 accurately ripped (confidence 1) [4EEE7E52]
Track 4 accurately ripped (confidence 1) [B5D05D95]
Track 5 accurately ripped (confidence 1) [296E7DB9]
Track 6 accurately ripped (confidence 1) [1BB64EB8]
Track 7 accurately ripped (confidence 1) [7BE22A9E]
Track 8 accurately ripped (confidence 1) [4433158E]
Track 9 accurately ripped (confidence 1) [D412C4BE]
Track 10 accurately ripped (confidence 1) [14599E47]
Track 11 accurately ripped (confidence 1) [FA818746]
Track 12 accurately ripped (confidence 1) [8491D3B7]
Track 13 accurately ripped (confidence 1) [25DDE997]

All tracks accurately ripped

End of status report

[CUETools log; Date: 10.09.2017 22:14:15; Version: 2.1.4]
[CTDB TOCID: dCFzjvjsBee9uuJQRiOd56yt6EA-] found.
Track | CTDB Status
1 | (33/33) Accurately ripped
2 | (33/33) Accurately ripped
3 | (33/33) Accurately ripped
4 | (33/33) Accurately ripped
5 | (33/33) Accurately ripped
6 | (33/33) Accurately ripped
7 | (33/33) Accurately ripped
8 | (33/33) Accurately ripped
9 | (33/33) Accurately ripped
10 | (33/33) Accurately ripped
11 | (32/33) Accurately ripped
12 | (33/33) Accurately ripped
13 | (32/33) Accurately ripped
[AccurateRip ID: 001cdcba-01213558-b90df40d] found.
Track [ CRC | V2 ] Status
01 [4b82f699|070d3ec2] (10+14/26) Accurately ripped
02 [615b8467|be46696c] (11+14/27) Accurately ripped
03 [4eee7e52|e592970b] (11+14/27) Accurately ripped
04 [b5d05d95|0ebfe4e8] (11+14/27) Accurately ripped
05 [296e7db9|bf3605dc] (11+14/27) Accurately ripped
06 [1bb64eb8|6ae55a3d] (10+14/26) Accurately ripped
07 [7be22a9e|0ae0f601] (11+14/27) Accurately ripped
08 [4433158e|60b73f6d] (10+14/26) Accurately ripped
09 [d412c4be|9e180deb] (11+14/27) Accurately ripped
10 [14599e47|45b5ba6c] (11+14/27) Accurately ripped
11 [fa818746|d5a16ac7] (11+14/27) Accurately ripped
12 [8491d3b7|64edc15b] (11+14/27) Accurately ripped
13 [25dde997|6b61b2a9] (10+14/26) Accurately ripped
Offsetted by -652:
01 [4c538459] (02/26) Accurately ripped
02 [7f788c43] (02/27) Accurately ripped
03 [acf0bff6] (02/27) Accurately ripped
04 [c81699b9] (02/27) Accurately ripped
05 [93cd98cd] (02/27) Accurately ripped
06 [76444220] (02/26) Accurately ripped
07 [93182f66] (02/27) Accurately ripped
08 [fa00e3ca] (02/26) Accurately ripped
09 [fded8332] (02/27) Accurately ripped
10 [2039875f] (02/27) Accurately ripped
11 [6ecf7866] (02/27) Accurately ripped
12 [40c0e40b] (02/27) Accurately ripped
13 [394655b7] (02/26) Accurately ripped

Track Peak [ CRC32 ] [W/O NULL]
– 100,0 [232BE88D] [AC305E4F]
01 92,0 [F77D3997] [ED86A12D]
02 100,0 [5252EDC0] [92B72A04]
03 90,8 [E8698197] [FC0835C4]
04 80,0 [23F9D1D9] [51213FC3]
05 98,0 [84CC3BA2] [2CB31D09]
06 86,7 [6736F675] [06723474]
07 94,3 [D29AF60D] [C1BA98A2]
08 88,1 [202D60C0] [39806DA4]
09 84,7 [38184CBD] [B4436956]
10 96,8 [2070045E] [C3EF2B0D]
11 85,6 [699238F4] [AF7E2E35]
12 83,6 [526D59B6] [FCEE6793]
13 93,7 [DCA0C865] [50BFD81B]

foobar2000 1.2 / Dynamic Range Meter 1.1.1
log date: 2013-07-10 14:17:10

––––––––––––––––––––––––––––––––––––––––
Analyzed: Alexandre Desplat / Classic Cinema - CD2 (1)
Craig Armstrong, arr. Paul Bateman / Classic Cinema - CD2 (2)
––––––––––––––––––––––––––––––––––––––––

DR Peak RMS Duration Track
––––––––––––––––––––––––––––––––––––––––
DR10 -1.24 dB -15.79 dB 4:10 06-Girl with a Pearl Earring [Griet's Theme]
DR12 -1.34 dB -19.14 dB 5:51 11-Romeo + Juliet [Balcony Scene]
––––––––––––––––––––––––––––––––––––––––

Number of tracks: 2
Official DR value: DR11

Samplerate: 44100 Hz
Channels: 2
Bits per sample: 16
Bitrate: 708 kbps
Codec: WavPack
================================================================================

––––––––––––––––––––––––––––––––––––––––
Analyzed: Debbie Wiseman / Classic Cinema - CD2 (1)
George Fenton / Classic Cinema - CD2 (2)
––––––––––––––––––––––––––––––––––––––––

DR Peak RMS Duration Track
––––––––––––––––––––––––––––––––––––––––
DR8 -1.10 dB -12.94 dB 5:03 08-Arsиne Lupin [Overture]
DR9 -1.43 dB -14.24 dB 4:41 09-Stage Beauty [Main Theme]
––––––––––––––––––––––––––––––––––––––––

Number of tracks: 2
Official DR value: DR9

Samplerate: 44100 Hz
Channels: 2
Bits per sample: 16
Bitrate: 708 kbps
Codec: WavPack
================================================================================

––––––––––––––––––––––––––––––––––––––––
Analyzed: Jan A.P. Kaczmarek, arr. Christopher Tin / Classic Cinema - CD2 (1)
John Barry, arr. Nic Raine / Classic Cinema - CD2 (2)
––––––––––––––––––––––––––––––––––––––––

DR Peak RMS Duration Track
––––––––––––––––––––––––––––––––––––––––
DR11 -0.83 dB -15.61 dB 3:44 03-Finding Neverland [Impossible Opening]
DR9 -0.51 dB -13.71 dB 3:52 07-Dances with Wolves [John Dunbar Theme]
––––––––––––––––––––––––––––––––––––––––

Number of tracks: 2
Official DR value: DR10

Samplerate: 44100 Hz
Channels: 2
Bits per sample: 16
Bitrate: 708 kbps
Codec: WavPack
================================================================================

––––––––––––––––––––––––––––––––––––––––
Analyzed: John Williams / Classic Cinema - CD2
––––––––––––––––––––––––––––––––––––––––

DR Peak RMS Duration Track
––––––––––––––––––––––––––––––––––––––––
DR11 -0.72 dB -15.94 dB 3:47 01-E.T.: The Extra-Terrestrial [Flying Theme]
DR13 0.00 dB -15.66 dB 5:17 02-Harry Potter and the Philosopher's Stone [Harry's Wonderful World]
DR10 -0.17 dB -13.75 dB 5:27 05-Raiders of the Lost Ark [Raiders March]
––––––––––––––––––––––––––––––––––––––––

Number of tracks: 3
Official DR value: DR11

Samplerate: 44100 Hz
Channels: 2
Bits per sample: 16
Bitrate: 708 kbps
Codec: WavPack
================================================================================

––––––––––––––––––––––––––––––––––––––––
Analyzed: Klaus Badelt, arr. Nic Raine / Classic Cinema - CD2 (1)
Maurice Jarre / Classic Cinema - CD2 (2)
––––––––––––––––––––––––––––––––––––––––

DR Peak RMS Duration Track
––––––––––––––––––––––––––––––––––––––––
DR9 -1.94 dB -13.96 dB 5:51 04-Pirates of the Caribbean [Main Theme]
DR9 -0.56 dB -13.79 dB 3:18 13-Doctor Zhivago [Lara's Theme]
––––––––––––––––––––––––––––––––––––––––

Number of tracks: 2
Official DR value: DR9

Samplerate: 44100 Hz
Channels: 2
Bits per sample: 16
Bitrate: 708 kbps
Codec: WavPack
================================================================================

––––––––––––––––––––––––––––––––––––––––
Statistics for: 12-Oliver Twist [Main Theme]
Number of samples: 13191780
Duration: 4:59
––––––––––––––––––––––––––––––––––––––––

Left Right

Peak Value: -1.55 dB –- -1.75 dB
Avg RMS: -16.17 dB –- -16.78 dB
DR channel: 11.01 dB –- 10.98 dB
––––––––––––––––––––––––––––––––––––––––

Official DR Value: DR11

Samplerate: 44100 Hz
Channels: 2
Bits per sample: 16
Bitrate: 708 kbps
Codec: WavPack
================================================================================
––––––––––––––––––––––––––––––––––––––––
Statistics for: 10-Shakespeare in Love [Suite]
Number of samples: 9385068
Duration: 3:33
––––––––––––––––––––––––––––––––––––––––

Left Right

Peak Value: -0.28 dB –- -1.79 dB
Avg RMS: -17.51 dB –- -19.40 dB
DR channel: 11.43 dB –- 11.64 dB
––––––––––––––––––––––––––––––––––––––––

Official DR Value: DR12

Samplerate: 44100 Hz
Channels: 2
Bits per sample: 16
Bitrate: 708 kbps
Codec: WavPack
================================================================================


Exact Audio Copy V0.99 prebeta 4 from 23. January 2008

EAC extraction logfile from 3. July 2009, 14:18

Various / Classic Cinema - CD3

Used drive : TSSTcorpCDDVDW SH-S203D Adapter: 2 ID: 0

Read mode : Secure
Utilize accurate stream : Yes
Defeat audio cache : Yes
Make use of C2 pointers : No

Read offset correction : 6
Overread into Lead-In and Lead-Out : No
Fill up missing offset samples with silence : Yes
Delete leading and trailing silent blocks : No
Null samples used in CRC calculations : Yes
Used interface : Native Win32 interface for Win NT & 2000

Used output format : Internal WAV Routines
Sample format : 44.100 Hz; 16 Bit; Stereo


TOC of the extracted CD

Track | Start | Length | Start sector | End sector
––––––––––––––––––––––––––––-
1 | 0:00.00 | 4:33.41 | 0 | 20515
2 | 4:33.41 | 9:23.73 | 20516 | 62813
3 | 13:57.39 | 2:09.58 | 62814 | 72546
4 | 16:07.22 | 7:16.43 | 72547 | 105289
5 | 23:23.65 | 7:08.57 | 105290 | 137446
6 | 30:32.47 | 3:58.07 | 137447 | 155303
7 | 34:30.54 | 6:43.37 | 155304 | 185565
8 | 41:14.16 | 1:24.70 | 185566 | 191935
9 | 42:39.11 | 4:34.32 | 191936 | 212517
10 | 47:13.43 | 4:26.20 | 212518 | 232487
11 | 51:39.63 | 5:27.20 | 232488 | 257032
12 | 57:07.08 | 2:55.44 | 257033 | 270201


Range status and errors

Selected range

Filename C:\DAE\Various Composers -2007- Classic Cinema\CD3\Classic Cinema - CD3.wav

Peak level 100.0 %
Range quality 100.0 %
Test CRC 33430CFE
Copy CRC 33430CFE
Copy OK

No errors occurred


AccurateRip summary

Track 1 accurately ripped (confidence 1) [35D05C76]
Track 2 accurately ripped (confidence 1) [B5470313]
Track 3 accurately ripped (confidence 1) [805AD78B]
Track 4 accurately ripped (confidence 1) [FCFD0F7A]
Track 5 accurately ripped (confidence 1) [8503C470]
Track 6 accurately ripped (confidence 1) [3305F984]
Track 7 accurately ripped (confidence 1) [C66C1AC6]
Track 8 accurately ripped (confidence 1) [7B6587EE]
Track 9 accurately ripped (confidence 1) [FA3A8870]
Track 10 accurately ripped (confidence 1) [3F7C7F38]
Track 11 accurately ripped (confidence 1) [0FE21210]
Track 12 accurately ripped (confidence 1) [EAD26412]

All tracks accurately ripped

End of status report

[CUETools log; Date: 10.09.2017 22:15:07; Version: 2.1.4]
[CTDB TOCID: mWBHFZvglfFGAPYWpyYPgf3gOTQ-] found.
Track | CTDB Status
1 | (30/31) Accurately ripped, or (1/31) differs in 2 samples @00:32:20
2 | (31/31) Accurately ripped
3 | (31/31) Accurately ripped
4 | (31/31) Accurately ripped
5 | (31/31) Accurately ripped
6 | (31/31) Accurately ripped
7 | (31/31) Accurately ripped
8 | (31/31) Accurately ripped
9 | (31/31) Accurately ripped
10 | (31/31) Accurately ripped
11 | (31/31) Accurately ripped
12 | (31/31) Accurately ripped
[AccurateRip ID: 001d0c2d-010a41e5-ab0e120c] found.
Track [ CRC | V2 ] Status
01 [35d05c76|32c98eb6] (08+15/27) Accurately ripped
02 [b5470313|858f3461] (08+15/27) Accurately ripped
03 [805ad78b|fa28224b] (08+15/27) Accurately ripped
04 [fcfd0f7a|d3f93c30] (08+15/27) Accurately ripped
05 [8503c470|cbb6d329] (08+15/27) Accurately ripped
06 [3305f984|a594f81c] (08+14/26) Accurately ripped
07 [c66c1ac6|0ecef9ca] (08+15/27) Accurately ripped
08 [7b6587ee|da09c094] (08+15/27) Accurately ripped
09 [fa3a8870|9886afaa] (08+15/27) Accurately ripped
10 [3f7c7f38|4165d340] (08+15/27) Accurately ripped
11 [0fe21210|e533068b] (08+15/27) Accurately ripped
12 [ead26412|5d24820c] (08+15/27) Accurately ripped
Offsetted by -652:
01 [c935ecde] (02/27) Accurately ripped
02 [3c1413b3] (02/27) Accurately ripped
03 [fdbdc1cf] (02/27) Accurately ripped
04 [f1715846] (02/27) Accurately ripped
05 [5acc8450] (02/27) Accurately ripped
06 [89c44b48] (02/26) Accurately ripped
07 [88f08c42] (02/27) Accurately ripped
08 [712ae4c6] (02/27) Accurately ripped
09 [c996d59c] (02/27) Accurately ripped
10 [e3566e94] (02/27) Accurately ripped
11 [9b114e68] (02/27) Accurately ripped
12 [d81ddef6] (02/27) Accurately ripped

Track Peak [ CRC32 ] [W/O NULL]
– 100,0 [33430CFE] [7089024A]
01 100,0 [030B1E14] [092D7CC5]
02 100,0 [25B70ADF] [BC8435C0]
03 77,6 [571ED984] [20336080]
04 90,9 [69BEF0ED] [FEF3ED74]
05 58,6 [2FB276A3] [26623D52]
06 63,0 [6EE7C705] [E44D2684]
07 100,0 [EE74A2CE] [1B71ACA9]
08 76,0 [171A2683] [5DE58DF6]
09 85,7 [C11EA6CA] [D28B80DD]
10 83,4 [B1A7BF82] [135D0538]
11 91,1 [C06ECE52] [B717B8B6]
12 100,0 [B7D5A6E7] [9FF6229A]

foobar2000 1.2 / Dynamic Range Meter 1.1.1
log date: 2013-07-10 14:17:35

––––––––––––––––––––––––––––––––––––––––
Analyzed: Craig Armstrong / Classic Cinema - CD3 (1)
Elmer Bernstein / Classic Cinema - CD3 (2)
––––––––––––––––––––––––––––––––––––––––

DR Peak RMS Duration Track
––––––––––––––––––––––––––––––––––––––––
DR10 -2.20 dB -18.52 dB 2:10 03-Love Actually [Glasgow Love Theme]
DR10 -1.34 dB -13.91 dB 4:34 09-The Magnificent Seven [Main Theme]
––––––––––––––––––––––––––––––––––––––––

Number of tracks: 2
Official DR value: DR10

Samplerate: 44100 Hz
Channels: 2
Bits per sample: 16
Bitrate: 655 kbps
Codec: WavPack
================================================================================

––––––––––––––––––––––––––––––––––––––––
Statistics for: 08-The English Patient [Theme]
Number of samples: 3745560
Duration: 1:25
––––––––––––––––––––––––––––––––––––––––

Left Right

Peak Value: -2.38 dB –- -4.01 dB
Avg RMS: -18.80 dB –- -20.81 dB
DR channel: 10.46 dB –- 10.77 dB
––––––––––––––––––––––––––––––––––––––––

Official DR Value: DR11

Samplerate: 44100 Hz
Channels: 2
Bits per sample: 16
Bitrate: 655 kbps
Codec: WavPack
================================================================================
––––––––––––––––––––––––––––––––––––––––
Analyzed: Hans Zimmer / Classic Cinema - CD3 (1)
Howard Shore, arr. Nic Raine / Classic Cinema - CD3 (2)
Jerome Moross / Classic Cinema - CD3 (3)
––––––––––––––––––––––––––––––––––––––––

DR Peak RMS Duration Track
––––––––––––––––––––––––––––––––––––––––
DR8 -0.82 dB -13.23 dB 7:17 04-Gladiator [Suite]
DR13 -0.81 dB -19.33 dB 5:27 11-The Lord of the Rings [Main Theme]
DR11 0.00 dB -14.93 dB 2:56 12-The Big Country [Main Theme]
––––––––––––––––––––––––––––––––––––––––

Number of tracks: 3
Official DR value: DR10

Samplerate: 44100 Hz
Channels: 2
Bits per sample: 16
Bitrate: 655 kbps
Codec: WavPack
================================================================================

––––––––––––––––––––––––––––––––––––––––
Analyzed: John Williams / Classic Cinema - CD3 (1-2)
Maurice Jarre / Classic Cinema - CD3 (3)
––––––––––––––––––––––––––––––––––––––––

DR Peak RMS Duration Track
––––––––––––––––––––––––––––––––––––––––
DR12 -4.00 dB -22.05 dB 3:58 06-Schindler's List [Main Theme]
DR14 0.00 dB -20.35 dB 6:43 07-Saving Private Ryan [Hymn to the Fallen]
DR9 -1.57 dB -14.28 dB 4:26 10-Lawrence of Arabia [Overture]
––––––––––––––––––––––––––––––––––––––––

Number of tracks: 3
Official DR value: DR12

Samplerate: 44100 Hz
Channels: 2
Bits per sample: 16
Bitrate: 655 kbps
Codec: WavPack
================================================================================

––––––––––––––––––––––––––––––––––––––––
Analyzed: Max Steiner / Classic Cinema - CD3 (1)
Richard Addinsell / Classic Cinema - CD3 (2)
Samuel Barber / Classic Cinema - CD3 (3)
––––––––––––––––––––––––––––––––––––––––

DR Peak RMS Duration Track
––––––––––––––––––––––––––––––––––––––––
DR12 0.00 dB -17.03 dB 4:34 01-Gone with the Wind [Main Theme]
DR13 0.00 dB -17.85 dB 9:24 02-Dangerous Moonlight [Warsaw Concerto]
DR13 -4.64 dB -24.41 dB 7:09 05-Platoon [Adagio for Strings]
––––––––––––––––––––––––––––––––––––––––

Number of tracks: 3
Official DR value: DR13

Samplerate: 44100 Hz
Channels: 2
Bits per sample: 16
Bitrate: 655 kbps
Codec: WavPack
================================================================================

Various Composers - Classic Cinema (2007) 3 CD Set [Re-Up]