Tags
Language
Tags

Billy Bragg - Best of Billy Bragg at the BBC 1983 - 2019 (2019)

Posted By: delpotro
Billy Bragg - Best of Billy Bragg at the BBC 1983 - 2019 (2019)

Billy Bragg - Best of Billy Bragg at the BBC 1983 - 2019 (2019)
EAC Rip | FLAC (tracks+log+.cue) | 01:58:17 | 639 Mb
Alternative Folk, Folk Rock, Singer-Songwriter | Label: Cooking Vinyl

Featuring 38 Classic tracks compiled from the BBC archive spanning 1983 to 2019. Fully remastered many previously unreleased. Includes selected highlights from sessions for John Peel, David Jensen, Janice Long, Phill Jupitus, Bob Harris, Tom Robinson & more.

Billy Says: “Work in progress. That’s how John Peel thought of his evening sessions, offering artists the opportunity to try out new songs in a studio environment. That’s how I looked at them too. The confirmation of a Peel session date was a signal to get my ideas together, to define material that had hitherto been little more than words scribbled on a page or a tune thrashed out during a sound check. That’s why some of the tracks here have a different phrasing and arrangement to that which appeared on record. The songs were so new, you can hear I’m still feeling my way into them. Several were conceived and written the night before the session. In one case, I actually composed a song from scratch while the show was on air.

That rawness was always a key component of my BBC sessions, the thrill of putting something out there for the very first time. And here I’ve collected all the best moments across 36 years of my ongoing work in progress.”
Tracklist:
1. A New England (John Peel Session, 27th July 1983) (02:16)
2. Fear Is a Man's Best Friend (John Peel Session, 27th July 1983) (02:38)
3. Love Gets Dangerous (John Peel Session, 27th July 1983) (02:15)
4. Like Soldiers Do (David Jensen Session, 22nd December 1983) (02:46)
5. The Man in the Iron Mask (David Jensen Session, 22nd December 1983) (02:22)
6. The Saturday Boy (David Jensen Session, 22nd December 1983) (03:18)
7. A Lover Sings (John Peel Session, 18th September 1984) (04:06)
8. Between the Wars (John Peel Session, 18th September 1984) (02:40)
9. A13, Trunk Road to the Sea (Saturday Live, 13th October 1984) (02:13)
10. There Is Power in a Union (John Peel Session, 20th August 1985) (02:21)
11. Days Like These (John Peel Session, 20th August 1985) (01:53)
12. Scholarship Is the Enemy of Romance (Janice Long Session, 18th December 1985) (01:55)
13. Greetings to the New Brunette (John Peel Session, 2nd September 1986) (03:24)
14. Ideology (John Peel Session, 2nd September 1986) (03:26)
15. The Warmest Room (John Peel Session, 2nd September 1986) (03:07)
16. She's Got a New Spell (John Peel Session, 30th August 1988) (02:41)
17. Valentine's Day Is Over (John Peel Session, 30th August 1988) (04:25)
18. The Short Answer (John Peel Session, 30th August 1988) (04:23)
19. Rotting on Remand (John Peel Session, 30th August 1988) (03:18)
20. The Few (John Peel Session, 12th May 1991) (03:59)
21. Accident Waiting to Happen (John Peel Session, 12th May 1991) (04:00)
22. Tank Park Salute (John Peel Session, 12th May 1991) (03:46)
23. Brickbat (John Peel Session, 13th October 1995) (02:56)
24. This Gulf Between Us (John Peel Session, 13th October 1995) (02:05)
25. Goal Hanger (John Peel Divas Bar Live, 1st May 1997) (02:52)
26. The Boy Done Good (John Peel Divas Bar Live, 1st May 1997) (02:46)
27. From Red to Blue (John Peel Divas Bar Live, 1st May 1997) (03:07)
28. The Busy Girl Buys Beauty (Janice Long Paris Theatre London Live, October 1999) (01:57)
29. It Says Here (Janice Long Paris Theatre London Live, October 1999) (02:20)
30. Lonesome Traveller (John Peel Session, 8th December 2004) (03:20)
31. Goodbye, Goodbye (Phill Jupitus Live, 30th March 2007) (03:07)
32. Way over Yonder in the Minor Key (Bob Harris Live, 6th May 2012) (03:15)
33. No-One Knows Nothing Anymore (Latitude Festival Live, 18th July 2014) (03:53)
34. Levi Stubbs' Tears (Glastonbury Live, 26th June 2015) (03:23)
35. Why We Build the Wall (Tom Robinson Live Buxton Opera House, 21st January 2017) (03:40)
36. I Ain't Got No Home (Radio 2 Folk Awards Live, 5th April 2017) (03:48)
37. The Space Race Is Over (Tom Robinson Now Playing 'Billy Bragg Takeover', 14th July 2019) (04:07)
38. St. Swithin's Day (Tom Robinson Now Playing 'Billy Bragg Takeover', 14th July 2019) (02:53)

Exact Audio Copy V1.3 from 2. September 2016

EAC extraction logfile from 6. March 2020, 8:04

Billy Bragg / Best of Billy Bragg at the BBC 1983-2019

Used drive : PLEXTOR PX-891SAF Adapter: 1 ID: 0

Read mode : Secure
Utilize accurate stream : Yes
Defeat audio cache : Yes
Make use of C2 pointers : No

Read offset correction : 6
Overread into Lead-In and Lead-Out : No
Fill up missing offset samples with silence : Yes
Delete leading and trailing silent blocks : No
Null samples used in CRC calculations : Yes
Used interface : Native Win32 interface for Win NT & 2000
Gap handling : Appended to previous track

Used output format : User Defined Encoder
Selected bitrate : 1024 kBit/s
Quality : High
Add ID3 tag : No
Command line compressor : C:\Program Files (x86)\Exact Audio Copy\Flac\flac.exe
Additional command line options : -8 -V -T "ARTIST=%artist%" -T "TITLE=%title%" -T "ALBUM=%albumtitle%" -T "DATE=%year%" -T "TRACKNUMBER=%tracknr%" -T "GENRE=%genre%" -T "PERFORMER=%albuminterpret%" -T "COMPOSER=%composer%" %haslyrics%–tag-from-file=LYRICS="%lyricsfile%"%haslyrics% -T "ALBUMARTIST=%albumartist%" -T "DISCNUMBER=%cdnumber%" -T "TOTALDISCS=%totalcds%" -T "TOTALTRACKS=%numtracks%" -T "COMMENT=%comment%" %source% -o %dest%


TOC of the extracted CD

Track | Start | Length | Start sector | End sector
––––––––––––––––––––––––––––-
1 | 0:00.00 | 2:19.60 | 0 | 10484
2 | 2:19.60 | 2:40.03 | 10485 | 22487
3 | 4:59.63 | 2:17.62 | 22488 | 32824
4 | 7:17.50 | 2:48.11 | 32825 | 45435
5 | 10:05.61 | 2:24.50 | 45436 | 56285
6 | 12:30.36 | 3:20.09 | 56286 | 71294
7 | 15:50.45 | 4:08.01 | 71295 | 89895
8 | 19:58.46 | 2:42.02 | 89896 | 102047
9 | 22:40.48 | 2:15.51 | 102048 | 112223
10 | 24:56.24 | 2:23.51 | 112224 | 122999
11 | 27:20.00 | 1:55.63 | 123000 | 131687
12 | 29:15.63 | 1:57.64 | 131688 | 140526
13 | 31:13.52 | 3:26.13 | 140527 | 155989
14 | 34:39.65 | 3:28.39 | 155990 | 171628
15 | 38:08.29 | 3:09.52 | 171629 | 185855
16 | 41:18.06 | 2:43.65 | 185856 | 198145
17 | 44:01.71 | 4:27.03 | 198146 | 218173
18 | 48:28.74 | 4:25.42 | 218174 | 238090
19 | 52:54.41 | 3:20.65 | 238091 | 253155


Track 1

Filename D:\#EAC new\#wav+flac\Billy Bragg - Best of Billy Bragg at the BBC 1983-2019\cd 1\01. Billy Bragg - A New England.wav

Pre-gap length 0:00:02.00

Peak level 98.8 %
Extraction speed 3.4 X
Track quality 99.9 %
Test CRC 4B8ABF57
Copy CRC 4B8ABF57
Accurately ripped (confidence 7) [9F0462B4] (AR v2)
Copy OK

Track 2

Filename D:\#EAC new\#wav+flac\Billy Bragg - Best of Billy Bragg at the BBC 1983-2019\cd 1\02. Billy Bragg - Fear Is A Man's Best Friend.wav

Pre-gap length 0:00:01.77

Peak level 98.3 %
Extraction speed 4.9 X
Track quality 100.0 %
Test CRC A9750626
Copy CRC A9750626
Accurately ripped (confidence 6) [9798FAA3] (AR v2)
Copy OK

Track 3

Filename D:\#EAC new\#wav+flac\Billy Bragg - Best of Billy Bragg at the BBC 1983-2019\cd 1\03. Billy Bragg - Love Gets Dangerous.wav

Pre-gap length 0:00:01.77

Peak level 98.3 %
Extraction speed 5.1 X
Track quality 100.0 %
Test CRC F45339E8
Copy CRC F45339E8
Accurately ripped (confidence 6) [6CC06E82] (AR v2)
Copy OK

Track 4

Filename D:\#EAC new\#wav+flac\Billy Bragg - Best of Billy Bragg at the BBC 1983-2019\cd 1\04. Billy Bragg - Like Soldiers Do.wav

Pre-gap length 0:00:01.77

Peak level 98.3 %
Extraction speed 5.5 X
Track quality 100.0 %
Test CRC EE67968D
Copy CRC EE67968D
Accurately ripped (confidence 6) [B1325DD3] (AR v2)
Copy OK

Track 5

Filename D:\#EAC new\#wav+flac\Billy Bragg - Best of Billy Bragg at the BBC 1983-2019\cd 1\05. Billy Bragg - The Man In The Iron Mask.wav

Pre-gap length 0:00:01.77

Peak level 98.3 %
Extraction speed 5.7 X
Track quality 100.0 %
Test CRC B0C4EFE4
Copy CRC B0C4EFE4
Accurately ripped (confidence 6) [D4F6B1D1] (AR v2)
Copy OK

Track 6

Filename D:\#EAC new\#wav+flac\Billy Bragg - Best of Billy Bragg at the BBC 1983-2019\cd 1\06. Billy Bragg - The Saturday Boy.wav

Pre-gap length 0:00:01.77

Peak level 98.1 %
Extraction speed 6.3 X
Track quality 100.0 %
Test CRC B882F212
Copy CRC B882F212
Accurately ripped (confidence 6) [76F10D64] (AR v2)
Copy OK

Track 7

Filename D:\#EAC new\#wav+flac\Billy Bragg - Best of Billy Bragg at the BBC 1983-2019\cd 1\07. Billy Bragg - A Lover Sings.wav

Pre-gap length 0:00:01.77

Peak level 98.3 %
Extraction speed 5.7 X
Track quality 99.9 %
Test CRC D05BD16F
Copy CRC D05BD16F
Accurately ripped (confidence 6) [F2F5FB7E] (AR v2)
Copy OK

Track 8

Filename D:\#EAC new\#wav+flac\Billy Bragg - Best of Billy Bragg at the BBC 1983-2019\cd 1\08. Billy Bragg - Between The Wars.wav

Pre-gap length 0:00:01.77

Peak level 98.3 %
Extraction speed 5.2 X
Track quality 99.9 %
Test CRC 49B66C18
Copy CRC 49B66C18
Accurately ripped (confidence 6) [D47A1F34] (AR v2)
Copy OK

Track 9

Filename D:\#EAC new\#wav+flac\Billy Bragg - Best of Billy Bragg at the BBC 1983-2019\cd 1\09. Billy Bragg - A13, Trunk Road To The Sea.wav

Pre-gap length 0:00:01.77

Peak level 98.3 %
Extraction speed 6.7 X
Track quality 100.0 %
Test CRC D0756637
Copy CRC D0756637
Accurately ripped (confidence 6) [0A3EC0DD] (AR v2)
Copy OK

Track 10

Filename D:\#EAC new\#wav+flac\Billy Bragg - Best of Billy Bragg at the BBC 1983-2019\cd 1\10. Billy Bragg - There Is Power In A Union.wav

Pre-gap length 0:00:01.77

Peak level 100.0 %
Extraction speed 7.0 X
Track quality 100.0 %
Test CRC 436E4115
Copy CRC 436E4115
Accurately ripped (confidence 6) [5ECFF97B] (AR v2)
Copy OK

Track 11

Filename D:\#EAC new\#wav+flac\Billy Bragg - Best of Billy Bragg at the BBC 1983-2019\cd 1\11. Billy Bragg - Days Like These.wav

Pre-gap length 0:00:01.77

Peak level 98.2 %
Extraction speed 4.8 X
Track quality 99.9 %
Test CRC 072B4738
Copy CRC 072B4738
Accurately ripped (confidence 6) [69957183] (AR v2)
Copy OK

Track 12

Filename D:\#EAC new\#wav+flac\Billy Bragg - Best of Billy Bragg at the BBC 1983-2019\cd 1\12. Billy Bragg - Scholarship Is The Enemy Of Romance.wav

Pre-gap length 0:00:01.77

Peak level 98.3 %
Extraction speed 5.0 X
Track quality 99.9 %
Test CRC 0AAEB689
Copy CRC 0AAEB689
Accurately ripped (confidence 6) [FEBF1EA5] (AR v2)
Copy OK

Track 13

Filename D:\#EAC new\#wav+flac\Billy Bragg - Best of Billy Bragg at the BBC 1983-2019\cd 1\13. Billy Bragg - Greetings To The New Brunette.wav

Pre-gap length 0:00:01.77

Peak level 98.3 %
Extraction speed 6.4 X
Track quality 99.9 %
Test CRC 265713F0
Copy CRC 265713F0
Accurately ripped (confidence 7) [703AD4E7] (AR v2)
Copy OK

Track 14

Filename D:\#EAC new\#wav+flac\Billy Bragg - Best of Billy Bragg at the BBC 1983-2019\cd 1\14. Billy Bragg - Ideology.wav

Pre-gap length 0:00:01.77

Peak level 98.1 %
Extraction speed 8.1 X
Track quality 100.0 %
Test CRC 292863CA
Copy CRC 292863CA
Accurately ripped (confidence 6) [E91A2193] (AR v2)
Copy OK

Track 15

Filename D:\#EAC new\#wav+flac\Billy Bragg - Best of Billy Bragg at the BBC 1983-2019\cd 1\15. Billy Bragg - The Warmest Room.wav

Pre-gap length 0:00:01.77

Peak level 98.2 %
Extraction speed 8.3 X
Track quality 100.0 %
Test CRC A8A63F79
Copy CRC A8A63F79
Accurately ripped (confidence 6) [1953DF2B] (AR v2)
Copy OK

Track 16

Filename D:\#EAC new\#wav+flac\Billy Bragg - Best of Billy Bragg at the BBC 1983-2019\cd 1\16. Billy Bragg - She's Got A New Spell.wav

Pre-gap length 0:00:01.77

Peak level 98.1 %
Extraction speed 8.4 X
Track quality 100.0 %
Test CRC 62B106D5
Copy CRC 62B106D5
Accurately ripped (confidence 6) [16396A12] (AR v2)
Copy OK

Track 17

Filename D:\#EAC new\#wav+flac\Billy Bragg - Best of Billy Bragg at the BBC 1983-2019\cd 1\17. Billy Bragg - Valentine's Day Is Over.wav

Pre-gap length 0:00:01.77

Peak level 98.3 %
Extraction speed 9.2 X
Track quality 100.0 %
Test CRC 978EBD0B
Copy CRC 978EBD0B
Accurately ripped (confidence 6) [86E99DC4] (AR v2)
Copy OK

Track 18

Filename D:\#EAC new\#wav+flac\Billy Bragg - Best of Billy Bragg at the BBC 1983-2019\cd 1\18. Billy Bragg - The Short Answer.wav

Pre-gap length 0:00:01.77

Peak level 91.7 %
Extraction speed 9.5 X
Track quality 100.0 %
Test CRC 15580ADB
Copy CRC 15580ADB
Accurately ripped (confidence 6) [31271D1E] (AR v2)
Copy OK

Track 19

Filename D:\#EAC new\#wav+flac\Billy Bragg - Best of Billy Bragg at the BBC 1983-2019\cd 1\19. Billy Bragg - Rotting On Remand.wav

Pre-gap length 0:00:01.77

Peak level 98.2 %
Extraction speed 7.2 X
Track quality 99.9 %
Test CRC 2FF14C49
Copy CRC 2FF14C49
Accurately ripped (confidence 6) [B5096602] (AR v2)
Copy OK


All tracks accurately ripped

No errors occurred

End of status report

–– CUETools DB Plugin V2.1.6

[CTDB TOCID: WbetrVgq1xdqQXf2dd_JjDhmRBA-] found
Submit result: WbetrVgq1xdqQXf2dd_JjDhmRBA- has been confirmed
Track | CTDB Status
1 | (34/34) Accurately ripped
2 | (34/34) Accurately ripped
3 | (34/34) Accurately ripped
4 | (34/34) Accurately ripped
5 | (34/34) Accurately ripped
6 | (34/34) Accurately ripped
7 | (34/34) Accurately ripped
8 | (34/34) Accurately ripped
9 | (34/34) Accurately ripped
10 | (34/34) Accurately ripped
11 | (34/34) Accurately ripped
12 | (34/34) Accurately ripped
13 | (34/34) Accurately ripped
14 | (34/34) Accurately ripped
15 | (34/34) Accurately ripped
16 | (34/34) Accurately ripped
17 | (34/34) Accurately ripped
18 | (34/34) Accurately ripped
19 | (34/34) Accurately ripped


==== Log checksum 8A4190271D71BDED54C751A602A0B618751E7BD176CB0C96EC7A1646054534F1 ====

––––––––––––––––––––––––––––––

Exact Audio Copy V1.3 from 2. September 2016

EAC extraction logfile from 6. March 2020, 8:04

Billy Bragg / Best of Billy Bragg at the BBC 1983-2019

Used drive : PLEXTOR PX-891SAF Adapter: 1 ID: 0

Read mode : Secure
Utilize accurate stream : Yes
Defeat audio cache : Yes
Make use of C2 pointers : No

Read offset correction : 6
Overread into Lead-In and Lead-Out : No
Fill up missing offset samples with silence : Yes
Delete leading and trailing silent blocks : No
Null samples used in CRC calculations : Yes
Used interface : Native Win32 interface for Win NT & 2000
Gap handling : Appended to previous track

Used output format : User Defined Encoder
Selected bitrate : 1024 kBit/s
Quality : High
Add ID3 tag : No
Command line compressor : C:\Program Files (x86)\Exact Audio Copy\Flac\flac.exe
Additional command line options : -8 -V -T "ARTIST=%artist%" -T "TITLE=%title%" -T "ALBUM=%albumtitle%" -T "DATE=%year%" -T "TRACKNUMBER=%tracknr%" -T "GENRE=%genre%" -T "PERFORMER=%albuminterpret%" -T "COMPOSER=%composer%" %haslyrics%–tag-from-file=LYRICS="%lyricsfile%"%haslyrics% -T "ALBUMARTIST=%albumartist%" -T "DISCNUMBER=%cdnumber%" -T "TOTALDISCS=%totalcds%" -T "TOTALTRACKS=%numtracks%" -T "COMMENT=%comment%" %source% -o %dest%


TOC of the extracted CD

Track | Start | Length | Start sector | End sector
––––––––––––––––––––––––––––-
1 | 0:00.00 | 2:19.60 | 0 | 10484
2 | 2:19.60 | 2:40.03 | 10485 | 22487
3 | 4:59.63 | 2:17.62 | 22488 | 32824
4 | 7:17.50 | 2:48.11 | 32825 | 45435
5 | 10:05.61 | 2:24.50 | 45436 | 56285
6 | 12:30.36 | 3:20.09 | 56286 | 71294
7 | 15:50.45 | 4:08.01 | 71295 | 89895
8 | 19:58.46 | 2:42.02 | 89896 | 102047
9 | 22:40.48 | 2:15.51 | 102048 | 112223
10 | 24:56.24 | 2:23.51 | 112224 | 122999
11 | 27:20.00 | 1:55.63 | 123000 | 131687
12 | 29:15.63 | 1:57.64 | 131688 | 140526
13 | 31:13.52 | 3:26.13 | 140527 | 155989
14 | 34:39.65 | 3:28.39 | 155990 | 171628
15 | 38:08.29 | 3:09.52 | 171629 | 185855
16 | 41:18.06 | 2:43.65 | 185856 | 198145
17 | 44:01.71 | 4:27.03 | 198146 | 218173
18 | 48:28.74 | 4:25.42 | 218174 | 238090
19 | 52:54.41 | 3:20.65 | 238091 | 253155


Track 1

Filename D:\#EAC new\#wav+flac\Billy Bragg - Best of Billy Bragg at the BBC 1983-2019\cd 1\01. Billy Bragg - A New England.wav

Pre-gap length 0:00:02.00

Peak level 98.8 %
Extraction speed 3.4 X
Track quality 99.9 %
Test CRC 4B8ABF57
Copy CRC 4B8ABF57
Accurately ripped (confidence 7) [9F0462B4] (AR v2)
Copy OK

Track 2

Filename D:\#EAC new\#wav+flac\Billy Bragg - Best of Billy Bragg at the BBC 1983-2019\cd 1\02. Billy Bragg - Fear Is A Man's Best Friend.wav

Pre-gap length 0:00:01.77

Peak level 98.3 %
Extraction speed 4.9 X
Track quality 100.0 %
Test CRC A9750626
Copy CRC A9750626
Accurately ripped (confidence 6) [9798FAA3] (AR v2)
Copy OK

Track 3

Filename D:\#EAC new\#wav+flac\Billy Bragg - Best of Billy Bragg at the BBC 1983-2019\cd 1\03. Billy Bragg - Love Gets Dangerous.wav

Pre-gap length 0:00:01.77

Peak level 98.3 %
Extraction speed 5.1 X
Track quality 100.0 %
Test CRC F45339E8
Copy CRC F45339E8
Accurately ripped (confidence 6) [6CC06E82] (AR v2)
Copy OK

Track 4

Filename D:\#EAC new\#wav+flac\Billy Bragg - Best of Billy Bragg at the BBC 1983-2019\cd 1\04. Billy Bragg - Like Soldiers Do.wav

Pre-gap length 0:00:01.77

Peak level 98.3 %
Extraction speed 5.5 X
Track quality 100.0 %
Test CRC EE67968D
Copy CRC EE67968D
Accurately ripped (confidence 6) [B1325DD3] (AR v2)
Copy OK

Track 5

Filename D:\#EAC new\#wav+flac\Billy Bragg - Best of Billy Bragg at the BBC 1983-2019\cd 1\05. Billy Bragg - The Man In The Iron Mask.wav

Pre-gap length 0:00:01.77

Peak level 98.3 %
Extraction speed 5.7 X
Track quality 100.0 %
Test CRC B0C4EFE4
Copy CRC B0C4EFE4
Accurately ripped (confidence 6) [D4F6B1D1] (AR v2)
Copy OK

Track 6

Filename D:\#EAC new\#wav+flac\Billy Bragg - Best of Billy Bragg at the BBC 1983-2019\cd 1\06. Billy Bragg - The Saturday Boy.wav

Pre-gap length 0:00:01.77

Peak level 98.1 %
Extraction speed 6.3 X
Track quality 100.0 %
Test CRC B882F212
Copy CRC B882F212
Accurately ripped (confidence 6) [76F10D64] (AR v2)
Copy OK

Track 7

Filename D:\#EAC new\#wav+flac\Billy Bragg - Best of Billy Bragg at the BBC 1983-2019\cd 1\07. Billy Bragg - A Lover Sings.wav

Pre-gap length 0:00:01.77

Peak level 98.3 %
Extraction speed 5.7 X
Track quality 99.9 %
Test CRC D05BD16F
Copy CRC D05BD16F
Accurately ripped (confidence 6) [F2F5FB7E] (AR v2)
Copy OK

Track 8

Filename D:\#EAC new\#wav+flac\Billy Bragg - Best of Billy Bragg at the BBC 1983-2019\cd 1\08. Billy Bragg - Between The Wars.wav

Pre-gap length 0:00:01.77

Peak level 98.3 %
Extraction speed 5.2 X
Track quality 99.9 %
Test CRC 49B66C18
Copy CRC 49B66C18
Accurately ripped (confidence 6) [D47A1F34] (AR v2)
Copy OK

Track 9

Filename D:\#EAC new\#wav+flac\Billy Bragg - Best of Billy Bragg at the BBC 1983-2019\cd 1\09. Billy Bragg - A13, Trunk Road To The Sea.wav

Pre-gap length 0:00:01.77

Peak level 98.3 %
Extraction speed 6.7 X
Track quality 100.0 %
Test CRC D0756637
Copy CRC D0756637
Accurately ripped (confidence 6) [0A3EC0DD] (AR v2)
Copy OK

Track 10

Filename D:\#EAC new\#wav+flac\Billy Bragg - Best of Billy Bragg at the BBC 1983-2019\cd 1\10. Billy Bragg - There Is Power In A Union.wav

Pre-gap length 0:00:01.77

Peak level 100.0 %
Extraction speed 7.0 X
Track quality 100.0 %
Test CRC 436E4115
Copy CRC 436E4115
Accurately ripped (confidence 6) [5ECFF97B] (AR v2)
Copy OK

Track 11

Filename D:\#EAC new\#wav+flac\Billy Bragg - Best of Billy Bragg at the BBC 1983-2019\cd 1\11. Billy Bragg - Days Like These.wav

Pre-gap length 0:00:01.77

Peak level 98.2 %
Extraction speed 4.8 X
Track quality 99.9 %
Test CRC 072B4738
Copy CRC 072B4738
Accurately ripped (confidence 6) [69957183] (AR v2)
Copy OK

Track 12

Filename D:\#EAC new\#wav+flac\Billy Bragg - Best of Billy Bragg at the BBC 1983-2019\cd 1\12. Billy Bragg - Scholarship Is The Enemy Of Romance.wav

Pre-gap length 0:00:01.77

Peak level 98.3 %
Extraction speed 5.0 X
Track quality 99.9 %
Test CRC 0AAEB689
Copy CRC 0AAEB689
Accurately ripped (confidence 6) [FEBF1EA5] (AR v2)
Copy OK

Track 13

Filename D:\#EAC new\#wav+flac\Billy Bragg - Best of Billy Bragg at the BBC 1983-2019\cd 1\13. Billy Bragg - Greetings To The New Brunette.wav

Pre-gap length 0:00:01.77

Peak level 98.3 %
Extraction speed 6.4 X
Track quality 99.9 %
Test CRC 265713F0
Copy CRC 265713F0
Accurately ripped (confidence 7) [703AD4E7] (AR v2)
Copy OK

Track 14

Filename D:\#EAC new\#wav+flac\Billy Bragg - Best of Billy Bragg at the BBC 1983-2019\cd 1\14. Billy Bragg - Ideology.wav

Pre-gap length 0:00:01.77

Peak level 98.1 %
Extraction speed 8.1 X
Track quality 100.0 %
Test CRC 292863CA
Copy CRC 292863CA
Accurately ripped (confidence 6) [E91A2193] (AR v2)
Copy OK

Track 15

Filename D:\#EAC new\#wav+flac\Billy Bragg - Best of Billy Bragg at the BBC 1983-2019\cd 1\15. Billy Bragg - The Warmest Room.wav

Pre-gap length 0:00:01.77

Peak level 98.2 %
Extraction speed 8.3 X
Track quality 100.0 %
Test CRC A8A63F79
Copy CRC A8A63F79
Accurately ripped (confidence 6) [1953DF2B] (AR v2)
Copy OK

Track 16

Filename D:\#EAC new\#wav+flac\Billy Bragg - Best of Billy Bragg at the BBC 1983-2019\cd 1\16. Billy Bragg - She's Got A New Spell.wav

Pre-gap length 0:00:01.77

Peak level 98.1 %
Extraction speed 8.4 X
Track quality 100.0 %
Test CRC 62B106D5
Copy CRC 62B106D5
Accurately ripped (confidence 6) [16396A12] (AR v2)
Copy OK

Track 17

Filename D:\#EAC new\#wav+flac\Billy Bragg - Best of Billy Bragg at the BBC 1983-2019\cd 1\17. Billy Bragg - Valentine's Day Is Over.wav

Pre-gap length 0:00:01.77

Peak level 98.3 %
Extraction speed 9.2 X
Track quality 100.0 %
Test CRC 978EBD0B
Copy CRC 978EBD0B
Accurately ripped (confidence 6) [86E99DC4] (AR v2)
Copy OK

Track 18

Filename D:\#EAC new\#wav+flac\Billy Bragg - Best of Billy Bragg at the BBC 1983-2019\cd 1\18. Billy Bragg - The Short Answer.wav

Pre-gap length 0:00:01.77

Peak level 91.7 %
Extraction speed 9.5 X
Track quality 100.0 %
Test CRC 15580ADB
Copy CRC 15580ADB
Accurately ripped (confidence 6) [31271D1E] (AR v2)
Copy OK

Track 19

Filename D:\#EAC new\#wav+flac\Billy Bragg - Best of Billy Bragg at the BBC 1983-2019\cd 1\19. Billy Bragg - Rotting On Remand.wav

Pre-gap length 0:00:01.77

Peak level 98.2 %
Extraction speed 7.2 X
Track quality 99.9 %
Test CRC 2FF14C49
Copy CRC 2FF14C49
Accurately ripped (confidence 6) [B5096602] (AR v2)
Copy OK


All tracks accurately ripped

No errors occurred

End of status report

–– CUETools DB Plugin V2.1.6

[CTDB TOCID: WbetrVgq1xdqQXf2dd_JjDhmRBA-] found
Submit result: WbetrVgq1xdqQXf2dd_JjDhmRBA- has been confirmed
Track | CTDB Status
1 | (34/34) Accurately ripped
2 | (34/34) Accurately ripped
3 | (34/34) Accurately ripped
4 | (34/34) Accurately ripped
5 | (34/34) Accurately ripped
6 | (34/34) Accurately ripped
7 | (34/34) Accurately ripped
8 | (34/34) Accurately ripped
9 | (34/34) Accurately ripped
10 | (34/34) Accurately ripped
11 | (34/34) Accurately ripped
12 | (34/34) Accurately ripped
13 | (34/34) Accurately ripped
14 | (34/34) Accurately ripped
15 | (34/34) Accurately ripped
16 | (34/34) Accurately ripped
17 | (34/34) Accurately ripped
18 | (34/34) Accurately ripped
19 | (34/34) Accurately ripped


==== Log checksum 8A4190271D71BDED54C751A602A0B618751E7BD176CB0C96EC7A1646054534F1 ====
Exact Audio Copy V1.3 from 2. September 2016

EAC extraction logfile from 6. March 2020, 8:25

Billy Bragg / Best of Billy Bragg at the BBC 1983-2019

Used drive : PLEXTOR PX-891SAF Adapter: 1 ID: 0

Read mode : Secure
Utilize accurate stream : Yes
Defeat audio cache : Yes
Make use of C2 pointers : No

Read offset correction : 6
Overread into Lead-In and Lead-Out : No
Fill up missing offset samples with silence : Yes
Delete leading and trailing silent blocks : No
Null samples used in CRC calculations : Yes
Used interface : Native Win32 interface for Win NT & 2000
Gap handling : Appended to previous track

Used output format : User Defined Encoder
Selected bitrate : 1024 kBit/s
Quality : High
Add ID3 tag : No
Command line compressor : C:\Program Files (x86)\Exact Audio Copy\Flac\flac.exe
Additional command line options : -8 -V -T "ARTIST=%artist%" -T "TITLE=%title%" -T "ALBUM=%albumtitle%" -T "DATE=%year%" -T "TRACKNUMBER=%tracknr%" -T "GENRE=%genre%" -T "PERFORMER=%albuminterpret%" -T "COMPOSER=%composer%" %haslyrics%–tag-from-file=LYRICS="%lyricsfile%"%haslyrics% -T "ALBUMARTIST=%albumartist%" -T "DISCNUMBER=%cdnumber%" -T "TOTALDISCS=%totalcds%" -T "TOTALTRACKS=%numtracks%" -T "COMMENT=%comment%" %source% -o %dest%


TOC of the extracted CD

Track | Start | Length | Start sector | End sector
––––––––––––––––––––––––––––-
1 | 0:00.00 | 4:02.29 | 0 | 18178
2 | 4:02.29 | 4:02.73 | 18179 | 36401
3 | 8:05.27 | 3:48.48 | 36402 | 53549
4 | 11:54.00 | 2:58.41 | 53550 | 66940
5 | 14:52.41 | 2:07.02 | 66941 | 76467
6 | 16:59.43 | 2:54.64 | 76468 | 89581
7 | 19:54.32 | 2:48.35 | 89582 | 102216
8 | 22:42.67 | 3:09.12 | 102217 | 116403
9 | 25:52.04 | 1:59.36 | 116404 | 125364
10 | 27:51.40 | 2:22.54 | 125365 | 136068
11 | 30:14.19 | 3:22.30 | 136069 | 151248
12 | 33:36.49 | 3:09.41 | 151249 | 165464
13 | 36:46.15 | 3:17.04 | 165465 | 180243
14 | 40:03.19 | 3:55.58 | 180244 | 197926
15 | 43:59.02 | 3:25.49 | 197927 | 213350
16 | 47:24.51 | 3:42.42 | 213351 | 230042
17 | 51:07.18 | 3:50.03 | 230043 | 247295
18 | 54:57.21 | 4:09.23 | 247296 | 265993
19 | 59:06.44 | 2:55.27 | 265994 | 279145


Track 1

Filename D:\#EAC new\#wav+flac\Billy Bragg - Best of Billy Bragg at the BBC 1983-2019\cd 2\01. Billy Bragg - The Few.wav

Pre-gap length 0:00:02.00

Peak level 98.3 %
Extraction speed 5.0 X
Track quality 100.0 %
Test CRC C7D05373
Copy CRC C7D05373
Accurately ripped (confidence 6) [BE75D9EA] (AR v2)
Copy OK

Track 2

Filename D:\#EAC new\#wav+flac\Billy Bragg - Best of Billy Bragg at the BBC 1983-2019\cd 2\02. Billy Bragg - Accident Waiting To Happen.wav

Pre-gap length 0:00:01.77

Peak level 98.3 %
Extraction speed 5.5 X
Track quality 100.0 %
Test CRC 6AB08E75
Copy CRC 6AB08E75
Accurately ripped (confidence 6) [47CB4B2E] (AR v2)
Copy OK

Track 3

Filename D:\#EAC new\#wav+flac\Billy Bragg - Best of Billy Bragg at the BBC 1983-2019\cd 2\03. Billy Bragg - Tank Park Salute.wav

Pre-gap length 0:00:01.77

Peak level 98.3 %
Extraction speed 6.0 X
Track quality 100.0 %
Test CRC 56DEBD39
Copy CRC 56DEBD39
Accurately ripped (confidence 6) [C8310F3D] (AR v2)
Copy OK

Track 4

Filename D:\#EAC new\#wav+flac\Billy Bragg - Best of Billy Bragg at the BBC 1983-2019\cd 2\04. Billy Bragg - Brickbat.wav

Pre-gap length 0:00:01.77

Peak level 98.3 %
Extraction speed 6.1 X
Track quality 100.0 %
Test CRC 86844E30
Copy CRC 86844E30
Accurately ripped (confidence 6) [C8D4B49F] (AR v2)
Copy OK

Track 5

Filename D:\#EAC new\#wav+flac\Billy Bragg - Best of Billy Bragg at the BBC 1983-2019\cd 2\05. Billy Bragg - This Gulf Between Us.wav

Pre-gap length 0:00:01.77

Peak level 98.3 %
Extraction speed 5.9 X
Track quality 100.0 %
Test CRC 82B2827F
Copy CRC 82B2827F
Accurately ripped (confidence 6) [DD12EFD7] (AR v2)
Copy OK

Track 6

Filename D:\#EAC new\#wav+flac\Billy Bragg - Best of Billy Bragg at the BBC 1983-2019\cd 2\06. Billy Bragg - Goal Hanger.wav

Pre-gap length 0:00:01.77

Peak level 98.3 %
Extraction speed 6.5 X
Track quality 100.0 %
Test CRC 21AA1264
Copy CRC 21AA1264
Accurately ripped (confidence 6) [ABCC4EC7] (AR v2)
Copy OK

Track 7

Filename D:\#EAC new\#wav+flac\Billy Bragg - Best of Billy Bragg at the BBC 1983-2019\cd 2\07. Billy Bragg - The Boy Done Good.wav

Pre-gap length 0:00:01.77

Peak level 98.3 %
Extraction speed 6.8 X
Track quality 100.0 %
Test CRC 2843940C
Copy CRC 2843940C
Accurately ripped (confidence 6) [43CB3FF5] (AR v2)
Copy OK

Track 8

Filename D:\#EAC new\#wav+flac\Billy Bragg - Best of Billy Bragg at the BBC 1983-2019\cd 2\08. Billy Bragg - From Red To Blue.wav

Pre-gap length 0:00:01.77

Peak level 98.3 %
Extraction speed 7.1 X
Track quality 100.0 %
Test CRC A1007823
Copy CRC A1007823
Accurately ripped (confidence 6) [1A5D64E5] (AR v2)
Copy OK

Track 9

Filename D:\#EAC new\#wav+flac\Billy Bragg - Best of Billy Bragg at the BBC 1983-2019\cd 2\09. Billy Bragg - The Busy Girl Buys Beauty.wav

Pre-gap length 0:00:01.77

Peak level 98.3 %
Extraction speed 6.8 X
Track quality 100.0 %
Test CRC D03BDF70
Copy CRC D03BDF70
Accurately ripped (confidence 6) [5119CB29] (AR v2)
Copy OK

Track 10

Filename D:\#EAC new\#wav+flac\Billy Bragg - Best of Billy Bragg at the BBC 1983-2019\cd 2\10. Billy Bragg - It Says Here.wav

Pre-gap length 0:00:01.77

Peak level 98.3 %
Extraction speed 5.3 X
Track quality 99.9 %
Test CRC 4A58C81F
Copy CRC 4A58C81F
Accurately ripped (confidence 6) [3F9C2406] (AR v2)
Copy OK

Track 11

Filename D:\#EAC new\#wav+flac\Billy Bragg - Best of Billy Bragg at the BBC 1983-2019\cd 2\11. Billy Bragg - Lonesome Traveller.wav

Pre-gap length 0:00:01.77

Peak level 98.2 %
Extraction speed 7.8 X
Track quality 100.0 %
Test CRC EA98840C
Copy CRC EA98840C
Accurately ripped (confidence 6) [768F3836] (AR v2)
Copy OK

Track 12

Filename D:\#EAC new\#wav+flac\Billy Bragg - Best of Billy Bragg at the BBC 1983-2019\cd 2\12. Billy Bragg - Goodbye, Goodbye.wav

Pre-gap length 0:00:01.77

Peak level 98.3 %
Extraction speed 6.5 X
Track quality 99.9 %
Test CRC 2327EEA7
Copy CRC 2327EEA7
Accurately ripped (confidence 6) [F7F243A0] (AR v2)
Copy OK

Track 13

Filename D:\#EAC new\#wav+flac\Billy Bragg - Best of Billy Bragg at the BBC 1983-2019\cd 2\13. Billy Bragg - Way Over Yonder In The Minor Key.wav

Pre-gap length 0:00:01.77

Peak level 98.3 %
Extraction speed 8.3 X
Track quality 100.0 %
Test CRC C639172B
Copy CRC C639172B
Accurately ripped (confidence 6) [792DA422] (AR v2)
Copy OK

Track 14

Filename D:\#EAC new\#wav+flac\Billy Bragg - Best of Billy Bragg at the BBC 1983-2019\cd 2\14. Billy Bragg - No-One Knows Nothing Anymore.wav

Pre-gap length 0:00:01.77

Peak level 98.3 %
Extraction speed 8.7 X
Track quality 100.0 %
Test CRC 7CB2CF1B
Copy CRC 7CB2CF1B
Accurately ripped (confidence 6) [8F79ECD6] (AR v2)
Copy OK

Track 15

Filename D:\#EAC new\#wav+flac\Billy Bragg - Best of Billy Bragg at the BBC 1983-2019\cd 2\15. Billy Bragg - Levi Stubbs' Tears.wav

Pre-gap length 0:00:01.77

Peak level 98.3 %
Extraction speed 8.9 X
Track quality 100.0 %
Test CRC 22E0BD81
Copy CRC 22E0BD81
Accurately ripped (confidence 6) [E23E7355] (AR v2)
Copy OK

Track 16

Filename D:\#EAC new\#wav+flac\Billy Bragg - Best of Billy Bragg at the BBC 1983-2019\cd 2\16. Billy Bragg - Why We Build The Wall.wav

Pre-gap length 0:00:01.77

Peak level 98.3 %
Extraction speed 9.1 X
Track quality 100.0 %
Test CRC B534C733
Copy CRC B534C733
Accurately ripped (confidence 6) [B56D6A67] (AR v2)
Copy OK

Track 17

Filename D:\#EAC new\#wav+flac\Billy Bragg - Best of Billy Bragg at the BBC 1983-2019\cd 2\17. Billy Bragg - I Ain't Got No Home.wav

Pre-gap length 0:00:01.77

Peak level 97.9 %
Extraction speed 7.7 X
Track quality 99.9 %
Test CRC 6D5ABFB2
Copy CRC 6D5ABFB2
Accurately ripped (confidence 6) [FD610B49] (AR v2)
Copy OK

Track 18

Filename D:\#EAC new\#wav+flac\Billy Bragg - Best of Billy Bragg at the BBC 1983-2019\cd 2\18. Billy Bragg - The Space Race Is Over.wav

Pre-gap length 0:00:01.77

Peak level 98.3 %
Extraction speed 8.0 X
Track quality 99.9 %
Test CRC 33C3ED5E
Copy CRC 33C3ED5E
Accurately ripped (confidence 6) [992249E7] (AR v2)
Copy OK

Track 19

Filename D:\#EAC new\#wav+flac\Billy Bragg - Best of Billy Bragg at the BBC 1983-2019\cd 2\19. Billy Bragg - St. Swithin's Day.wav

Pre-gap length 0:00:01.77

Peak level 97.8 %
Extraction speed 9.5 X
Track quality 100.0 %
Test CRC 0485218B
Copy CRC 0485218B
Accurately ripped (confidence 6) [0035A456] (AR v2)
Copy OK


All tracks accurately ripped

No errors occurred

End of status report

–– CUETools DB Plugin V2.1.6

[CTDB TOCID: RMk38gknlbFzzjVr1SCY7oK2hyw-] found
Submit result: RMk38gknlbFzzjVr1SCY7oK2hyw- has been confirmed
Track | CTDB Status
1 | (35/35) Accurately ripped
2 | (35/35) Accurately ripped
3 | (35/35) Accurately ripped
4 | (35/35) Accurately ripped
5 | (35/35) Accurately ripped
6 | (35/35) Accurately ripped
7 | (35/35) Accurately ripped
8 | (35/35) Accurately ripped
9 | (35/35) Accurately ripped
10 | (35/35) Accurately ripped
11 | (35/35) Accurately ripped
12 | (35/35) Accurately ripped
13 | (35/35) Accurately ripped
14 | (35/35) Accurately ripped
15 | (35/35) Accurately ripped
16 | (35/35) Accurately ripped
17 | (35/35) Accurately ripped
18 | (35/35) Accurately ripped
19 | (35/35) Accurately ripped


==== Log checksum 46E30DF99D5DF35369BFC3EB92B7AAD5498A16AF0BCCE0DAAF0ACCDB87859B5A ====

––––––––––––––––––––––––––––––

Exact Audio Copy V1.3 from 2. September 2016

EAC extraction logfile from 6. March 2020, 8:25

Billy Bragg / Best of Billy Bragg at the BBC 1983-2019

Used drive : PLEXTOR PX-891SAF Adapter: 1 ID: 0

Read mode : Secure
Utilize accurate stream : Yes
Defeat audio cache : Yes
Make use of C2 pointers : No

Read offset correction : 6
Overread into Lead-In and Lead-Out : No
Fill up missing offset samples with silence : Yes
Delete leading and trailing silent blocks : No
Null samples used in CRC calculations : Yes
Used interface : Native Win32 interface for Win NT & 2000
Gap handling : Appended to previous track

Used output format : User Defined Encoder
Selected bitrate : 1024 kBit/s
Quality : High
Add ID3 tag : No
Command line compressor : C:\Program Files (x86)\Exact Audio Copy\Flac\flac.exe
Additional command line options : -8 -V -T "ARTIST=%artist%" -T "TITLE=%title%" -T "ALBUM=%albumtitle%" -T "DATE=%year%" -T "TRACKNUMBER=%tracknr%" -T "GENRE=%genre%" -T "PERFORMER=%albuminterpret%" -T "COMPOSER=%composer%" %haslyrics%–tag-from-file=LYRICS="%lyricsfile%"%haslyrics% -T "ALBUMARTIST=%albumartist%" -T "DISCNUMBER=%cdnumber%" -T "TOTALDISCS=%totalcds%" -T "TOTALTRACKS=%numtracks%" -T "COMMENT=%comment%" %source% -o %dest%


TOC of the extracted CD

Track | Start | Length | Start sector | End sector
––––––––––––––––––––––––––––-
1 | 0:00.00 | 4:02.29 | 0 | 18178
2 | 4:02.29 | 4:02.73 | 18179 | 36401
3 | 8:05.27 | 3:48.48 | 36402 | 53549
4 | 11:54.00 | 2:58.41 | 53550 | 66940
5 | 14:52.41 | 2:07.02 | 66941 | 76467
6 | 16:59.43 | 2:54.64 | 76468 | 89581
7 | 19:54.32 | 2:48.35 | 89582 | 102216
8 | 22:42.67 | 3:09.12 | 102217 | 116403
9 | 25:52.04 | 1:59.36 | 116404 | 125364
10 | 27:51.40 | 2:22.54 | 125365 | 136068
11 | 30:14.19 | 3:22.30 | 136069 | 151248
12 | 33:36.49 | 3:09.41 | 151249 | 165464
13 | 36:46.15 | 3:17.04 | 165465 | 180243
14 | 40:03.19 | 3:55.58 | 180244 | 197926
15 | 43:59.02 | 3:25.49 | 197927 | 213350
16 | 47:24.51 | 3:42.42 | 213351 | 230042
17 | 51:07.18 | 3:50.03 | 230043 | 247295
18 | 54:57.21 | 4:09.23 | 247296 | 265993
19 | 59:06.44 | 2:55.27 | 265994 | 279145


Track 1

Filename D:\#EAC new\#wav+flac\Billy Bragg - Best of Billy Bragg at the BBC 1983-2019\cd 2\01. Billy Bragg - The Few.wav

Pre-gap length 0:00:02.00

Peak level 98.3 %
Extraction speed 5.0 X
Track quality 100.0 %
Test CRC C7D05373
Copy CRC C7D05373
Accurately ripped (confidence 6) [BE75D9EA] (AR v2)
Copy OK

Track 2

Filename D:\#EAC new\#wav+flac\Billy Bragg - Best of Billy Bragg at the BBC 1983-2019\cd 2\02. Billy Bragg - Accident Waiting To Happen.wav

Pre-gap length 0:00:01.77

Peak level 98.3 %
Extraction speed 5.5 X
Track quality 100.0 %
Test CRC 6AB08E75
Copy CRC 6AB08E75
Accurately ripped (confidence 6) [47CB4B2E] (AR v2)
Copy OK

Track 3

Filename D:\#EAC new\#wav+flac\Billy Bragg - Best of Billy Bragg at the BBC 1983-2019\cd 2\03. Billy Bragg - Tank Park Salute.wav

Pre-gap length 0:00:01.77

Peak level 98.3 %
Extraction speed 6.0 X
Track quality 100.0 %
Test CRC 56DEBD39
Copy CRC 56DEBD39
Accurately ripped (confidence 6) [C8310F3D] (AR v2)
Copy OK

Track 4

Filename D:\#EAC new\#wav+flac\Billy Bragg - Best of Billy Bragg at the BBC 1983-2019\cd 2\04. Billy Bragg - Brickbat.wav

Pre-gap length 0:00:01.77

Peak level 98.3 %
Extraction speed 6.1 X
Track quality 100.0 %
Test CRC 86844E30
Copy CRC 86844E30
Accurately ripped (confidence 6) [C8D4B49F] (AR v2)
Copy OK

Track 5

Filename D:\#EAC new\#wav+flac\Billy Bragg - Best of Billy Bragg at the BBC 1983-2019\cd 2\05. Billy Bragg - This Gulf Between Us.wav

Pre-gap length 0:00:01.77

Peak level 98.3 %
Extraction speed 5.9 X
Track quality 100.0 %
Test CRC 82B2827F
Copy CRC 82B2827F
Accurately ripped (confidence 6) [DD12EFD7] (AR v2)
Copy OK

Track 6

Filename D:\#EAC new\#wav+flac\Billy Bragg - Best of Billy Bragg at the BBC 1983-2019\cd 2\06. Billy Bragg - Goal Hanger.wav

Pre-gap length 0:00:01.77

Peak level 98.3 %
Extraction speed 6.5 X
Track quality 100.0 %
Test CRC 21AA1264
Copy CRC 21AA1264
Accurately ripped (confidence 6) [ABCC4EC7] (AR v2)
Copy OK

Track 7

Filename D:\#EAC new\#wav+flac\Billy Bragg - Best of Billy Bragg at the BBC 1983-2019\cd 2\07. Billy Bragg - The Boy Done Good.wav

Pre-gap length 0:00:01.77

Peak level 98.3 %
Extraction speed 6.8 X
Track quality 100.0 %
Test CRC 2843940C
Copy CRC 2843940C
Accurately ripped (confidence 6) [43CB3FF5] (AR v2)
Copy OK

Track 8

Filename D:\#EAC new\#wav+flac\Billy Bragg - Best of Billy Bragg at the BBC 1983-2019\cd 2\08. Billy Bragg - From Red To Blue.wav

Pre-gap length 0:00:01.77

Peak level 98.3 %
Extraction speed 7.1 X
Track quality 100.0 %
Test CRC A1007823
Copy CRC A1007823
Accurately ripped (confidence 6) [1A5D64E5] (AR v2)
Copy OK

Track 9

Filename D:\#EAC new\#wav+flac\Billy Bragg - Best of Billy Bragg at the BBC 1983-2019\cd 2\09. Billy Bragg - The Busy Girl Buys Beauty.wav

Pre-gap length 0:00:01.77

Peak level 98.3 %
Extraction speed 6.8 X
Track quality 100.0 %
Test CRC D03BDF70
Copy CRC D03BDF70
Accurately ripped (confidence 6) [5119CB29] (AR v2)
Copy OK

Track 10

Filename D:\#EAC new\#wav+flac\Billy Bragg - Best of Billy Bragg at the BBC 1983-2019\cd 2\10. Billy Bragg - It Says Here.wav

Pre-gap length 0:00:01.77

Peak level 98.3 %
Extraction speed 5.3 X
Track quality 99.9 %
Test CRC 4A58C81F
Copy CRC 4A58C81F
Accurately ripped (confidence 6) [3F9C2406] (AR v2)
Copy OK

Track 11

Filename D:\#EAC new\#wav+flac\Billy Bragg - Best of Billy Bragg at the BBC 1983-2019\cd 2\11. Billy Bragg - Lonesome Traveller.wav

Pre-gap length 0:00:01.77

Peak level 98.2 %
Extraction speed 7.8 X
Track quality 100.0 %
Test CRC EA98840C
Copy CRC EA98840C
Accurately ripped (confidence 6) [768F3836] (AR v2)
Copy OK

Track 12

Filename D:\#EAC new\#wav+flac\Billy Bragg - Best of Billy Bragg at the BBC 1983-2019\cd 2\12. Billy Bragg - Goodbye, Goodbye.wav

Pre-gap length 0:00:01.77

Peak level 98.3 %
Extraction speed 6.5 X
Track quality 99.9 %
Test CRC 2327EEA7
Copy CRC 2327EEA7
Accurately ripped (confidence 6) [F7F243A0] (AR v2)
Copy OK

Track 13

Filename D:\#EAC new\#wav+flac\Billy Bragg - Best of Billy Bragg at the BBC 1983-2019\cd 2\13. Billy Bragg - Way Over Yonder In The Minor Key.wav

Pre-gap length 0:00:01.77

Peak level 98.3 %
Extraction speed 8.3 X
Track quality 100.0 %
Test CRC C639172B
Copy CRC C639172B
Accurately ripped (confidence 6) [792DA422] (AR v2)
Copy OK

Track 14

Filename D:\#EAC new\#wav+flac\Billy Bragg - Best of Billy Bragg at the BBC 1983-2019\cd 2\14. Billy Bragg - No-One Knows Nothing Anymore.wav

Pre-gap length 0:00:01.77

Peak level 98.3 %
Extraction speed 8.7 X
Track quality 100.0 %
Test CRC 7CB2CF1B
Copy CRC 7CB2CF1B
Accurately ripped (confidence 6) [8F79ECD6] (AR v2)
Copy OK

Track 15

Filename D:\#EAC new\#wav+flac\Billy Bragg - Best of Billy Bragg at the BBC 1983-2019\cd 2\15. Billy Bragg - Levi Stubbs' Tears.wav

Pre-gap length 0:00:01.77

Peak level 98.3 %
Extraction speed 8.9 X
Track quality 100.0 %
Test CRC 22E0BD81
Copy CRC 22E0BD81
Accurately ripped (confidence 6) [E23E7355] (AR v2)
Copy OK

Track 16

Filename D:\#EAC new\#wav+flac\Billy Bragg - Best of Billy Bragg at the BBC 1983-2019\cd 2\16. Billy Bragg - Why We Build The Wall.wav

Pre-gap length 0:00:01.77

Peak level 98.3 %
Extraction speed 9.1 X
Track quality 100.0 %
Test CRC B534C733
Copy CRC B534C733
Accurately ripped (confidence 6) [B56D6A67] (AR v2)
Copy OK

Track 17

Filename D:\#EAC new\#wav+flac\Billy Bragg - Best of Billy Bragg at the BBC 1983-2019\cd 2\17. Billy Bragg - I Ain't Got No Home.wav

Pre-gap length 0:00:01.77

Peak level 97.9 %
Extraction speed 7.7 X
Track quality 99.9 %
Test CRC 6D5ABFB2
Copy CRC 6D5ABFB2
Accurately ripped (confidence 6) [FD610B49] (AR v2)
Copy OK

Track 18

Filename D:\#EAC new\#wav+flac\Billy Bragg - Best of Billy Bragg at the BBC 1983-2019\cd 2\18. Billy Bragg - The Space Race Is Over.wav

Pre-gap length 0:00:01.77

Peak level 98.3 %
Extraction speed 8.0 X
Track quality 99.9 %
Test CRC 33C3ED5E
Copy CRC 33C3ED5E
Accurately ripped (confidence 6) [992249E7] (AR v2)
Copy OK

Track 19

Filename D:\#EAC new\#wav+flac\Billy Bragg - Best of Billy Bragg at the BBC 1983-2019\cd 2\19. Billy Bragg - St. Swithin's Day.wav

Pre-gap length 0:00:01.77

Peak level 97.8 %
Extraction speed 9.5 X
Track quality 100.0 %
Test CRC 0485218B
Copy CRC 0485218B
Accurately ripped (confidence 6) [0035A456] (AR v2)
Copy OK


All tracks accurately ripped

No errors occurred

End of status report

–– CUETools DB Plugin V2.1.6

[CTDB TOCID: RMk38gknlbFzzjVr1SCY7oK2hyw-] found
Submit result: RMk38gknlbFzzjVr1SCY7oK2hyw- has been confirmed
Track | CTDB Status
1 | (35/35) Accurately ripped
2 | (35/35) Accurately ripped
3 | (35/35) Accurately ripped
4 | (35/35) Accurately ripped
5 | (35/35) Accurately ripped
6 | (35/35) Accurately ripped
7 | (35/35) Accurately ripped
8 | (35/35) Accurately ripped
9 | (35/35) Accurately ripped
10 | (35/35) Accurately ripped
11 | (35/35) Accurately ripped
12 | (35/35) Accurately ripped
13 | (35/35) Accurately ripped
14 | (35/35) Accurately ripped
15 | (35/35) Accurately ripped
16 | (35/35) Accurately ripped
17 | (35/35) Accurately ripped
18 | (35/35) Accurately ripped
19 | (35/35) Accurately ripped


==== Log checksum 46E30DF99D5DF35369BFC3EB92B7AAD5498A16AF0BCCE0DAAF0ACCDB87859B5A ====

Thanks to the Original ripper !