Tags
Language
Tags

Pink Floyd - Live At Pompeii: The High Resolution Remasters (2018)

Posted By: delpotro
Pink Floyd - Live At Pompeii: The High Resolution Remasters (2018)

Pink Floyd - Live At Pompeii: The High Resolution Remasters (2018)
EAC Rip | FLAC (tracks+log+.cue) - 1,43 Gb | MP3 CBR 320 kbps - 594 Mb | 04:16:04
Progressive Rock, Psychedelic Rock | Label: The Archives Records & Tapes / Boogleg

Pink Floyd: Live at Pompeii is a 1972 concert documentary film directed by Adrian Maben and featuring the English rock group Pink Floyd performing at the ancient Roman amphitheatre in Pompeii, Italy. Although the band perform a typical live set from the era, there is no audience beyond the basic film crew.
Tracklist:
Disc 1 - Quadraphonic Film Mix
1. Intro
2. Echoes Part 1
3. Careful With That Axe, Eugene
4. A Saucerful Of Secrets
5. One Of These Days
6. Set The Controls For The Heart Of The Sun
7. Mademoiselle Nobs
8. Echoes Part 2

Disc 2 - Quadraphonic Front Speakers Mix
1. Intro
2. Echoes Part 1
3. Careful With That Axe, Eugene
4. A Saucerful Of Secrets
5. One Of These Days
6. Set The Controls For The Heart Of The Sun
7. Mademoiselle Nobs
8. Echoes Part 2

Disc 3 - Quadraphonic Rear Speakers Mix
1. Intro
2. Echoes Part 1
3. Careful With That Axe, Eugene
4. A Saucerful Of Secrets
5. One Of These Days
6. Set The Controls For The Heart Of The Sun
7. Mademoiselle Nobs
8. Echoes Part 2

Disc 4 - Original Stereo Mix
1. Intro
2. Echoes Part 1
3. Careful With That Axe, Eugene
4. A Saucerful Of Secrets
5. One Of These Days
6. Set The Controls For The Heart Of The Sun
7. Mademoiselle Nobs
8. Echoes Part 1
9. Radio Spot

Exact Audio Copy V1.5 from 20. February 2020

EAC extraction logfile from 10. August 2020, 22:36

Pink Floyd / Pompeii High Resolution Remaster

Used drive : ASUS DRW-24D5MT Adapter: 1 ID: 0

Read mode : Secure
Utilize accurate stream : Yes
Defeat audio cache : Yes
Make use of C2 pointers : No

Read offset correction : 6
Overread into Lead-In and Lead-Out : No
Fill up missing offset samples with silence : Yes
Delete leading and trailing silent blocks : No
Null samples used in CRC calculations : Yes
Used interface : Native Win32 interface for Win NT & 2000
Gap handling : Appended to previous track

Used output format : User Defined Encoder
Selected bitrate : 896 kBit/s
Quality : High
Add ID3 tag : No
Command line compressor : C:\Program Files (x86)\Exact Audio Copy\FLAC\FLAC.EXE
Additional command line options : -6 -V -T "ARTIST=%artist%" -T "TITLE=%title%" -T "ALBUM=%albumtitle%" -T "DATE=%year%" -T "TRACKNUMBER=%tracknr%" -T "GENRE=%genre%" -T "COMMENT=%comment%" -T "BAND=%albuminterpret%" -T "ALBUMARTIST=%albuminterpret%" -T "COMPOSER=%composer%" %haslyrics%–tag-from-file=LYRICS="%lyricsfile%"%haslyrics% -T "DISCNUMBER=%cdnumber%" -T "TOTALDISCS=%totalcds%" -T "TOTALTRACKS=%numtracks%" %hascover%–picture="%coverfile%"%hascover% %source% -o %dest%


TOC of the extracted CD

Track | Start | Length | Start sector | End sector
––––––––––––––––––––––––––––-
1 | 0:00.00 | 3:34.73 | 0 | 16122
2 | 3:34.73 | 11:58.14 | 16123 | 69986
3 | 15:33.12 | 6:39.59 | 69987 | 99970
4 | 22:12.71 | 10:11.39 | 99971 | 145834
5 | 32:24.35 | 5:55.60 | 145835 | 172519
6 | 38:20.20 | 10:22.09 | 172520 | 219178
7 | 48:42.29 | 1:53.07 | 219179 | 227660
8 | 50:35.36 | 13:27.39 | 227661 | 288224


Track 1

Filename F:\EAC Rips\Pink Floyd - Live At Pompeii The High Resolution Remasters (2018, The Archives Records & Tapes - ART-72, CD)\CD1 - Quadraphonic Film Mix\01. Intro.wav

Pre-gap length 0:00:02.00

Peak level 98.0 %
Extraction speed 4.7 X
Track quality 100.0 %
Test CRC 271EF8DE
Copy CRC 271EF8DE
Accurately ripped (confidence 1) [17D6502D] (AR v2)
Copy OK

Track 2

Filename F:\EAC Rips\Pink Floyd - Live At Pompeii The High Resolution Remasters (2018, The Archives Records & Tapes - ART-72, CD)\CD1 - Quadraphonic Film Mix\02. Echoes, Part 1.wav

Peak level 98.0 %
Extraction speed 6.1 X
Track quality 100.0 %
Test CRC 8118F39B
Copy CRC 8118F39B
Accurately ripped (confidence 1) [D8710B84] (AR v2)
Copy OK

Track 3

Filename F:\EAC Rips\Pink Floyd - Live At Pompeii The High Resolution Remasters (2018, The Archives Records & Tapes - ART-72, CD)\CD1 - Quadraphonic Film Mix\03. Careful With That Axe, Eugene.wav

Peak level 98.0 %
Extraction speed 6.7 X
Track quality 100.0 %
Test CRC 71108CA6
Copy CRC 71108CA6
Accurately ripped (confidence 1) [AF443E17] (AR v2)
Copy OK

Track 4

Filename F:\EAC Rips\Pink Floyd - Live At Pompeii The High Resolution Remasters (2018, The Archives Records & Tapes - ART-72, CD)\CD1 - Quadraphonic Film Mix\04. A Saucerful Of Secrets.wav

Peak level 98.0 %
Extraction speed 7.2 X
Track quality 99.9 %
Test CRC 8EFA4FF3
Copy CRC 8EFA4FF3
Accurately ripped (confidence 1) [2799C889] (AR v2)
Copy OK

Track 5

Filename F:\EAC Rips\Pink Floyd - Live At Pompeii The High Resolution Remasters (2018, The Archives Records & Tapes - ART-72, CD)\CD1 - Quadraphonic Film Mix\05. One Of These Days.wav

Peak level 98.0 %
Extraction speed 7.8 X
Track quality 100.0 %
Test CRC D7007C18
Copy CRC D7007C18
Accurately ripped (confidence 1) [EF3D19D0] (AR v2)
Copy OK

Track 6

Filename F:\EAC Rips\Pink Floyd - Live At Pompeii The High Resolution Remasters (2018, The Archives Records & Tapes - ART-72, CD)\CD1 - Quadraphonic Film Mix\06. Set The Controls For The Heart Of The Sun.wav

Peak level 98.0 %
Extraction speed 8.7 X
Track quality 100.0 %
Test CRC 9FE36929
Copy CRC 9FE36929
Accurately ripped (confidence 1) [B10645BE] (AR v2)
Copy OK

Track 7

Filename F:\EAC Rips\Pink Floyd - Live At Pompeii The High Resolution Remasters (2018, The Archives Records & Tapes - ART-72, CD)\CD1 - Quadraphonic Film Mix\07. Mademoiselle Nobs.wav

Peak level 98.0 %
Extraction speed 7.3 X
Track quality 100.0 %
Test CRC E5339DFE
Copy CRC E5339DFE
Accurately ripped (confidence 1) [D3112BBE] (AR v2)
Copy OK

Track 8

Filename F:\EAC Rips\Pink Floyd - Live At Pompeii The High Resolution Remasters (2018, The Archives Records & Tapes - ART-72, CD)\CD1 - Quadraphonic Film Mix\08. Echoes, Part 2.wav

Peak level 98.0 %
Extraction speed 9.6 X
Track quality 100.0 %
Test CRC BD8B69A0
Copy CRC BD8B69A0
Accurately ripped (confidence 1) [69935B18] (AR v2)
Copy OK


All tracks accurately ripped

No errors occurred

End of status report

–– AcoustID Plugin V1.2.0

Total fingerprints: 8


–– CUETools DB Plugin V2.1.6

[CTDB TOCID: mUgdL20BcOps3rHNlgRA5d3m9nI-] disk not present in database
Submit result: mUgdL20BcOps3rHNlgRA5d3m9nI- has been uploaded


==== Log checksum 223A32A828C0E4B7E2D2EF32AE17233FBAD25DF7D721B7F628FD5144E20EE015 ====
Exact Audio Copy V1.5 from 20. February 2020

EAC extraction logfile from 10. August 2020, 22:37

Pink Floyd / Pompeii High Resolution Remaster

Used drive : TSSTcorpCD/DVDW SH-S182D Adapter: 1 ID: 1

Read mode : Secure
Utilize accurate stream : Yes
Defeat audio cache : Yes
Make use of C2 pointers : No

Read offset correction : 6
Overread into Lead-In and Lead-Out : No
Fill up missing offset samples with silence : Yes
Delete leading and trailing silent blocks : No
Null samples used in CRC calculations : Yes
Used interface : Native Win32 interface for Win NT & 2000
Gap handling : Appended to previous track

Used output format : User Defined Encoder
Selected bitrate : 896 kBit/s
Quality : High
Add ID3 tag : No
Command line compressor : C:\Program Files (x86)\Exact Audio Copy\FLAC\FLAC.EXE
Additional command line options : -6 -V -T "ARTIST=%artist%" -T "TITLE=%title%" -T "ALBUM=%albumtitle%" -T "DATE=%year%" -T "TRACKNUMBER=%tracknr%" -T "GENRE=%genre%" -T "COMMENT=%comment%" -T "BAND=%albuminterpret%" -T "ALBUMARTIST=%albuminterpret%" -T "COMPOSER=%composer%" %haslyrics%–tag-from-file=LYRICS="%lyricsfile%"%haslyrics% -T "DISCNUMBER=%cdnumber%" -T "TOTALDISCS=%totalcds%" -T "TOTALTRACKS=%numtracks%" %hascover%–picture="%coverfile%"%hascover% %source% -o %dest%


TOC of the extracted CD

Track | Start | Length | Start sector | End sector
––––––––––––––––––––––––––––-
1 | 0:00.00 | 3:36.64 | 0 | 16263
2 | 3:36.64 | 11:55.48 | 16264 | 69936
3 | 15:32.37 | 6:41.44 | 69937 | 100055
4 | 22:14.06 | 10:09.45 | 100056 | 145775
5 | 32:23.51 | 5:56.30 | 145776 | 172505
6 | 38:20.06 | 10:23.15 | 172506 | 219245
7 | 48:43.21 | 1:50.46 | 219246 | 227541
8 | 50:33.67 | 13:29.22 | 227542 | 288238


Track 1

Filename F:\EAC Rips\Pink Floyd - Live At Pompeii The High Resolution Remasters (2018, The Archives Records & Tapes - ART-72, CD)\CD2 - Quadraphonic Front Speakers Mix\01. Intro [Quad Mix For Front Speakers].wav

Pre-gap length 0:00:02.00

Peak level 98.0 %
Extraction speed 4.8 X
Track quality 100.0 %
Test CRC 681AC4BB
Copy CRC 681AC4BB
Accurately ripped (confidence 1) [161731C6] (AR v2)
Copy OK

Track 2

Filename F:\EAC Rips\Pink Floyd - Live At Pompeii The High Resolution Remasters (2018, The Archives Records & Tapes - ART-72, CD)\CD2 - Quadraphonic Front Speakers Mix\02. Echoes, Part 1 [Quad Mix For Front Speakers].wav

Peak level 98.0 %
Extraction speed 6.2 X
Track quality 100.0 %
Test CRC F97EFEE6
Copy CRC F97EFEE6
Accurately ripped (confidence 1) [5C33CA38] (AR v2)
Copy OK

Track 3

Filename F:\EAC Rips\Pink Floyd - Live At Pompeii The High Resolution Remasters (2018, The Archives Records & Tapes - ART-72, CD)\CD2 - Quadraphonic Front Speakers Mix\03. Careful With That Axe, Eugene [Quad Mix For Front Speakers].wav

Peak level 98.0 %
Extraction speed 6.7 X
Track quality 100.0 %
Test CRC 5619C2CB
Copy CRC 5619C2CB
Accurately ripped (confidence 1) [9E843A7B] (AR v2)
Copy OK

Track 4

Filename F:\EAC Rips\Pink Floyd - Live At Pompeii The High Resolution Remasters (2018, The Archives Records & Tapes - ART-72, CD)\CD2 - Quadraphonic Front Speakers Mix\04. A Saucerful Of Secrets [Quad Mix For Front Speakers].wav

Peak level 98.0 %
Extraction speed 7.6 X
Track quality 100.0 %
Test CRC 643EA850
Copy CRC 643EA850
Accurately ripped (confidence 1) [7C65AC14] (AR v2)
Copy OK

Track 5

Filename F:\EAC Rips\Pink Floyd - Live At Pompeii The High Resolution Remasters (2018, The Archives Records & Tapes - ART-72, CD)\CD2 - Quadraphonic Front Speakers Mix\05. One Of These Days [Quad Mix For Front Speakers].wav

Peak level 98.0 %
Extraction speed 7.9 X
Track quality 100.0 %
Test CRC F954590C
Copy CRC F954590C
Accurately ripped (confidence 1) [AB1E1E4B] (AR v2)
Copy OK

Track 6

Filename F:\EAC Rips\Pink Floyd - Live At Pompeii The High Resolution Remasters (2018, The Archives Records & Tapes - ART-72, CD)\CD2 - Quadraphonic Front Speakers Mix\06. Set The Controls For The Heart Of The Sun [Quad Mix For Fron Speakers].wav

Peak level 98.0 %
Extraction speed 8.7 X
Track quality 100.0 %
Test CRC EAE9E439
Copy CRC EAE9E439
Accurately ripped (confidence 1) [1A8A0B03] (AR v2)
Copy OK

Track 7

Filename F:\EAC Rips\Pink Floyd - Live At Pompeii The High Resolution Remasters (2018, The Archives Records & Tapes - ART-72, CD)\CD2 - Quadraphonic Front Speakers Mix\07. Mademoiselle Nobs [Quad Mix For Front Speakers].wav

Peak level 98.0 %
Extraction speed 7.2 X
Track quality 100.0 %
Test CRC DA07E146
Copy CRC DA07E146
Accurately ripped (confidence 1) [79214BA2] (AR v2)
Copy OK

Track 8

Filename F:\EAC Rips\Pink Floyd - Live At Pompeii The High Resolution Remasters (2018, The Archives Records & Tapes - ART-72, CD)\CD2 - Quadraphonic Front Speakers Mix\08. Echoes, Part 2 [Quad Mix For Front Speakers].wav

Peak level 98.0 %
Extraction speed 9.7 X
Track quality 100.0 %
Test CRC B0D74AEE
Copy CRC B0D74AEE
Accurately ripped (confidence 1) [2DCF7986] (AR v2)
Copy OK


All tracks accurately ripped

No errors occurred

End of status report

–– AcoustID Plugin V1.2.0

Total fingerprints: 8


–– CUETools DB Plugin V2.1.6

[CTDB TOCID: p1oiArDMxSdnFyKpgheThe7e6uE-] disk not present in database
Submit result: p1oiArDMxSdnFyKpgheThe7e6uE- has been uploaded


==== Log checksum 4B5AEDA13436CF49F49A9D24369876AEC99559067EED5AC957913A831003FE90 ====
Exact Audio Copy V1.5 from 20. February 2020

EAC extraction logfile from 10. August 2020, 23:08

Pink Floyd / Pompeii High Resolution Remaster

Used drive : ASUS DRW-24D5MT Adapter: 1 ID: 0

Read mode : Secure
Utilize accurate stream : Yes
Defeat audio cache : Yes
Make use of C2 pointers : No

Read offset correction : 6
Overread into Lead-In and Lead-Out : No
Fill up missing offset samples with silence : Yes
Delete leading and trailing silent blocks : No
Null samples used in CRC calculations : Yes
Used interface : Native Win32 interface for Win NT & 2000
Gap handling : Appended to previous track

Used output format : User Defined Encoder
Selected bitrate : 896 kBit/s
Quality : High
Add ID3 tag : No
Command line compressor : C:\Program Files (x86)\Exact Audio Copy\FLAC\FLAC.EXE
Additional command line options : -6 -V -T "ARTIST=%artist%" -T "TITLE=%title%" -T "ALBUM=%albumtitle%" -T "DATE=%year%" -T "TRACKNUMBER=%tracknr%" -T "GENRE=%genre%" -T "COMMENT=%comment%" -T "BAND=%albuminterpret%" -T "ALBUMARTIST=%albuminterpret%" -T "COMPOSER=%composer%" %haslyrics%–tag-from-file=LYRICS="%lyricsfile%"%haslyrics% -T "DISCNUMBER=%cdnumber%" -T "TOTALDISCS=%totalcds%" -T "TOTALTRACKS=%numtracks%" %hascover%–picture="%coverfile%"%hascover% %source% -o %dest%


TOC of the extracted CD

Track | Start | Length | Start sector | End sector
––––––––––––––––––––––––––––-
1 | 0:00.00 | 3:36.64 | 0 | 16263
2 | 3:36.64 | 11:55.48 | 16264 | 69936
3 | 15:32.37 | 6:41.47 | 69937 | 100058
4 | 22:14.09 | 10:09.45 | 100059 | 145778
5 | 32:23.54 | 5:56.30 | 145779 | 172508
6 | 38:20.09 | 10:23.15 | 172509 | 219248
7 | 48:43.24 | 1:49.52 | 219249 | 227475
8 | 50:33.01 | 13:29.45 | 227476 | 288195


Track 1

Filename F:\EAC Rips\Pink Floyd - Live At Pompeii The High Resolution Remasters (2018, The Archives Records & Tapes - ART-72, CD)\CD3 - Quadraphonic Rear Speakers Mix\01. Intro.wav

Pre-gap length 0:00:02.00

Peak level 98.0 %
Extraction speed 4.7 X
Track quality 100.0 %
Test CRC E04C17E0
Copy CRC E04C17E0
Accurately ripped (confidence 1) [C877B135] (AR v2)
Copy OK

Track 2

Filename F:\EAC Rips\Pink Floyd - Live At Pompeii The High Resolution Remasters (2018, The Archives Records & Tapes - ART-72, CD)\CD3 - Quadraphonic Rear Speakers Mix\02. Echoes, Part 1.wav

Peak level 98.0 %
Extraction speed 6.1 X
Track quality 100.0 %
Test CRC B8FC1D46
Copy CRC B8FC1D46
Accurately ripped (confidence 1) [A7CBA8B3] (AR v2)
Copy OK

Track 3

Filename F:\EAC Rips\Pink Floyd - Live At Pompeii The High Resolution Remasters (2018, The Archives Records & Tapes - ART-72, CD)\CD3 - Quadraphonic Rear Speakers Mix\03. Careful With That Axe, Eugene.wav

Peak level 98.0 %
Extraction speed 6.7 X
Track quality 100.0 %
Test CRC 58210E7C
Copy CRC 58210E7C
Accurately ripped (confidence 1) [BD858CF4] (AR v2)
Copy OK

Track 4

Filename F:\EAC Rips\Pink Floyd - Live At Pompeii The High Resolution Remasters (2018, The Archives Records & Tapes - ART-72, CD)\CD3 - Quadraphonic Rear Speakers Mix\04. A Saucerful Of Secrets.wav

Peak level 98.0 %
Extraction speed 7.6 X
Track quality 100.0 %
Test CRC 9CFFADD3
Copy CRC 9CFFADD3
Accurately ripped (confidence 1) [3AF991B1] (AR v2)
Copy OK

Track 5

Filename F:\EAC Rips\Pink Floyd - Live At Pompeii The High Resolution Remasters (2018, The Archives Records & Tapes - ART-72, CD)\CD3 - Quadraphonic Rear Speakers Mix\05. One Of These Days.wav

Peak level 98.0 %
Extraction speed 7.6 X
Track quality 100.0 %
Test CRC 155E6A28
Copy CRC 155E6A28
Accurately ripped (confidence 1) [207F6D29] (AR v2)
Copy OK

Track 6

Filename F:\EAC Rips\Pink Floyd - Live At Pompeii The High Resolution Remasters (2018, The Archives Records & Tapes - ART-72, CD)\CD3 - Quadraphonic Rear Speakers Mix\06. Set The Controls For The Heart Of The Sun.wav

Peak level 98.0 %
Extraction speed 8.7 X
Track quality 100.0 %
Test CRC 27415D22
Copy CRC 27415D22
Accurately ripped (confidence 1) [2AF8A77A] (AR v2)
Copy OK

Track 7

Filename F:\EAC Rips\Pink Floyd - Live At Pompeii The High Resolution Remasters (2018, The Archives Records & Tapes - ART-72, CD)\CD3 - Quadraphonic Rear Speakers Mix\07. Mademoiselle Nobs.wav

Peak level 98.0 %
Extraction speed 7.2 X
Track quality 100.0 %
Test CRC 588281DD
Copy CRC 588281DD
Accurately ripped (confidence 1) [5A7B4332] (AR v2)
Copy OK

Track 8

Filename F:\EAC Rips\Pink Floyd - Live At Pompeii The High Resolution Remasters (2018, The Archives Records & Tapes - ART-72, CD)\CD3 - Quadraphonic Rear Speakers Mix\08. Echoes, Part 2.wav

Peak level 98.0 %
Extraction speed 9.6 X
Track quality 100.0 %
Test CRC 0EE542FE
Copy CRC 0EE542FE
Accurately ripped (confidence 1) [6485B24A] (AR v2)
Copy OK


All tracks accurately ripped

No errors occurred

End of status report

–– AcoustID Plugin V1.2.0

Total fingerprints: 8


–– CUETools DB Plugin V2.1.6

[CTDB TOCID: TT6bDufD9LV9saaD8b7aaX8WvjE-] disk not present in database
Submit result: TT6bDufD9LV9saaD8b7aaX8WvjE- has been uploaded


==== Log checksum 30B250C301E29D630D3592AB13994CF94B8ED5305708C78A53C1E112DBBA15F3 ====
Exact Audio Copy V1.5 from 20. February 2020

EAC extraction logfile from 10. August 2020, 23:09

Pink Floyd / Pompeii High Resolution Remaster

Used drive : TSSTcorpCD/DVDW SH-S182D Adapter: 1 ID: 1

Read mode : Secure
Utilize accurate stream : Yes
Defeat audio cache : Yes
Make use of C2 pointers : No

Read offset correction : 6
Overread into Lead-In and Lead-Out : No
Fill up missing offset samples with silence : Yes
Delete leading and trailing silent blocks : No
Null samples used in CRC calculations : Yes
Used interface : Native Win32 interface for Win NT & 2000
Gap handling : Appended to previous track

Used output format : User Defined Encoder
Selected bitrate : 896 kBit/s
Quality : High
Add ID3 tag : No
Command line compressor : C:\Program Files (x86)\Exact Audio Copy\FLAC\FLAC.EXE
Additional command line options : -6 -V -T "ARTIST=%artist%" -T "TITLE=%title%" -T "ALBUM=%albumtitle%" -T "DATE=%year%" -T "TRACKNUMBER=%tracknr%" -T "GENRE=%genre%" -T "COMMENT=%comment%" -T "BAND=%albuminterpret%" -T "ALBUMARTIST=%albuminterpret%" -T "COMPOSER=%composer%" %haslyrics%–tag-from-file=LYRICS="%lyricsfile%"%haslyrics% -T "DISCNUMBER=%cdnumber%" -T "TOTALDISCS=%totalcds%" -T "TOTALTRACKS=%numtracks%" %hascover%–picture="%coverfile%"%hascover% %source% -o %dest%


TOC of the extracted CD

Track | Start | Length | Start sector | End sector
––––––––––––––––––––––––––––-
1 | 0:00.00 | 2:35.33 | 0 | 11657
2 | 2:35.33 | 11:58.36 | 11658 | 65543
3 | 14:33.69 | 6:41.40 | 65544 | 95658
4 | 21:15.34 | 10:13.36 | 95659 | 141669
5 | 31:28.70 | 5:48.22 | 141670 | 167791
6 | 37:17.17 | 10:20.30 | 167792 | 214321
7 | 47:37.47 | 1:51.34 | 214322 | 222680
8 | 49:29.06 | 13:19.61 | 222681 | 282666
9 | 62:48.67 | 1:06.60 | 282667 | 287676


Track 1

Filename F:\EAC Rips\Pink Floyd - Live At Pompeii The High Resolution Remasters (2018, The Archives Records & Tapes - ART-72, CD)\CD4 - Original Stereo Mix\01. Intro.wav

Pre-gap length 0:00:02.00

Peak level 95.3 %
Extraction speed 4.5 X
Track quality 100.0 %
Test CRC 8246615F
Copy CRC 8246615F
Accurately ripped (confidence 1) [39CBD84B] (AR v2)
Copy OK

Track 2

Filename F:\EAC Rips\Pink Floyd - Live At Pompeii The High Resolution Remasters (2018, The Archives Records & Tapes - ART-72, CD)\CD4 - Original Stereo Mix\02. Echoes, Part 1.wav

Peak level 99.6 %
Extraction speed 6.1 X
Track quality 100.0 %
Test CRC 468443CC
Copy CRC 468443CC
Accurately ripped (confidence 1) [08470DA4] (AR v2)
Copy OK

Track 3

Filename F:\EAC Rips\Pink Floyd - Live At Pompeii The High Resolution Remasters (2018, The Archives Records & Tapes - ART-72, CD)\CD4 - Original Stereo Mix\03. Careful With That Axe, Eugene.wav

Peak level 99.6 %
Extraction speed 6.7 X
Track quality 100.0 %
Test CRC C6719B16
Copy CRC C6719B16
Accurately ripped (confidence 1) [87CAFB7B] (AR v2)
Copy OK

Track 4

Filename F:\EAC Rips\Pink Floyd - Live At Pompeii The High Resolution Remasters (2018, The Archives Records & Tapes - ART-72, CD)\CD4 - Original Stereo Mix\04. A Saucerful Of Secrets.wav

Peak level 98.7 %
Extraction speed 7.4 X
Track quality 100.0 %
Test CRC E2D89DED
Copy CRC E2D89DED
Accurately ripped (confidence 1) [160020C8] (AR v2)
Copy OK

Track 5

Filename F:\EAC Rips\Pink Floyd - Live At Pompeii The High Resolution Remasters (2018, The Archives Records & Tapes - ART-72, CD)\CD4 - Original Stereo Mix\05. One Of These Days.wav

Peak level 100.0 %
Extraction speed 7.8 X
Track quality 100.0 %
Test CRC 9DC95018
Copy CRC 9DC95018
Accurately ripped (confidence 1) [479875E3] (AR v2)
Copy OK

Track 6

Filename F:\EAC Rips\Pink Floyd - Live At Pompeii The High Resolution Remasters (2018, The Archives Records & Tapes - ART-72, CD)\CD4 - Original Stereo Mix\06. Set The Controls For The Heart Of The Sun.wav

Peak level 99.0 %
Extraction speed 8.7 X
Track quality 100.0 %
Test CRC 32AE2043
Copy CRC 32AE2043
Accurately ripped (confidence 1) [BD7656BB] (AR v2)
Copy OK

Track 7

Filename F:\EAC Rips\Pink Floyd - Live At Pompeii The High Resolution Remasters (2018, The Archives Records & Tapes - ART-72, CD)\CD4 - Original Stereo Mix\07. Mademoiselle Nobs.wav

Peak level 71.0 %
Extraction speed 7.2 X
Track quality 100.0 %
Test CRC CC9D44B9
Copy CRC CC9D44B9
Accurately ripped (confidence 1) [975B4741] (AR v2)
Copy OK

Track 8

Filename F:\EAC Rips\Pink Floyd - Live At Pompeii The High Resolution Remasters (2018, The Archives Records & Tapes - ART-72, CD)\CD4 - Original Stereo Mix\08. Echoes, Part 2.wav

Peak level 99.8 %
Extraction speed 9.7 X
Track quality 100.0 %
Test CRC 56F87B85
Copy CRC 56F87B85
Accurately ripped (confidence 1) [3D6974F2] (AR v2)
Copy OK

Track 9

Filename F:\EAC Rips\Pink Floyd - Live At Pompeii The High Resolution Remasters (2018, The Archives Records & Tapes - ART-72, CD)\CD4 - Original Stereo Mix\09. Radio Spot.wav

Peak level 48.2 %
Extraction speed 6.7 X
Track quality 100.0 %
Test CRC AF559D7F
Copy CRC AF559D7F
Accurately ripped (confidence 1) [51371F85] (AR v2)
Copy OK


All tracks accurately ripped

No errors occurred

End of status report

–– AcoustID Plugin V1.2.0

Total fingerprints: 9


–– CUETools DB Plugin V2.1.6

[CTDB TOCID: uG4lrNRwqt32sTIRiaDb0W8V.ic-] disk not present in database
Submit result: uG4lrNRwqt32sTIRiaDb0W8V.ic- has been uploaded


==== Log checksum 7DA5B537FA98DFD4585B115EAD0DF81BCC06C881498D253D051B2BD7217C5B70 ====

Thanks to the Original ripper !