Tags
Language
Tags
April 2024
Su Mo Tu We Th Fr Sa
31 1 2 3 4 5 6
7 8 9 10 11 12 13
14 15 16 17 18 19 20
21 22 23 24 25 26 27
28 29 30 1 2 3 4

The Art of Noise - In No Sense? Nonsense! (Deluxe Edition) (1987/2018)

Posted By: delpotro
The Art of Noise - In No Sense? Nonsense! (Deluxe Edition) (1987/2018)

The Art of Noise - In No Sense? Nonsense! (Deluxe Edition) (1987/2018)
EAC Rip | FLAC (tracks+log+.cue) - 908 Mb | MP3 CBR 320 kbps - 346 Mb | Covers (LQ) included | 02:30:05
Experimental Rock, Progressive Electronic, Synthpop | Label: Warner Music

The Art of Noise‘s 1987 album In No Sense? Nonsense! is reissued as a two-CD deluxe edition in November 2018. Gary Lagan had left after In Visible Silence leaving Anne Dudley and J.J. Jeczalik to continue as a duo. Dudley recalls, “At that time, we were meeting new people, doing adverts and films and things. There was lots of new input. These adverts generated other new tracks. They would evolve and we’d agree they were good ideas. And we’d ask each other what would happen if we did this, this and this? So that kept everything evolving.” The reissue features newly-remastered audio including bonus seven-inch and 12-inch mixes including collaborations with Paul McCartney (the Art of Noise ‘Spies Like Us’ remix) and Duane Eddy (‘Spies’). Additionally, there are 22 unreleased recordings from the sessions, taken from the original master tapes.

AllMusic Review by Evan Cater
In No Sense? Nonsense! contains some of the Art of Noise's most compelling work. With this album, Anne Dudley and company expanded their new wave experiments to include more instrumental firepower. In addition to full rock band production (including electric guitars, drums, and synthesizers), this record makes use of brass band, orchestral, and choral music. The result is about as rich and complex as they ever got. In No Sense? Nonsense! is probably best known as the album that included their take on the theme from the '50s cop show Dragnet, used in the 1987 film version that starred Dan Akroyd and Tom Hanks. That track is certainly the most accessible on the record, but it somehow seems a little too punchy for the primary ambient pop surroundings. It might fit better on a different album. This record is more notable for tracks like "How Rapid?" and "Opus for Four" that engage in fanciful genre blending. At times, the sound almost begins to anticipate later ambient dance artists like Enigma and DJ Shadow. But the Art of Noise are aptly named and consequently limited. Their artful noise collage lacks the visceral impact afforded by those later bands. In No Sense? is more often interesting than beautiful.
Tracklist:
Disc 1 (01:15:23)
1. The Art Of Noise – Galleons Of Stone (01:11)
2. The Art Of Noise – Dragnet (03:27)
3. The Art Of Noise – Fin Du Temps (02:04)
4. The Art Of Noise – How Rapid? (00:51)
5. The Art Of Noise – Opus For Four (03:11)
6. The Art Of Noise – Debut (01:56)
7. The Art Of Noise – E.F.L. (05:25)
8. The Art Of Noise – Ode To Don Jose (04:15)
9. The Art Of Noise – A Day At The Races (04:03)
10. The Art Of Noise – Counterpoint (00:56)
11. The Art Of Noise – Roundabout 727 (00:45)
12. The Art Of Noise – Ransom On The Sand (01:16)
13. The Art Of Noise – Roller 1 (03:30)
14. The Art Of Noise – Nothing Was Going To Stop Them, Anyway (00:44)
15. The Art Of Noise – Crusoe (03:54)
16. The Art Of Noise – One Earth (04:08)
17. The Art Of Noise – Legacy (7" Mix) (03:26)
18. The Art Of Noise – Dragnet (7" Mix) (03:02)
19. Paul McCartney – Spies Like Us (Alternative Mix) (05:35)
20. Duane Eddy – Spies (03:16)
21. The Art Of Noise – Ode To Don Jose (7" Edit) (02:58)
22. The Art Of Noise – Opus III (02:43)
23. Duane Eddy – Lost Innocence (03:50)
24. The Art Of Noise – Acton Art (02:49)
25. The Art Of Noise – Ransom On The Sand (7" Edit) (01:21)
26. The Art Of Noise – Debut (7" Edit) (01:48)
27. The Art Of Noise – Dragnet '88 (7" Mix) (02:59)

Disc 2 (01:14:18)
1. The Art Of Noise – Fin Du Temps (Air) (01:59)
2. The Art Of Noise – Domestic Disco (03:18)
3. The Art Of Noise – Roller 1 (Out-take) (01:45)
4. The Art Of Noise – Faberge 12 (Opus For Four) (02:46)
5. The Art Of Noise – Theatrical (E.F.L.) (03:39)
6. The Art Of Noise – Galleons Of Crusoe (01:49)
7. The Art Of Noise – Western (Ode Take 1) (01:37)
8. The Art Of Noise – Moog And Baboon (Ode Take 2) (01:00)
9. The Art Of Noise – More Moog And Baboon (Ode Take 3) (01:48)
10. The Art Of Noise – Judo 3 (Ode Take 6) (02:35)
11. The Art Of Noise – Sam (Demo For Duane Eddy) (03:55)
12. The Art Of Noise – Nobody Told Me Anything (00:31)
13. The Art Of Noise – Racing (05:24)
14. The Art Of Noise – Sweet Reason (Judo 2) (01:51)
15. The Art Of Noise – Exercise And Pool Montage (01:37)
16. The Art Of Noise – Last Chance To Dance (Edit) (03:37)
17. The Art Of Noise – Ringing In The Ears (01:09)
18. The Art Of Noise – Legacy (12" Mix) (08:21)
19. The Art Of Noise – Dragnet (12" Mix) (05:55)
20. The Art Of Noise – Dragnet '88 (12" Mix) (07:16)
21. Duane Eddy – Spies (Espionoise Mix) (05:24)
22. The Art Of Noise – 2 Many Thankyous (00:30)
23. The Art Of Noise – One Earth (New Mexico Mix) (06:32)

Exact Audio Copy V1.5 from 20. February 2020

EAC extraction logfile from 25. April 2020, 18:42

Art of Noise / In No Sense? Nonsense!

Used drive : HL-DT-STDVDRAM GP60NB60 Adapter: 1 ID: 0

Read mode : Secure
Utilize accurate stream : Yes
Defeat audio cache : Yes
Make use of C2 pointers : No

Read offset correction : 6
Overread into Lead-In and Lead-Out : No
Fill up missing offset samples with silence : Yes
Delete leading and trailing silent blocks : No
Null samples used in CRC calculations : Yes
Used interface : Native Win32 interface for Win NT & 2000
Gap handling : Appended to previous track

Used output format : User Defined Encoder
Selected bitrate : 1024 kBit/s
Quality : High
Add ID3 tag : No
Command line compressor : C:\Program Files (x86)\Exact Audio Copy\Flac\flac.exe
Additional command line options : -V -8 -T "Genre=%genre%" -T "Artist=%artist%" -T "Title=%title%" -T "Album=%albumtitle%" -T "Date=%year%" -T "Tracknumber=%tracknr%" -T "Comment=%comment%" %source%


TOC of the extracted CD

Track | Start | Length | Start sector | End sector
––––––––––––––––––––––––––––-
1 | 0:00.00 | 1:11.58 | 0 | 5382
2 | 1:11.58 | 3:27.28 | 5383 | 20935
3 | 4:39.11 | 2:04.51 | 20936 | 30286
4 | 6:43.62 | 0:51.55 | 30287 | 34166
5 | 7:35.42 | 3:11.09 | 34167 | 48500
6 | 10:46.51 | 1:56.41 | 48501 | 57241
7 | 12:43.17 | 5:25.61 | 57242 | 81677
8 | 18:09.03 | 4:15.23 | 81678 | 100825
9 | 22:24.26 | 4:03.15 | 100826 | 119065
10 | 26:27.41 | 0:56.46 | 119066 | 123311
11 | 27:24.12 | 0:45.12 | 123312 | 126698
12 | 28:09.24 | 1:16.71 | 126699 | 132469
13 | 29:26.20 | 3:30.29 | 132470 | 148248
14 | 32:56.49 | 0:44.59 | 148249 | 151607
15 | 33:41.33 | 3:54.74 | 151608 | 169231
16 | 37:36.32 | 4:08.05 | 169232 | 187836
17 | 41:44.37 | 3:26.01 | 187837 | 203287
18 | 45:10.38 | 3:02.19 | 203288 | 216956
19 | 48:12.57 | 5:35.28 | 216957 | 242109
20 | 53:48.10 | 3:16.34 | 242110 | 256843
21 | 57:04.44 | 2:58.06 | 256844 | 270199
22 | 60:02.50 | 2:43.43 | 270200 | 282467
23 | 62:46.18 | 3:50.53 | 282468 | 299770
24 | 66:36.71 | 2:49.39 | 299771 | 312484
25 | 69:26.35 | 1:21.69 | 312485 | 318628
26 | 70:48.29 | 1:48.31 | 318629 | 326759
27 | 72:36.60 | 2:59.50 | 326760 | 340234


Track 1

Filename M:\EAC\CD1\01 Art of Noise - Galleons of Stone.wav

Pre-gap length 0:00:02.00

Peak level 20.6 %
Extraction speed 2.2 X
Track quality 100.0 %
Test CRC E08BF103
Copy CRC E08BF103
Accurately ripped (confidence 36) [55255882] (AR v2)
Copy OK

Track 2

Filename M:\EAC\CD1\02 Art of Noise - Dragnet.wav

Peak level 99.9 %
Extraction speed 2.9 X
Track quality 100.0 %
Test CRC 8D9E4499
Copy CRC 8D9E4499
Accurately ripped (confidence 36) [89BF2841] (AR v2)
Copy OK

Track 3

Filename M:\EAC\CD1\03 Art of Noise - Fin du Temps.wav

Peak level 99.9 %
Extraction speed 2.8 X
Track quality 100.0 %
Test CRC 1196239F
Copy CRC 1196239F
Accurately ripped (confidence 36) [6CA50E7B] (AR v2)
Copy OK

Track 4

Filename M:\EAC\CD1\04 Art of Noise - How Rapid.wav

Peak level 99.9 %
Extraction speed 2.2 X
Track quality 100.0 %
Test CRC 32F27B46
Copy CRC 32F27B46
Accurately ripped (confidence 36) [BD83F04B] (AR v2)
Copy OK

Track 5

Filename M:\EAC\CD1\05 Art of Noise - Opus for Four.wav

Peak level 99.9 %
Extraction speed 3.3 X
Track quality 100.0 %
Test CRC 10D15BC3
Copy CRC 10D15BC3
Accurately ripped (confidence 36) [BE79AB4D] (AR v2)
Copy OK

Track 6

Filename M:\EAC\CD1\06 Art of Noise - Debut.wav

Peak level 99.9 %
Extraction speed 2.5 X
Track quality 99.9 %
Test CRC 8BADC9F3
Copy CRC 8BADC9F3
Accurately ripped (confidence 36) [B21D859A] (AR v2)
Copy OK

Track 7

Filename M:\EAC\CD1\07 Art of Noise - E.F.L..wav

Peak level 100.0 %
Extraction speed 3.9 X
Track quality 100.0 %
Test CRC 4207391C
Copy CRC 4207391C
Accurately ripped (confidence 36) [A3BEBC69] (AR v2)
Copy OK

Track 8

Filename M:\EAC\CD1\08 Art of Noise - Ode to Don Jose.wav

Peak level 99.9 %
Extraction speed 3.6 X
Track quality 99.9 %
Test CRC 1EF3B26A
Copy CRC 1EF3B26A
Accurately ripped (confidence 36) [8617299C] (AR v2)
Copy OK

Track 9

Filename M:\EAC\CD1\09 Art of Noise - A Day at the Races.wav

Peak level 99.9 %
Extraction speed 4.2 X
Track quality 100.0 %
Test CRC BB4A11C6
Copy CRC BB4A11C6
Accurately ripped (confidence 36) [67169F59] (AR v2)
Copy OK

Track 10

Filename M:\EAC\CD1\10 Art of Noise - Counterpoint.wav

Peak level 65.6 %
Extraction speed 3.0 X
Track quality 100.0 %
Test CRC 092BD3B0
Copy CRC 092BD3B0
Accurately ripped (confidence 36) [693BDC3C] (AR v2)
Copy OK

Track 11

Filename M:\EAC\CD1\11 Art of Noise - Roundabout 727.wav

Peak level 70.5 %
Extraction speed 1.9 X
Track quality 99.7 %
Test CRC 6A4EEBB4
Copy CRC 6A4EEBB4
Accurately ripped (confidence 36) [E6E35498] (AR v2)
Copy OK

Track 12

Filename M:\EAC\CD1\12 Art of Noise - Ransom on the Sand.wav

Peak level 64.1 %
Extraction speed 3.4 X
Track quality 100.0 %
Test CRC 234CB784
Copy CRC 234CB784
Accurately ripped (confidence 36) [0DFB7A2A] (AR v2)
Copy OK

Track 13

Filename M:\EAC\CD1\13 Art of Noise - Roller 1.wav

Peak level 100.0 %
Extraction speed 4.4 X
Track quality 100.0 %
Test CRC 84B07631
Copy CRC 84B07631
Accurately ripped (confidence 36) [3B2A04E8] (AR v2)
Copy OK

Track 14

Filename M:\EAC\CD1\14 Art of Noise - Nothing Was Going to Stop Them Then, Anyway.wav

Peak level 83.5 %
Extraction speed 2.0 X
Track quality 99.7 %
Test CRC 39128CA7
Copy CRC 39128CA7
Accurately ripped (confidence 36) [85EC7696] (AR v2)
Copy OK

Track 15

Filename M:\EAC\CD1\15 Art of Noise - Crusoe.wav

Peak level 95.5 %
Extraction speed 4.7 X
Track quality 100.0 %
Test CRC A40768D2
Copy CRC A40768D2
Accurately ripped (confidence 36) [ED81DC98] (AR v2)
Copy OK

Track 16

Filename M:\EAC\CD1\16 Art of Noise - One Earth.wav

Peak level 100.0 %
Extraction speed 4.9 X
Track quality 100.0 %
Test CRC C6209730
Copy CRC C6209730
Accurately ripped (confidence 36) [B81133B0] (AR v2)
Copy OK

Track 17

Filename M:\EAC\CD1\17 Art of Noise - Legacy (7'' Mix).wav

Peak level 100.0 %
Extraction speed 4.9 X
Track quality 100.0 %
Test CRC E2F0D8E3
Copy CRC E2F0D8E3
Accurately ripped (confidence 36) [8ADAFC90] (AR v2)
Copy OK

Track 18

Filename M:\EAC\CD1\18 Art of Noise - Dragnet (7'' Mix).wav

Peak level 99.6 %
Extraction speed 4.2 X
Track quality 99.9 %
Test CRC D005E246
Copy CRC D005E246
Accurately ripped (confidence 36) [3E77AA31] (AR v2)
Copy OK

Track 19

Filename M:\EAC\CD1\19 Paul McCartney - Spies Like Us (Art of Noise 12'' mix).wav

Peak level 88.7 %
Extraction speed 5.5 X
Track quality 100.0 %
Test CRC 11749CDC
Copy CRC 11749CDC
Accurately ripped (confidence 36) [46544EF5] (AR v2)
Copy OK

Track 20

Filename M:\EAC\CD1\20 Duane Eddy - Spies.wav

Peak level 100.0 %
Extraction speed 5.3 X
Track quality 100.0 %
Test CRC 7468815C
Copy CRC 7468815C
Accurately ripped (confidence 36) [C18409BB] (AR v2)
Copy OK

Track 21

Filename M:\EAC\CD1\21 Art of Noise - Ode to Don Jose (7'' mix).wav

Peak level 93.2 %
Extraction speed 5.3 X
Track quality 100.0 %
Test CRC 9AFA9E64
Copy CRC 9AFA9E64
Accurately ripped (confidence 36) [BE49B7F8] (AR v2)
Copy OK

Track 22

Filename M:\EAC\CD1\22 Art of Noise - Opus III.wav

Peak level 100.0 %
Extraction speed 5.3 X
Track quality 100.0 %
Test CRC 57B507D7
Copy CRC 57B507D7
Accurately ripped (confidence 36) [D30955C5] (AR v2)
Copy OK

Track 23

Filename M:\EAC\CD1\23 Duane Eddy - Lost Innocence.wav

Peak level 100.0 %
Extraction speed 5.0 X
Track quality 99.9 %
Test CRC 3EA212EC
Copy CRC 3EA212EC
Accurately ripped (confidence 35) [5386354C] (AR v2)
Copy OK

Track 24

Filename M:\EAC\CD1\24 Art of Noise - Acton Art.wav

Peak level 100.0 %
Extraction speed 5.5 X
Track quality 100.0 %
Test CRC 58FA2FCA
Copy CRC 58FA2FCA
Accurately ripped (confidence 36) [8655F426] (AR v2)
Copy OK

Track 25

Filename M:\EAC\CD1\25 Art of Noise - Ransom on the Sand (7'' edit).wav

Peak level 75.1 %
Extraction speed 4.6 X
Track quality 100.0 %
Test CRC F7B4258B
Copy CRC F7B4258B
Accurately ripped (confidence 36) [00F898E0] (AR v2)
Copy OK

Track 26

Filename M:\EAC\CD1\26 Art of Noise - Debut (7'' Edit).wav

Peak level 100.0 %
Extraction speed 5.1 X
Track quality 100.0 %
Test CRC 26800AD2
Copy CRC 26800AD2
Accurately ripped (confidence 36) [FDA83652] (AR v2)
Copy OK

Track 27

Filename M:\EAC\CD1\27 Art of Noise - Dragnet '88 (7'' Mix).wav

Peak level 100.0 %
Extraction speed 5.7 X
Track quality 100.0 %
Test CRC 253E1999
Copy CRC 253E1999
Accurately ripped (confidence 36) [860D4463] (AR v2)
Copy OK


All tracks accurately ripped

No errors occurred

End of status report

–– CUETools DB Plugin V2.1.6

[CTDB TOCID: t9gIrJMb1MPhOHy_AcdtRaRdoaY-] found
Submit result: already submitted
Track | CTDB Status
1 | (91/91) Accurately ripped
2 | (91/91) Accurately ripped
3 | (91/91) Accurately ripped
4 | (91/91) Accurately ripped
5 | (91/91) Accurately ripped
6 | (91/91) Accurately ripped
7 | (91/91) Accurately ripped
8 | (90/91) Accurately ripped
9 | (91/91) Accurately ripped
10 | (91/91) Accurately ripped
11 | (91/91) Accurately ripped
12 | (91/91) Accurately ripped
13 | (91/91) Accurately ripped
14 | (91/91) Accurately ripped
15 | (91/91) Accurately ripped
16 | (91/91) Accurately ripped
17 | (91/91) Accurately ripped
18 | (91/91) Accurately ripped
19 | (91/91) Accurately ripped
20 | (91/91) Accurately ripped
21 | (91/91) Accurately ripped
22 | (91/91) Accurately ripped
23 | (90/91) Accurately ripped
24 | (91/91) Accurately ripped
25 | (91/91) Accurately ripped
26 | (91/91) Accurately ripped
27 | (88/91) Accurately ripped


==== Log checksum 22888402A999ADF2A9C4A40681B034F27336D938DBABFAE4DDDD87AD2F0F4755 ====
Exact Audio Copy V1.5 from 20. February 2020

EAC extraction logfile from 25. April 2020, 19:34

Art of Noise / In No Sense? Nonsense!

Used drive : HL-DT-STDVDRAM GP60NB60 Adapter: 1 ID: 0

Read mode : Secure
Utilize accurate stream : Yes
Defeat audio cache : Yes
Make use of C2 pointers : No

Read offset correction : 6
Overread into Lead-In and Lead-Out : No
Fill up missing offset samples with silence : Yes
Delete leading and trailing silent blocks : No
Null samples used in CRC calculations : Yes
Used interface : Native Win32 interface for Win NT & 2000
Gap handling : Appended to previous track

Used output format : User Defined Encoder
Selected bitrate : 1024 kBit/s
Quality : High
Add ID3 tag : No
Command line compressor : C:\Program Files (x86)\Exact Audio Copy\Flac\flac.exe
Additional command line options : -V -8 -T "Genre=%genre%" -T "Artist=%artist%" -T "Title=%title%" -T "Album=%albumtitle%" -T "Date=%year%" -T "Tracknumber=%tracknr%" -T "Comment=%comment%" %source%


TOC of the extracted CD

Track | Start | Length | Start sector | End sector
––––––––––––––––––––––––––––-
1 | 0:00.00 | 1:59.66 | 0 | 8990
2 | 1:59.66 | 3:18.21 | 8991 | 23861
3 | 5:18.12 | 1:45.62 | 23862 | 31798
4 | 7:03.74 | 2:46.03 | 31799 | 44251
5 | 9:50.02 | 3:39.02 | 44252 | 60678
6 | 13:29.04 | 1:49.19 | 60679 | 68872
7 | 15:18.23 | 1:37.27 | 68873 | 76174
8 | 16:55.50 | 1:00.74 | 76175 | 80748
9 | 17:56.49 | 1:48.63 | 80749 | 88911
10 | 19:45.37 | 2:35.59 | 88912 | 100595
11 | 22:21.21 | 3:55.46 | 100596 | 118266
12 | 26:16.67 | 0:31.36 | 118267 | 120627
13 | 26:48.28 | 5:24.67 | 120628 | 144994
14 | 32:13.20 | 1:51.16 | 144995 | 153335
15 | 34:04.36 | 1:37.62 | 153336 | 160672
16 | 35:42.23 | 3:37.36 | 160673 | 176983
17 | 39:19.59 | 1:09.23 | 176984 | 182181
18 | 40:29.07 | 8:21.02 | 182182 | 219758
19 | 48:50.09 | 5:55.60 | 219759 | 246443
20 | 54:45.69 | 7:16.04 | 246444 | 279147
21 | 62:01.73 | 5:24.62 | 279148 | 303509
22 | 67:26.60 | 0:30.27 | 303510 | 305786
23 | 67:57.12 | 6:32.14 | 305787 | 335200


Track 1

Filename M:\EAC\CD2\01 Art of Noise - Fin du Temps (Air).wav

Pre-gap length 0:00:02.00

Peak level 100.0 %
Extraction speed 2.1 X
Track quality 99.9 %
Test CRC 83C4192C
Copy CRC 83C4192C
Accurately ripped (confidence 35) [94C87704] (AR v2)
Copy OK

Track 2

Filename M:\EAC\CD2\02 Art of Noise - Domestic Disco.wav

Peak level 100.0 %
Extraction speed 3.0 X
Track quality 100.0 %
Test CRC DFD5EF7F
Copy CRC DFD5EF7F
Accurately ripped (confidence 35) [242B4E94] (AR v2)
Copy OK

Track 3

Filename M:\EAC\CD2\03 Art of Noise - Roller 1 (Out-take).wav

Peak level 100.0 %
Extraction speed 2.8 X
Track quality 100.0 %
Test CRC 7F4D602A
Copy CRC 7F4D602A
Accurately ripped (confidence 35) [63840796] (AR v2)
Copy OK

Track 4

Filename M:\EAC\CD2\04 Art of Noise - Faberge 12 (Opus for Four).wav

Peak level 100.0 %
Extraction speed 3.2 X
Track quality 100.0 %
Test CRC 472E4872
Copy CRC 472E4872
Accurately ripped (confidence 35) [010AC43B] (AR v2)
Copy OK

Track 5

Filename M:\EAC\CD2\05 Art of Noise - Theatrical (EFL).wav

Peak level 100.0 %
Extraction speed 3.5 X
Track quality 100.0 %
Test CRC 4A8FC66A
Copy CRC 4A8FC66A
Accurately ripped (confidence 35) [719F368B] (AR v2)
Copy OK

Track 6

Filename M:\EAC\CD2\06 Art of Noise - Galleons of Crusoe.wav

Peak level 100.0 %
Extraction speed 3.1 X
Track quality 100.0 %
Test CRC 5CBEDA21
Copy CRC 5CBEDA21
Accurately ripped (confidence 35) [20F7A1DF] (AR v2)
Copy OK

Track 7

Filename M:\EAC\CD2\07 Art of Noise - Western (Ode to Don Jose).wav

Peak level 100.0 %
Extraction speed 3.2 X
Track quality 100.0 %
Test CRC 517B57CC
Copy CRC 517B57CC
Accurately ripped (confidence 35) [D7FCD7B7] (AR v2)
Copy OK

Track 8

Filename M:\EAC\CD2\08 Art of Noise - Moog & Baboon (Ode to Don Jose).wav

Peak level 100.0 %
Extraction speed 2.7 X
Track quality 100.0 %
Test CRC AAD304F3
Copy CRC AAD304F3
Accurately ripped (confidence 35) [4BB47092] (AR v2)
Copy OK

Track 9

Filename M:\EAC\CD2\09 Art of Noise - More Moog & Baboon (Ode to Don Jose).wav

Peak level 100.0 %
Extraction speed 3.4 X
Track quality 100.0 %
Test CRC 5FF8414E
Copy CRC 5FF8414E
Accurately ripped (confidence 35) [8D0E5127] (AR v2)
Copy OK

Track 10

Filename M:\EAC\CD2\10 Art of Noise - Judo 3 (Ode to Don Jose).wav

Peak level 96.4 %
Extraction speed 3.8 X
Track quality 100.0 %
Test CRC 1F41BC3F
Copy CRC 1F41BC3F
Accurately ripped (confidence 35) [6E0DCB74] (AR v2)
Copy OK

Track 11

Filename M:\EAC\CD2\11 Art of Noise - Sam (Demo for Duane Eddy).wav

Peak level 100.0 %
Extraction speed 4.2 X
Track quality 100.0 %
Test CRC D3C9E695
Copy CRC D3C9E695
Accurately ripped (confidence 35) [675E4867] (AR v2)
Copy OK

Track 12

Filename M:\EAC\CD2\12 Art of Noise - Nobody told me anything.wav

Peak level 96.1 %
Extraction speed 2.3 X
Track quality 100.0 %
Test CRC 3626C400
Copy CRC 3626C400
Accurately ripped (confidence 35) [52550199] (AR v2)
Copy OK

Track 13

Filename M:\EAC\CD2\13 Art of Noise - Racing.wav

Peak level 100.0 %
Extraction speed 4.6 X
Track quality 100.0 %
Test CRC 95225874
Copy CRC 95225874
Accurately ripped (confidence 35) [A6149C7E] (AR v2)
Copy OK

Track 14

Filename M:\EAC\CD2\14 Art of Noise - Sweet Reason.wav

Peak level 100.0 %
Extraction speed 3.2 X
Track quality 99.9 %
Test CRC A5E64004
Copy CRC A5E64004
Accurately ripped (confidence 35) [7452ECF3] (AR v2)
Copy OK

Track 15

Filename M:\EAC\CD2\15 Art of Noise - Exercise and Pool Montage.wav

Peak level 100.0 %
Extraction speed 3.9 X
Track quality 100.0 %
Test CRC 4CC072E7
Copy CRC 4CC072E7
Accurately ripped (confidence 35) [CD7733BF] (AR v2)
Copy OK

Track 16

Filename M:\EAC\CD2\16 Art of Noise - Last Chance to Dance (Edit).wav

Peak level 100.0 %
Extraction speed 4.1 X
Track quality 99.9 %
Test CRC 49616B62
Copy CRC 49616B62
Accurately ripped (confidence 35) [02ABA7B1] (AR v2)
Copy OK

Track 17

Filename M:\EAC\CD2\17 Art of Noise - Ringing in the Ears.wav

Peak level 100.0 %
Extraction speed 2.7 X
Track quality 99.8 %
Test CRC B952ED8E
Copy CRC B952ED8E
Accurately ripped (confidence 35) [FFDAD48D] (AR v2)
Copy OK

Track 18

Filename M:\EAC\CD2\18 Art of Noise - Legacy (12'' Mix).wav

Peak level 98.2 %
Extraction speed 5.4 X
Track quality 100.0 %
Test CRC D79134AC
Copy CRC D79134AC
Accurately ripped (confidence 35) [8B6EC03A] (AR v2)
Copy OK

Track 19

Filename M:\EAC\CD2\19 Art of Noise - Dragnet (12'' Mix).wav

Peak level 100.0 %
Extraction speed 5.5 X
Track quality 100.0 %
Test CRC 1960011C
Copy CRC 1960011C
Accurately ripped (confidence 35) [B48F8C59] (AR v2)
Copy OK

Track 20

Filename M:\EAC\CD2\20 Art of Noise - Dragnet '88 (12'' Mix).wav

Peak level 100.0 %
Extraction speed 5.9 X
Track quality 100.0 %
Test CRC E01D971D
Copy CRC E01D971D
Accurately ripped (confidence 35) [52910B72] (AR v2)
Copy OK

Track 21

Filename M:\EAC\CD2\21 Duane Eddy - Spies (Espionoise Mix).wav

Peak level 100.0 %
Extraction speed 5.9 X
Track quality 100.0 %
Test CRC B046D713
Copy CRC B046D713
Accurately ripped (confidence 35) [F811081C] (AR v2)
Copy OK

Track 22

Filename M:\EAC\CD2\22 Art of Noise - 2 Many Thankyous.wav

Peak level 100.0 %
Extraction speed 3.0 X
Track quality 100.0 %
Test CRC 898944BA
Copy CRC 898944BA
Accurately ripped (confidence 35) [F02EAD16] (AR v2)
Copy OK

Track 23

Filename M:\EAC\CD2\23 Art of Noise - One Earth (New Mexico Mix).wav

Peak level 99.9 %
Extraction speed 6.2 X
Track quality 100.0 %
Test CRC 62C7D6A1
Copy CRC 62C7D6A1
Accurately ripped (confidence 35) [76CCCA19] (AR v2)
Copy OK


All tracks accurately ripped

No errors occurred

End of status report

–– CUETools DB Plugin V2.1.6

[CTDB TOCID: GEbsqXfrC2zZYIOjoVHql.UbQcI-] found
Submit result: already submitted
Track | CTDB Status
1 | (91/91) Accurately ripped
2 | (91/91) Accurately ripped
3 | (91/91) Accurately ripped
4 | (91/91) Accurately ripped
5 | (91/91) Accurately ripped
6 | (91/91) Accurately ripped
7 | (91/91) Accurately ripped
8 | (91/91) Accurately ripped
9 | (91/91) Accurately ripped
10 | (91/91) Accurately ripped
11 | (91/91) Accurately ripped
12 | (91/91) Accurately ripped
13 | (91/91) Accurately ripped
14 | (91/91) Accurately ripped
15 | (91/91) Accurately ripped
16 | (91/91) Accurately ripped
17 | (91/91) Accurately ripped
18 | (91/91) Accurately ripped
19 | (91/91) Accurately ripped
20 | (91/91) Accurately ripped
21 | (91/91) Accurately ripped
22 | (91/91) Accurately ripped
23 | (88/91) Accurately ripped


==== Log checksum C911178440C1C87239595F18BAFC5C3E35F2FD06B2BC4F2C8AE9A126A7479695 ====

Thanks to the Original ripper !