Tags
Language
Tags

The Stanfields - Limboland (2018)

Posted By: delpotro
The Stanfields - Limboland (2018)

The Stanfields - Limboland (2018)
EAC Rip | FLAC (tracks+log+.cue) - 301 Mb | MP3 CBR 320 kbps - 104 Mb | 00:45:19
Alternative Rock, Celtic Rock | Label: GroundSwell Music

Limboland sees the quintet as raw and incendiary as they have ever been, with their rare combination of classic rock, punk rock and Celtic rock stylings coming together for an experience that is vibrant, high energy and memorable, alongside lyrics that should incite deeper thinking and possibly even some positive action.
Tracklist:
1. Afraid Of The World (03:23)
2. Desperation (03:07)
3. Lantern in the Window (03:53)
4. Your Flag (Won't Save You Anymore) (04:01)
5. Carolina Reaper (04:48)
6. Light (03:37)
7. Let It Run (03:38)
8. Total Black (04:15)
9. There's A Light (03:59)
10. How Long Is The Road (04:52)
11. Blow Winds Blow (Bonus Track) (05:46)

Exact Audio Copy V1.3 from 2. September 2016

EAC extraction logfile from 24. May 2018, 19:18

The Stanfields / Limboland

Used drive : HL-DT-STDVDRAM GH24LS50 Adapter: 1 ID: 0

Read mode : Secure
Utilize accurate stream : Yes
Defeat audio cache : Yes
Make use of C2 pointers : No

Read offset correction : 667
Overread into Lead-In and Lead-Out : No
Fill up missing offset samples with silence : Yes
Delete leading and trailing silent blocks : No
Null samples used in CRC calculations : Yes
Used interface : Native Win32 interface for Win NT & 2000
Gap handling : Appended to previous track

Used output format : User Defined Encoder
Selected bitrate : 1024 kBit/s
Quality : High
Add ID3 tag : No
Command line compressor : C:\Program Files (x86)\Exact Audio Copy\Flac\flac.exe
Additional command line options : -8 -e -p -V -T "ARTIST=%artist%" -T "TITLE=%title%" -T "ALBUM=%albumtitle%" -T "DATE=%year%" -T "TRACKNUMBER=%tracknr%" -T "GENRE=%genre%" -T "PERFORMER=%albuminterpret%" -T "COMPOSER=%composer%" %haslyrics%–tag-from-file=LYRICS="%lyricsfile%"%haslyrics% -T "ALBUMARTIST=%albumartist%" -T "DISCNUMBER=%cdnumber%" -T "TOTALDISCS=%totalcds%" -T "TOTALTRACKS=%numtracks%" -T "COMMENT=%comment%" %source% -o %dest%


TOC of the extracted CD

Track | Start | Length | Start sector | End sector
––––––––––––––––––––––––––––-
1 | 0:00.00 | 3:23.29 | 0 | 15253
2 | 3:23.29 | 3:06.66 | 15254 | 29269
3 | 6:30.20 | 3:53.28 | 29270 | 46772
4 | 10:23.48 | 4:00.50 | 46773 | 64822
5 | 14:24.23 | 4:47.52 | 64823 | 86399
6 | 19:12.00 | 3:37.02 | 86400 | 102676
7 | 22:49.02 | 3:38.24 | 102677 | 119050
8 | 26:27.26 | 4:15.36 | 119051 | 138211
9 | 30:42.62 | 3:58.42 | 138212 | 156103
10 | 34:41.29 | 4:52.09 | 156104 | 178012
11 | 39:33.38 | 5:45.62 | 178013 | 203949


Track 1

Filename J:\The Stanfields - Limboland\01. Afraid of the World.wav

Pre-gap length 0:00:02.00

Peak level 99.6 %
Extraction speed 1.1 X
Track quality 100.0 %
Test CRC 1EFA281C
Copy CRC 1EFA281C
Track not present in AccurateRip database
Copy OK

Track 2

Filename J:\The Stanfields - Limboland\02. Desperation.wav

Peak level 99.6 %
Extraction speed 1.0 X
Track quality 99.9 %
Test CRC 324C18B2
Copy CRC 324C18B2
Track not present in AccurateRip database
Copy OK

Track 3

Filename J:\The Stanfields - Limboland\03. Lantern in the Window.wav

Peak level 100.0 %
Extraction speed 1.1 X
Track quality 99.9 %
Test CRC 262260F1
Copy CRC 262260F1
Track not present in AccurateRip database
Copy OK

Track 4

Filename J:\The Stanfields - Limboland\04. Your Flag (Won't Save You Anymore).wav

Peak level 99.8 %
Extraction speed 1.3 X
Track quality 99.9 %
Test CRC 3607672F
Copy CRC 3607672F
Track not present in AccurateRip database
Copy OK

Track 5

Filename J:\The Stanfields - Limboland\05. Carolina Reaper.wav

Peak level 100.0 %
Extraction speed 1.6 X
Track quality 100.0 %
Test CRC 3AC1B183
Copy CRC 3AC1B183
Track not present in AccurateRip database
Copy OK

Track 6

Filename J:\The Stanfields - Limboland\06. Light.wav

Peak level 99.7 %
Extraction speed 1.7 X
Track quality 100.0 %
Test CRC 25445FDF
Copy CRC 25445FDF
Track not present in AccurateRip database
Copy OK

Track 7

Filename J:\The Stanfields - Limboland\07. Let It Run.wav

Peak level 100.0 %
Extraction speed 1.8 X
Track quality 100.0 %
Test CRC F1081485
Copy CRC F1081485
Track not present in AccurateRip database
Copy OK

Track 8

Filename J:\The Stanfields - Limboland\08. Total Black.wav

Peak level 100.0 %
Extraction speed 1.9 X
Track quality 100.0 %
Test CRC EC44EE42
Copy CRC EC44EE42
Track not present in AccurateRip database
Copy OK

Track 9

Filename J:\The Stanfields - Limboland\09. There's a Light.wav

Peak level 100.0 %
Extraction speed 2.0 X
Track quality 100.0 %
Test CRC 1A485237
Copy CRC 1A485237
Track not present in AccurateRip database
Copy OK

Track 10

Filename J:\The Stanfields - Limboland\10. How Long Is the Road.wav

Peak level 100.0 %
Extraction speed 2.1 X
Track quality 100.0 %
Test CRC E1455608
Copy CRC E1455608
Track not present in AccurateRip database
Copy OK

Track 11

Filename J:\The Stanfields - Limboland\11. Blow Winds Blow.wav

Peak level 99.2 %
Extraction speed 2.3 X
Track quality 100.0 %
Test CRC BA1C3D01
Copy CRC BA1C3D01
Track not present in AccurateRip database
Copy OK


None of the tracks are present in the AccurateRip database

No errors occurred

End of status report

==== Log checksum CB3A0977CB35AE6F7F1520938F49745550568A944DEC34B87458F56EE34E1FEA ====

Thanks to the Original ripper !