Tags
Language
Tags

Trentemøller - Obverse (2019)

Posted By: delpotro
Trentemøller - Obverse (2019)

Trentemøller - Obverse (2019)
EAC Rip | FLAC (tracks+log+.cue) - 280 Mb | MP3 CBR 320 kbps - 139 Mb | 00:57:07
Electronic, Downtempo, Trip-Hop, Ambient, Indietronica | Label: In My Room

Trentemoller returns with his fifth studio album Obverse. Anders Trentemøller is a well-known multi-instrumentalist, but perhaps the one he’s most adept at is the studio itself. Obverse is the result of him expanding that skill even further.

Obverse often feels like an instrumental album because it started life as one, the driving philosophy being “what if the pressure of having to perform these songs live is removed entirely?” Granting yourself the freedom to chase down every idea a studio offers comes with privileges. What happens when you reverse a synth part mid-verse? Why not send an entire track through a faulty distortion pedal? Inspiration reveals itself in a variety of forms and, before long, a simple chord progression contorts into something entirely new. It’s a work method that yielded great results for the legendary German Kosmiche/Motorik experimentalists of the 1970’s. Intentional or not, Obverse embodies more than a little of that spirit without even a hint of pastiche. So it only makes sense that Obverse would stray from its original roadmap. In due time, half of the nascent compositions featured singers, including Lina Tullgren, Lisbet Fritze, and jennylee, of Warpaint, another band deeply influenced by dream pop.

While Obverse was born from a different work ethic than previous efforts, it also continues an arc that started in 2006. Each successive effort has represented a logical next step beyond the album before, and Obverse absolutely picks up where Fixion left off. For the past decade Trentemøller has been perfecting this form of sonic chiaroscuro to conjure up images of severe landscapes, and to mirror the Scandinavian climate, where half the year the sun barely sets, and the other it barely tops the horizon. While there has been a film noir element in his previous work, Obverse is the first time each song has felt like a collection of pocket soundtracks.

By fusing together a love of dream pop, dark synth-based music, film scores, and a deep connection with the stark Nordic panoramas, Anders has created an inimitable language. Ultimately Obverse resides in a genre all its own.

Tracklist:
1. Cold Comfort (08:30)
2. Church of Trees (06:38)
3. In the Garden (04:02)
4. Foggy Figures (07:23)
5. Blue September (05:09)
6. Trnt (08:06)
7. One Last Kiss to Remember (03:48)
8. Sleeper (04:46)
9. Try a Little (04:13)
10. Giants (05:03)

Exact Audio Copy V1.3 from 2. September 2016

EAC extraction logfile from 16. July 2020, 8:52

Trentemøller / Obverse

Used drive : PLEXTOR PX-891SAF Adapter: 1 ID: 0

Read mode : Secure
Utilize accurate stream : Yes
Defeat audio cache : Yes
Make use of C2 pointers : No

Read offset correction : 6
Overread into Lead-In and Lead-Out : No
Fill up missing offset samples with silence : Yes
Delete leading and trailing silent blocks : No
Null samples used in CRC calculations : Yes
Used interface : Native Win32 interface for Win NT & 2000
Gap handling : Appended to previous track

Used output format : User Defined Encoder
Selected bitrate : 1024 kBit/s
Quality : High
Add ID3 tag : No
Command line compressor : C:\Program Files (x86)\Exact Audio Copy\Flac\flac.exe
Additional command line options : -8 -V -T "ARTIST=%artist%" -T "TITLE=%title%" -T "ALBUM=%albumtitle%" -T "DATE=%year%" -T "TRACKNUMBER=%tracknr%" -T "GENRE=%genre%" -T "PERFORMER=%albuminterpret%" -T "COMPOSER=%composer%" %haslyrics%–tag-from-file=LYRICS="%lyricsfile%"%haslyrics% -T "ALBUMARTIST=%albumartist%" -T "DISCNUMBER=%cdnumber%" -T "TOTALDISCS=%totalcds%" -T "TOTALTRACKS=%numtracks%" -T "COMMENT=%comment%" %source% -o %dest%


TOC of the extracted CD

Track | Start | Length | Start sector | End sector
––––––––––––––––––––––––––––-
1 | 0:00.00 | 8:30.65 | 0 | 38314
2 | 8:30.65 | 6:38.37 | 38315 | 68201
3 | 15:09.27 | 3:55.54 | 68202 | 85880
4 | 19:05.06 | 7:11.55 | 85881 | 118260
5 | 26:16.61 | 5:08.48 | 118261 | 141408
6 | 31:25.34 | 8:06.13 | 141409 | 177871
7 | 39:31.47 | 3:48.35 | 177872 | 195006
8 | 43:20.07 | 4:34.33 | 195007 | 215589
9 | 47:54.40 | 4:10.28 | 215590 | 234367
10 | 52:04.68 | 5:02.73 | 234368 | 257090


Track 1

Filename D:\#EAC new\#wav+flac\#add\Trentemøller - Obverse\01. Trentemøller Feat. Rachel Goswell - Cold Comfort.wav

Pre-gap length 0:00:02.00

Peak level 97.8 %
Extraction speed 5.7 X
Track quality 100.0 %
Test CRC 3AF6DECA
Copy CRC 3AF6DECA
Accurately ripped (confidence 12) [5F9237F0] (AR v2)
Copy OK

Track 2

Filename D:\#EAC new\#wav+flac\#add\Trentemøller - Obverse\02. Trentemøller - Church Of Trees.wav

Peak level 97.7 %
Extraction speed 6.7 X
Track quality 100.0 %
Test CRC 6CC52064
Copy CRC 6CC52064
Accurately ripped (confidence 12) [5413D802] (AR v2)
Copy OK

Track 3

Filename D:\#EAC new\#wav+flac\#add\Trentemøller - Obverse\03. Trentemøller Feat. Lina Tullgren - In The Garden.wav

Peak level 97.7 %
Extraction speed 5.7 X
Track quality 99.9 %
Test CRC 1CD7CA4A
Copy CRC 1CD7CA4A
Accurately ripped (confidence 12) [3ABDF6EE] (AR v2)
Copy OK

Track 4

Filename D:\#EAC new\#wav+flac\#add\Trentemøller - Obverse\04. Trentemøller - Foggy Figures.wav

Peak level 97.7 %
Extraction speed 7.9 X
Track quality 100.0 %
Test CRC 3D8E6491
Copy CRC 3D8E6491
Accurately ripped (confidence 12) [D92478FC] (AR v2)
Copy OK

Track 5

Filename D:\#EAC new\#wav+flac\#add\Trentemøller - Obverse\05. Trentemøller Feat. Lisbet Fritze - Blue September.wav

Peak level 97.8 %
Extraction speed 8.2 X
Track quality 100.0 %
Test CRC 6BE612D8
Copy CRC 6BE612D8
Accurately ripped (confidence 12) [0FF38005] (AR v2)
Copy OK

Track 6

Filename D:\#EAC new\#wav+flac\#add\Trentemøller - Obverse\06. Trentemøller - Trnt.wav

Peak level 100.0 %
Extraction speed 9.1 X
Track quality 100.0 %
Test CRC 28D2044B
Copy CRC 28D2044B
Accurately ripped (confidence 12) [28692684] (AR v2)
Copy OK

Track 7

Filename D:\#EAC new\#wav+flac\#add\Trentemøller - Obverse\07. Trentemøller Feat. Lisbet Fritze - One Last Kiss To Remember.wav

Peak level 97.7 %
Extraction speed 8.9 X
Track quality 100.0 %
Test CRC DADFB25B
Copy CRC DADFB25B
Accurately ripped (confidence 12) [ECA43EF6] (AR v2)
Copy OK

Track 8

Filename D:\#EAC new\#wav+flac\#add\Trentemøller - Obverse\08. Trentemøller - Sleeper.wav

Peak level 97.7 %
Extraction speed 9.3 X
Track quality 100.0 %
Test CRC 6DAB61C2
Copy CRC 6DAB61C2
Accurately ripped (confidence 12) [F51F480F] (AR v2)
Copy OK

Track 9

Filename D:\#EAC new\#wav+flac\#add\Trentemøller - Obverse\09. Trentemøller Feat. jennylee - Try A Little.wav

Peak level 98.0 %
Extraction speed 9.6 X
Track quality 100.0 %
Test CRC 8A8E14AD
Copy CRC 8A8E14AD
Accurately ripped (confidence 12) [B225CD1B] (AR v2)
Copy OK

Track 10

Filename D:\#EAC new\#wav+flac\#add\Trentemøller - Obverse\10. Trentemøller - Giants.wav

Peak level 98.7 %
Extraction speed 10.0 X
Track quality 100.0 %
Test CRC D4583452
Copy CRC D4583452
Accurately ripped (confidence 12) [1707FBD9] (AR v2)
Copy OK


All tracks accurately ripped

No errors occurred

End of status report

–– CUETools DB Plugin V2.1.6

[CTDB TOCID: AzvrfVsk5B.p9O2KZfABrf5qFLc-] found
Submit result: AzvrfVsk5B.p9O2KZfABrf5qFLc- has been confirmed
Track | CTDB Status
1 | (36/36) Accurately ripped
2 | (36/36) Accurately ripped
3 | (36/36) Accurately ripped
4 | (36/36) Accurately ripped
5 | (36/36) Accurately ripped
6 | (36/36) Accurately ripped
7 | (36/36) Accurately ripped
8 | (36/36) Accurately ripped
9 | (36/36) Accurately ripped
10 | (36/36) Accurately ripped


==== Log checksum D49F96DE62688A78A0E7676561E9239C8845FF2355FB836E13707A2589DBCFCF ====

––––––––––––––––––––––––––––––

Exact Audio Copy V1.3 from 2. September 2016

EAC extraction logfile from 16. July 2020, 8:52

Trentemøller / Obverse

Used drive : PLEXTOR PX-891SAF Adapter: 1 ID: 0

Read mode : Secure
Utilize accurate stream : Yes
Defeat audio cache : Yes
Make use of C2 pointers : No

Read offset correction : 6
Overread into Lead-In and Lead-Out : No
Fill up missing offset samples with silence : Yes
Delete leading and trailing silent blocks : No
Null samples used in CRC calculations : Yes
Used interface : Native Win32 interface for Win NT & 2000
Gap handling : Appended to previous track

Used output format : User Defined Encoder
Selected bitrate : 1024 kBit/s
Quality : High
Add ID3 tag : No
Command line compressor : C:\Program Files (x86)\Exact Audio Copy\Flac\flac.exe
Additional command line options : -8 -V -T "ARTIST=%artist%" -T "TITLE=%title%" -T "ALBUM=%albumtitle%" -T "DATE=%year%" -T "TRACKNUMBER=%tracknr%" -T "GENRE=%genre%" -T "PERFORMER=%albuminterpret%" -T "COMPOSER=%composer%" %haslyrics%–tag-from-file=LYRICS="%lyricsfile%"%haslyrics% -T "ALBUMARTIST=%albumartist%" -T "DISCNUMBER=%cdnumber%" -T "TOTALDISCS=%totalcds%" -T "TOTALTRACKS=%numtracks%" -T "COMMENT=%comment%" %source% -o %dest%


TOC of the extracted CD

Track | Start | Length | Start sector | End sector
––––––––––––––––––––––––––––-
1 | 0:00.00 | 8:30.65 | 0 | 38314
2 | 8:30.65 | 6:38.37 | 38315 | 68201
3 | 15:09.27 | 3:55.54 | 68202 | 85880
4 | 19:05.06 | 7:11.55 | 85881 | 118260
5 | 26:16.61 | 5:08.48 | 118261 | 141408
6 | 31:25.34 | 8:06.13 | 141409 | 177871
7 | 39:31.47 | 3:48.35 | 177872 | 195006
8 | 43:20.07 | 4:34.33 | 195007 | 215589
9 | 47:54.40 | 4:10.28 | 215590 | 234367
10 | 52:04.68 | 5:02.73 | 234368 | 257090


Track 1

Filename D:\#EAC new\#wav+flac\#add\Trentemøller - Obverse\01. Trentemøller Feat. Rachel Goswell - Cold Comfort.wav

Pre-gap length 0:00:02.00

Peak level 97.8 %
Extraction speed 5.7 X
Track quality 100.0 %
Test CRC 3AF6DECA
Copy CRC 3AF6DECA
Accurately ripped (confidence 12) [5F9237F0] (AR v2)
Copy OK

Track 2

Filename D:\#EAC new\#wav+flac\#add\Trentemøller - Obverse\02. Trentemøller - Church Of Trees.wav

Peak level 97.7 %
Extraction speed 6.7 X
Track quality 100.0 %
Test CRC 6CC52064
Copy CRC 6CC52064
Accurately ripped (confidence 12) [5413D802] (AR v2)
Copy OK

Track 3

Filename D:\#EAC new\#wav+flac\#add\Trentemøller - Obverse\03. Trentemøller Feat. Lina Tullgren - In The Garden.wav

Peak level 97.7 %
Extraction speed 5.7 X
Track quality 99.9 %
Test CRC 1CD7CA4A
Copy CRC 1CD7CA4A
Accurately ripped (confidence 12) [3ABDF6EE] (AR v2)
Copy OK

Track 4

Filename D:\#EAC new\#wav+flac\#add\Trentemøller - Obverse\04. Trentemøller - Foggy Figures.wav

Peak level 97.7 %
Extraction speed 7.9 X
Track quality 100.0 %
Test CRC 3D8E6491
Copy CRC 3D8E6491
Accurately ripped (confidence 12) [D92478FC] (AR v2)
Copy OK

Track 5

Filename D:\#EAC new\#wav+flac\#add\Trentemøller - Obverse\05. Trentemøller Feat. Lisbet Fritze - Blue September.wav

Peak level 97.8 %
Extraction speed 8.2 X
Track quality 100.0 %
Test CRC 6BE612D8
Copy CRC 6BE612D8
Accurately ripped (confidence 12) [0FF38005] (AR v2)
Copy OK

Track 6

Filename D:\#EAC new\#wav+flac\#add\Trentemøller - Obverse\06. Trentemøller - Trnt.wav

Peak level 100.0 %
Extraction speed 9.1 X
Track quality 100.0 %
Test CRC 28D2044B
Copy CRC 28D2044B
Accurately ripped (confidence 12) [28692684] (AR v2)
Copy OK

Track 7

Filename D:\#EAC new\#wav+flac\#add\Trentemøller - Obverse\07. Trentemøller Feat. Lisbet Fritze - One Last Kiss To Remember.wav

Peak level 97.7 %
Extraction speed 8.9 X
Track quality 100.0 %
Test CRC DADFB25B
Copy CRC DADFB25B
Accurately ripped (confidence 12) [ECA43EF6] (AR v2)
Copy OK

Track 8

Filename D:\#EAC new\#wav+flac\#add\Trentemøller - Obverse\08. Trentemøller - Sleeper.wav

Peak level 97.7 %
Extraction speed 9.3 X
Track quality 100.0 %
Test CRC 6DAB61C2
Copy CRC 6DAB61C2
Accurately ripped (confidence 12) [F51F480F] (AR v2)
Copy OK

Track 9

Filename D:\#EAC new\#wav+flac\#add\Trentemøller - Obverse\09. Trentemøller Feat. jennylee - Try A Little.wav

Peak level 98.0 %
Extraction speed 9.6 X
Track quality 100.0 %
Test CRC 8A8E14AD
Copy CRC 8A8E14AD
Accurately ripped (confidence 12) [B225CD1B] (AR v2)
Copy OK

Track 10

Filename D:\#EAC new\#wav+flac\#add\Trentemøller - Obverse\10. Trentemøller - Giants.wav

Peak level 98.7 %
Extraction speed 10.0 X
Track quality 100.0 %
Test CRC D4583452
Copy CRC D4583452
Accurately ripped (confidence 12) [1707FBD9] (AR v2)
Copy OK


All tracks accurately ripped

No errors occurred

End of status report

–– CUETools DB Plugin V2.1.6

[CTDB TOCID: AzvrfVsk5B.p9O2KZfABrf5qFLc-] found
Submit result: AzvrfVsk5B.p9O2KZfABrf5qFLc- has been confirmed
Track | CTDB Status
1 | (36/36) Accurately ripped
2 | (36/36) Accurately ripped
3 | (36/36) Accurately ripped
4 | (36/36) Accurately ripped
5 | (36/36) Accurately ripped
6 | (36/36) Accurately ripped
7 | (36/36) Accurately ripped
8 | (36/36) Accurately ripped
9 | (36/36) Accurately ripped
10 | (36/36) Accurately ripped


==== Log checksum D49F96DE62688A78A0E7676561E9239C8845FF2355FB836E13707A2589DBCFCF ====

Thanks to the Original ripper !