Tags
Language
Tags

VA - La Ola Interior: Spanish Ambient & Acid Exoticism 1983-1990 (2021)

Posted By: delpotro
VA - La Ola Interior: Spanish Ambient & Acid Exoticism 1983-1990 (2021)

VA - La Ola Interior: Spanish Ambient & Acid Exoticism 1983-1990 (2021)
EAC Rip | FLAC (tracks+log+.cue) - 460 Mb | MP3 CBR 320 kbps - 230 Mb | Covers included | 01:13:42
Experimental Electronic, Ambient | Label: Les Disques Bongo Joe

Following “La Contra Ola” (BJR015), Bongo Joe is pleased to present LA OLA INTERIOR, a compilation exploring the ambient side of the Spanish electronic music produced in the 80’s. It gathers musicians from various horizons and of many generations, who shared the desire to create an immersive soundscape and to combine electronic music with non-Western musical traditions. As a general rule, the Anglo-Saxon tropism did relate the spanish peninsula’s ambient music to the Balearic Sound, that is to say to the relaxing music played in Ibiza’s nightclubs. But this music takes place in the productive territory of experimental musics, and particularly in its two main breeding grounds: the tape recording underground and the independent musicians-producers scene.

Inseparable from the processes of self-publishing, distribution and exchange of music that were then taking place in Spain in an artisanal way, the vast underground movement of cassettes was divided between an "ethno-trance" combining industrial beats and oriental sounds on the one hand (Esplendor Geométrico, Miguel A. Ruiz / Orfeón Gagarin) and unclassifiable low-fi tinkerers on the other hand (Camino al desván, Eli Gras, Mataparda, Victor Nubla). Hyperactive, this scene is radical and strongly dominated by the hardest musical styles, but the ambient, influenced by the German Kosmische Musik and "krautrock", also develops here.

The second vein of Spanish ambient comes from some of the independent labels of the peninsula (DRO, GASA, El Cometa de Madrid, EGK) whose activity will mark the return of some of the most adventurous musicians-producers of the 70s. Some were influenced by American minimalism (Luis Delgado / Mecánica Popular, Suso Saiz, Javier Segura), others by Fourth-World Music conceived by Jon Hassell and Brian Eno (Finis Africae, Jabir). Having passed through folk, ancient, traditional or contemporary music, and being familiar with improvisation and studio techniques, these artists come from a mutant hippie culture, capable of phagocyting many musical styles from electronic ambient to ethnic improvisation and modal jazz.

These two scenes and generations that make up LA OLA INTERIOR intersect around a common interest in non-Western musical traditions. Their exploration may be that of the tribal origins of electronic rhythms or the Arab heritage of Spain. Above all, it is a dreamy exoticism, an immobile journey as the sounds, rhythms or instruments of these traditions are scrutinized by Western practices (avant-garde music, electronic technology). The result is a hybrid music, filtered and reinvented, neither Western nor extra-Western, with a pronounced taste for the fusion of opposites, which we have called "Acid Exoticism" because of its permanent search for trance or contemplation. Atmospheric, contemplative and serial, these musics still plunge us today into a sensorial journey, at the same time interior and distant, organic and technological, between exotic reminiscences and interior visions.

LA OLA INTERIOR brings together 20 little-known and innovative pieces from the golden age of Spanish electronic music.
Tracklist:
1. Miguel A. Ruiz - Transparent (04:03)
2. Camino al Desván - La Contorsión de Pollo (02:56)
3. Mecánica Popular - Impresionistas 2 (00:20)
4. Finis Africae - Hybla (05:34)
5. Orfeón Gagarin - Última instancia (04:07)
6. Victor Nubla - 20000 Lenguas (04:00)
7. Javier Segura - Malagueñas 2 (05:36)
8. Jabir - Vuelo Por Las Alturas De Xauen (06:42)
9. Miguel A. Ruiz - Trivandrum (04:00)
10. Mecánica Popular - Impresionistas 1 (00:21)
11. Finis Africae - Hombres Lluvia (03:48)
12. Esplendor Geométrico - Sheikh (04:12)
13. Víctor Nubla - Chandernagor (02:41)
14. Luis Delgado - El llanto de Nouronihar (04:47)
15. Camino al Desván - Adjudicado a la danza (02:38)
16. Mataparda - Me llena la cachimba (01:21)
17. Suso Saiz - Horizonte paseo (05:53)
18. Camino al Desván - Fock Intimida a Gordi (05:01)
19. Mataparda - La papa suave (01:44)
20. Eli Gras - Flu (03:59)

Exact Audio Copy V1.3 from 2. September 2016

EAC extraction logfile from 17. April 2021, 3:18

Various Artists / La Ola Interior: Spanish Ambient & Acid Exoticism 1983-1990

Used drive : ATAPI DVD A DH16AASH Adapter: 1 ID: 0

Read mode : Secure
Utilize accurate stream : Yes
Defeat audio cache : Yes
Make use of C2 pointers : No

Read offset correction : 6
Overread into Lead-In and Lead-Out : No
Fill up missing offset samples with silence : Yes
Delete leading and trailing silent blocks : No
Null samples used in CRC calculations : Yes
Used interface : Native Win32 interface for Win NT & 2000
Gap handling : Appended to previous track

Used output format : User Defined Encoder
Selected bitrate : 1024 kBit/s
Quality : High
Add ID3 tag : No
Command line compressor : C:\Program Files (x86)\Exact Audio Copy\Flac\flac.exe
Additional command line options : -8 -e -V -T "ARTIST=%artist%" -T "TITLE=%title%" -T "ALBUM=%albumtitle%" -T "DATE=%year%" -T "TRACKNUMBER=%tracknr%" -T "GENRE=%genre%" -T "PERFORMER=%albuminterpret%" -T "COMPOSER=%composer%" %haslyrics%–tag-from-file=LYRICS="%lyricsfile%"%haslyrics% -T "ALBUMARTIST=%albumartist%" -T "DISCNUMBER=%cdnumber%" -T "TOTALDISCS=%totalcds%" -T "TOTALTRACKS=%numtracks%" -T "COMMENT=%comment%" %source% -o %dest%


TOC of the extracted CD

Track | Start | Length | Start sector | End sector
––––––––––––––––––––––––––––-
1 | 0:00.00 | 4:03.29 | 0 | 18253
2 | 4:03.29 | 2:55.67 | 18254 | 31445
3 | 6:59.21 | 0:19.71 | 31446 | 32941
4 | 7:19.17 | 5:33.55 | 32942 | 57971
5 | 12:52.72 | 4:07.09 | 57972 | 76505
6 | 17:00.06 | 3:59.41 | 76506 | 94471
7 | 20:59.47 | 5:36.27 | 94472 | 119698
8 | 26:35.74 | 6:42.23 | 119699 | 149871
9 | 33:18.22 | 3:59.56 | 149872 | 167852
10 | 37:18.03 | 0:20.66 | 167853 | 169418
11 | 37:38.69 | 3:47.57 | 169419 | 186500
12 | 41:26.51 | 4:11.73 | 186501 | 205398
13 | 45:38.49 | 2:41.05 | 205399 | 217478
14 | 48:19.54 | 4:47.00 | 217479 | 239003
15 | 53:06.54 | 2:37.39 | 239004 | 250817
16 | 55:44.18 | 1:21.00 | 250818 | 256892
17 | 57:05.18 | 5:53.18 | 256893 | 283385
18 | 62:58.36 | 5:00.74 | 283386 | 305959
19 | 67:59.35 | 1:44.21 | 305960 | 313780
20 | 69:43.56 | 3:59.04 | 313781 | 331709


Track 1

Filename X:\Various\La Ola Interior꞉ Spanish Ambient & Acid Exoticism 1983​-​1990 (2021) [FLAC] {BJR059CD}\01. Miguel A. Ruiz - Transparent.wav

Pre-gap length 0:00:02.00

Peak level 96.6 %
Extraction speed 3.5 X
Track quality 100.0 %
Test CRC F881C0FC
Copy CRC F881C0FC
Track not present in AccurateRip database
Copy OK

Track 2

Filename X:\Various\La Ola Interior꞉ Spanish Ambient & Acid Exoticism 1983​-​1990 (2021) [FLAC] {BJR059CD}\02. Camino al Desván - La Contorsión de Pollo.wav

Peak level 96.6 %
Extraction speed 3.7 X
Track quality 100.0 %
Test CRC 70B3DBD3
Copy CRC 70B3DBD3
Track not present in AccurateRip database
Copy OK

Track 3

Filename X:\Various\La Ola Interior꞉ Spanish Ambient & Acid Exoticism 1983​-​1990 (2021) [FLAC] {BJR059CD}\03. Mecánica Popular - Impresionistas 2.wav

Peak level 96.7 %
Extraction speed 1.6 X
Track quality 100.0 %
Test CRC A8960996
Copy CRC A8960996
Track not present in AccurateRip database
Copy OK

Track 4

Filename X:\Various\La Ola Interior꞉ Spanish Ambient & Acid Exoticism 1983​-​1990 (2021) [FLAC] {BJR059CD}\04. Finis Africae - Hybla.wav

Peak level 97.7 %
Extraction speed 4.3 X
Track quality 100.0 %
Test CRC 8987D48A
Copy CRC 8987D48A
Track not present in AccurateRip database
Copy OK

Track 5

Filename X:\Various\La Ola Interior꞉ Spanish Ambient & Acid Exoticism 1983​-​1990 (2021) [FLAC] {BJR059CD}\05. Orfeón Gagarin - Última Instancia.wav

Peak level 97.2 %
Extraction speed 4.5 X
Track quality 100.0 %
Test CRC 979B01EA
Copy CRC 979B01EA
Track not present in AccurateRip database
Copy OK

Track 6

Filename X:\Various\La Ola Interior꞉ Spanish Ambient & Acid Exoticism 1983​-​1990 (2021) [FLAC] {BJR059CD}\06. Víctor Nubla - 20000 Lenguas.wav

Peak level 92.3 %
Extraction speed 4.7 X
Track quality 100.0 %
Test CRC E837256A
Copy CRC E837256A
Track not present in AccurateRip database
Copy OK

Track 7

Filename X:\Various\La Ola Interior꞉ Spanish Ambient & Acid Exoticism 1983​-​1990 (2021) [FLAC] {BJR059CD}\07. Javier Segura - Malagueñas 2.wav

Peak level 94.6 %
Extraction speed 5.3 X
Track quality 100.0 %
Test CRC 889F2239
Copy CRC 889F2239
Track not present in AccurateRip database
Copy OK

Track 8

Filename X:\Various\La Ola Interior꞉ Spanish Ambient & Acid Exoticism 1983​-​1990 (2021) [FLAC] {BJR059CD}\08. Jabir - Vuelo por las Alturas de Xauen.wav

Peak level 94.0 %
Extraction speed 5.7 X
Track quality 100.0 %
Test CRC 10EA520D
Copy CRC 10EA520D
Track not present in AccurateRip database
Copy OK

Track 9

Filename X:\Various\La Ola Interior꞉ Spanish Ambient & Acid Exoticism 1983​-​1990 (2021) [FLAC] {BJR059CD}\09. Miguel A. Ruiz - Trivandrum.wav

Peak level 96.6 %
Extraction speed 5.6 X
Track quality 100.0 %
Test CRC B3B4FB67
Copy CRC B3B4FB67
Track not present in AccurateRip database
Copy OK

Track 10

Filename X:\Various\La Ola Interior꞉ Spanish Ambient & Acid Exoticism 1983​-​1990 (2021) [FLAC] {BJR059CD}\10. Mecánica Popular - Impresionistas 1.wav

Peak level 96.6 %
Extraction speed 1.0 X
Track quality 99.4 %
Test CRC FA12819D
Copy CRC FA12819D
Track not present in AccurateRip database
Copy OK

Track 11

Filename X:\Various\La Ola Interior꞉ Spanish Ambient & Acid Exoticism 1983​-​1990 (2021) [FLAC] {BJR059CD}\11. Finis Africae - Hombres Lluvia.wav

Peak level 96.6 %
Extraction speed 4.6 X
Track quality 99.9 %
Test CRC FE928AD2
Copy CRC FE928AD2
Track not present in AccurateRip database
Copy OK

Track 12

Filename X:\Various\La Ola Interior꞉ Spanish Ambient & Acid Exoticism 1983​-​1990 (2021) [FLAC] {BJR059CD}\12. Esplendor Geométrico - Sheikh.wav

Peak level 96.7 %
Extraction speed 4.9 X
Track quality 99.9 %
Test CRC 454318C5
Copy CRC 454318C5
Track not present in AccurateRip database
Copy OK

Track 13

Filename X:\Various\La Ola Interior꞉ Spanish Ambient & Acid Exoticism 1983​-​1990 (2021) [FLAC] {BJR059CD}\13. Víctor Nubla - Chandernagor.wav

Peak level 96.6 %
Extraction speed 5.8 X
Track quality 100.0 %
Test CRC AF8586AD
Copy CRC AF8586AD
Track not present in AccurateRip database
Copy OK

Track 14

Filename X:\Various\La Ola Interior꞉ Spanish Ambient & Acid Exoticism 1983​-​1990 (2021) [FLAC] {BJR059CD}\14. Luís Delgado - El Llanto de Nouronihar.wav

Peak level 68.1 %
Extraction speed 6.6 X
Track quality 100.0 %
Test CRC 2C829919
Copy CRC 2C829919
Track not present in AccurateRip database
Copy OK

Track 15

Filename X:\Various\La Ola Interior꞉ Spanish Ambient & Acid Exoticism 1983​-​1990 (2021) [FLAC] {BJR059CD}\15. Camino al Desván - Adjudicado a la Danza.wav

Peak level 79.3 %
Extraction speed 6.2 X
Track quality 100.0 %
Test CRC 9B05ED2B
Copy CRC 9B05ED2B
Track not present in AccurateRip database
Copy OK

Track 16

Filename X:\Various\La Ola Interior꞉ Spanish Ambient & Acid Exoticism 1983​-​1990 (2021) [FLAC] {BJR059CD}\16. Mataparda - Me Llena la Cachimba.wav

Peak level 96.9 %
Extraction speed 3.3 X
Track quality 99.8 %
Test CRC 056623F2
Copy CRC 056623F2
Track not present in AccurateRip database
Copy OK

Track 17

Filename X:\Various\La Ola Interior꞉ Spanish Ambient & Acid Exoticism 1983​-​1990 (2021) [FLAC] {BJR059CD}\17. Suso Sáiz - Horizonte Paseo.wav

Peak level 95.4 %
Extraction speed 6.1 X
Track quality 99.9 %
Test CRC A32041BE
Copy CRC A32041BE
Track not present in AccurateRip database
Copy OK

Track 18

Filename X:\Various\La Ola Interior꞉ Spanish Ambient & Acid Exoticism 1983​-​1990 (2021) [FLAC] {BJR059CD}\18. Camino al Desván - Fock Intimida a Gordi.wav

Peak level 84.9 %
Extraction speed 7.2 X
Track quality 100.0 %
Test CRC C669EA4C
Copy CRC C669EA4C
Track not present in AccurateRip database
Copy OK

Track 19

Filename X:\Various\La Ola Interior꞉ Spanish Ambient & Acid Exoticism 1983​-​1990 (2021) [FLAC] {BJR059CD}\19. Mataparda - La Papa Suave.wav

Peak level 80.4 %
Extraction speed 6.1 X
Track quality 100.0 %
Test CRC B04C563E
Copy CRC B04C563E
Track not present in AccurateRip database
Copy OK

Track 20

Filename X:\Various\La Ola Interior꞉ Spanish Ambient & Acid Exoticism 1983​-​1990 (2021) [FLAC] {BJR059CD}\20. Eli Gras - Flu.wav

Peak level 74.2 %
Extraction speed 5.7 X
Track quality 99.9 %
Test CRC CCC38547
Copy CRC CCC38547
Track not present in AccurateRip database
Copy OK


None of the tracks are present in the AccurateRip database

No errors occurred

End of status report

–– CUETools DB Plugin V2.1.6

[CTDB TOCID: HdU595JPWFxaGNxUXPzDI8HIbhg-] found
Submit result: HdU595JPWFxaGNxUXPzDI8HIbhg- has been confirmed
Track | CTDB Status
1 | (1/1) Accurately ripped
2 | (1/1) Accurately ripped
3 | (1/1) Accurately ripped
4 | (1/1) Accurately ripped
5 | (1/1) Accurately ripped
6 | (1/1) Accurately ripped
7 | (1/1) Accurately ripped
8 | (1/1) Accurately ripped
9 | (1/1) Accurately ripped
10 | (1/1) Accurately ripped
11 | (1/1) Accurately ripped
12 | (1/1) Accurately ripped
13 | (1/1) Accurately ripped
14 | (1/1) Accurately ripped
15 | (1/1) Accurately ripped
16 | (1/1) Accurately ripped
17 | (1/1) Accurately ripped
18 | (1/1) Accurately ripped
19 | (1/1) Accurately ripped
20 | (1/1) Accurately ripped


==== Log checksum B19AF7116136BB7016218A3560946DF81E58F98B93702D51D908B44B77E82CCC ====

Thanks to the Original ripper !