Tags
Language
Tags

VA - Sumer Is Icumen In: The Pagan Sound of British & Irish Folk 1966-1975 (2020)

Posted By: delpotro
VA - Sumer Is Icumen In: The Pagan Sound of British & Irish Folk 1966-1975 (2020)

VA - Sumer Is Icumen In: The Pagan Sound of British & Irish Folk 1966-1975 (2020)
EAC Rip | FLAC (tracks+log+.cue) - 1,2 Gb | MP3 CBR 320 kbps - 540 Mb | Covers - 31 Mb | 03:55:39
Folk | Label: Cherry Red Records, Grapefruit Records

Released in 2015, Grapefruit’s 3-CD multi-artist British underground folk compilation Dust On The Nettles was widely praised, with a five-star review in The Times hailing it as “a delight from beginning to end”. A long-overdue follow up to that set, Sumer Is Icumen In tightens the mesh by focusing on the point when traditional folksong and the burgeoning late Sixties counterculture collided, largely courtesy of seminal acts like the Incredible String Band, Fairport Convention and Pentangle.

As Steeleye Span’s Martin Carthy commented at the time, the scene had a strong pagan feel, dark and elemental, and progressive folk bands like Dr. Strangely Strange, Comus and Third Ear Band (who performed with the druids in dawn solstice ceremonies at Glastonbury Tor) were active at the same time as folklorists like Mr. Fox pair Bob & Carole Pegg and fellow husband-and-wife team Dave & Toni Arthur, whose commitment to the cause saw them dancing naked at a coven led by ‘King of the Witches’, the notorious Alex Sanders.

Showcasing all of the above names as well as a supporting cast that ranges from Mike Oldfield and Marc Bolan to unsigned bands who recorded demos in a barn, Sumer Is Icumen In features four hours of Albion hymns ancient and modern, including three previously unreleased cuts. “Housed in a stylish clamshell box, it includes a 40-page booklet with track-by-track annotation, numerous band quotes and some very rare photos.

The result is a secret glade in a darkly pagan woodland that’s peppered with invocations of corn gods, wicker men, bright Phoebus and other non-Christian deities; magickal tales of daemons, sorcerers, false knights and faerie queens; the medieval England myths, legends and traditions of the May Queen, John Barleycorn and the Green Man; paeans to the natural world and the rhythm of the passing seasons; fables of sanctuary stones, scarecrows and buried villages alongside dread stories of purgatory, sacrifice, rape, bestiality and murder.
Tracklist:
Disc 1
1. Third Ear Band – Lark Rise
2. Magnet – Corn Rigs
3. Traffic – John Barleycorn
4. Midwinter – Sanctuary Stone
5. Vulcan's Hammer – The Keys Of Canterbury
6. The Celebrated Ratliffe Stout Band – The Wood-Gathering Man
7. Steeleye Span – Twa Corbies
8. Folkal Point – Lovely John
9. Strawbs – Canon Dale (Alternative Version)
10. Kevin Coyne – White Horse
11. Meic Stevens – Yorric
12. The Young Tradition – Lyke Wake Dirge
13. Amber – Swan In The Evening
14. Synanthesia – Minerva
15. The Minor Birds – The Parting Glass
16. Parameter – Virgin Childe
17. Carolanne Pegg – The Sapphire
18. Dry Heart – Cabin On The Clifftop
19. Mighty Baby – Winter Passes
20. Mike Oldfield – On Horseback

Disc 2
1. Fairport Convention – Tam Lin
2. Gallery – Let No Man Steal Your Thyme
3. Tim Hart & Maddy Prior – False Knight On The Road
3. Lal Waterson – The Scarecrow (Demo Version)
5. Chimera – Silver Man
6. Shirley Collins & The Albion Country Band – The White Hare
7. Horden Raikes – Mad Tom Of Bedlam
8. The Sallyangie – The Song Of The Healer
9. Bridget St. John – Lizard-Long-Tonque-Boy (Alternative Version)
10. DR. Strangely Strange – Strings In The Earth And Air
11. Jan Dukes De Grey – Sorcerers
12. Dave & Toni Arthur – Green Grass
13. Simon Finn – Where's Your Master Gone?
14. Oberon – Nottamun Town
15. Fresh Maggots – The House Carpenter
16. J.P. Sunshine – Hand In Hand
17. Comus – The Bite
18. The Sun Also Rises – Death
19. Tea & Symphony – Winter
20. Principal Edwards Magic Theatre – Autumn Lady Dancing Song
21. Anne Briggs – Summer's In

Disc 3
1. Stone Angel – The Bells Of Dunwich
2. Pentangle – Cruel Sister
3. Incredible String Band – Witches Hat
4. Archie Fisher – Reynerdine
5. Mellow Candle – The Poet And The Witch
6. Curved Air – Elfin Boy
7. Sweeney's Men – Pretty Polly
8. Parke – Three Ravens
9. Green Man – Salisbury Plain
10. Spriguns Of Tolgus – Flodden Field
11. The MacDonald Folk Group – Geordie
12. Michael Raven & Joan Mills – The Queen Of The Night
13. George Deacon & Marion Ross – Holsworthy Peter's Fair
14. Staverton Bridge – Captain Wedderburn's Courtship
15. Shirley Kent – Butterfly On The Shore
16. Marc Bolan – Eastern Spell
17. Heather, Adrian & John – The Lark In The Morning
18. The Coterie – Scarborough Fair
19. Mr. Fox – Mendle
20. Choir Unnamed – Sumer Is A-Cumin In

Exact Audio Copy V1.2 from 12. August 2016

EAC extraction logfile from 11. January 2021, 16:44

Various Artists / Sumer Is Icumen In The Pagan Sound Of British And Irish Folk CD1

Used drive : HL-DT-STDVD+-RW GU90N Adapter: 1 ID: 1

Read mode : Secure
Utilize accurate stream : Yes
Defeat audio cache : Yes
Make use of C2 pointers : No

Read offset correction : 102
Overread into Lead-In and Lead-Out : No
Fill up missing offset samples with silence : Yes
Delete leading and trailing silent blocks : No
Null samples used in CRC calculations : Yes
Used interface : Native Win32 interface for Win NT & 2000
Gap handling : Appended to previous track

Used output format : User Defined Encoder
Selected bitrate : 1024 kBit/s
Quality : High
Add ID3 tag : No
Command line compressor : C:\Program Files (x86)\Exact Audio Copy\Flac\flac.exe
Additional command line options : -8 -V -T "ARTIST=%artist%" -T "TITLE=%title%" -T "ALBUM=%albumtitle%" -T "DATE=%year%" -T "TRACKNUMBER=%tracknr%" -T "GENRE=%genre%" -T "PERFORMER=%albuminterpret%" -T "COMPOSER=%composer%" %haslyrics%–tag-from-file=LYRICS="%lyricsfile%"%haslyrics% -T "ALBUMARTIST=%albumartist%" -T "DISCNUMBER=%cdnumber%" -T "TOTALDISCS=%totalcds%" -T "TOTALTRACKS=%numtracks%" -T "COMMENT=%comment%" %source% -o %dest%


TOC of the extracted CD

Track | Start | Length | Start sector | End sector
––––––––––––––––––––––––––––-
1 | 0:00.00 | 2:50.51 | 0 | 12800
2 | 2:50.51 | 2:38.58 | 12801 | 24708
3 | 5:29.34 | 6:23.33 | 24709 | 53466
4 | 11:52.67 | 4:09.43 | 53467 | 72184
5 | 16:02.35 | 5:45.18 | 72185 | 98077
6 | 21:47.53 | 2:29.52 | 98078 | 109304
7 | 24:17.30 | 2:07.72 | 109305 | 118901
8 | 26:25.27 | 2:28.43 | 118902 | 130044
9 | 28:53.70 | 3:41.57 | 130045 | 146676
10 | 32:35.52 | 4:14.10 | 146677 | 165736
11 | 36:49.62 | 8:48.21 | 165737 | 205357
12 | 45:38.08 | 2:47.18 | 205358 | 217900
13 | 48:25.26 | 4:38.18 | 217901 | 238768
14 | 53:03.44 | 4:15.68 | 238769 | 257961
15 | 57:19.37 | 3:49.06 | 257962 | 275142
16 | 61:08.43 | 2:52.04 | 275143 | 288046
17 | 64:00.47 | 3:59.38 | 288047 | 306009
18 | 68:00.10 | 3:49.10 | 306010 | 323194
19 | 71:49.20 | 3:11.60 | 323195 | 337579
20 | 75:01.05 | 3:23.32 | 337580 | 352836


Track 1

Filename C:\Users\ian\Desktop\VA - Sumer Is Icumen In The Pagan Sound Of British And Irish Folk 1966-1975 (2020) [FLAC] {3CD}\Sumer Is Icumen In The Pagan Sound Of British And Irish Folk CD1\01 - Third Ear Band - Lark Rise.wav

Pre-gap length 0:00:02.00

Peak level 96.6 %
Extraction speed 1.1 X
Track quality 100.0 %
Test CRC D913613A
Copy CRC D913613A
Copy OK

Track 2

Filename C:\Users\ian\Desktop\VA - Sumer Is Icumen In The Pagan Sound Of British And Irish Folk 1966-1975 (2020) [FLAC] {3CD}\Sumer Is Icumen In The Pagan Sound Of British And Irish Folk CD1\02 - Magnet - Corn Rigs.wav

Pre-gap length 0:00:02.00

Peak level 86.1 %
Extraction speed 1.2 X
Track quality 100.0 %
Test CRC 48FC81E9
Copy CRC 48FC81E9
Copy OK

Track 3

Filename C:\Users\ian\Desktop\VA - Sumer Is Icumen In The Pagan Sound Of British And Irish Folk 1966-1975 (2020) [FLAC] {3CD}\Sumer Is Icumen In The Pagan Sound Of British And Irish Folk CD1\03 - Traffic - John Barleycorn.wav

Pre-gap length 0:00:02.00

Peak level 96.6 %
Extraction speed 1.4 X
Track quality 99.9 %
Test CRC B99F146D
Copy CRC B99F146D
Copy OK

Track 4

Filename C:\Users\ian\Desktop\VA - Sumer Is Icumen In The Pagan Sound Of British And Irish Folk 1966-1975 (2020) [FLAC] {3CD}\Sumer Is Icumen In The Pagan Sound Of British And Irish Folk CD1\04 - Midwinter - Sanctuary Stone.wav

Pre-gap length 0:00:02.00

Peak level 96.6 %
Extraction speed 1.6 X
Track quality 100.0 %
Test CRC 552519AA
Copy CRC 552519AA
Copy OK

Track 5

Filename C:\Users\ian\Desktop\VA - Sumer Is Icumen In The Pagan Sound Of British And Irish Folk 1966-1975 (2020) [FLAC] {3CD}\Sumer Is Icumen In The Pagan Sound Of British And Irish Folk CD1\05 - Vulcans Hammer - The Keys Of Canterbury.wav

Pre-gap length 0:00:02.00

Peak level 96.6 %
Extraction speed 1.7 X
Track quality 100.0 %
Test CRC 3493960A
Copy CRC 3493960A
Copy OK

Track 6

Filename C:\Users\ian\Desktop\VA - Sumer Is Icumen In The Pagan Sound Of British And Irish Folk 1966-1975 (2020) [FLAC] {3CD}\Sumer Is Icumen In The Pagan Sound Of British And Irish Folk CD1\06 - The Celebrated Ratliffe Stout Band - The Wood-Gathering

Pre-gap length 0:00:02.00

Peak level 96.6 %
Extraction speed 1.4 X
Track quality 99.9 %
Test CRC ECC42DD6
Copy CRC ECC42DD6
Copy OK

Track 7

Filename C:\Users\ian\Desktop\VA - Sumer Is Icumen In The Pagan Sound Of British And Irish Folk 1966-1975 (2020) [FLAC] {3CD}\Sumer Is Icumen In The Pagan Sound Of British And Irish Folk CD1\07 - Steeleye Span - Twa Corbies.wav

Pre-gap length 0:00:02.00

Peak level 96.6 %
Extraction speed 1.6 X
Track quality 100.0 %
Test CRC 8095A008
Copy CRC 8095A008
Copy OK

Track 8

Filename C:\Users\ian\Desktop\VA - Sumer Is Icumen In The Pagan Sound Of British And Irish Folk 1966-1975 (2020) [FLAC] {3CD}\Sumer Is Icumen In The Pagan Sound Of British And Irish Folk CD1\08 - Folkal Point - Lovely John.wav

Pre-gap length 0:00:02.00

Peak level 96.6 %
Extraction speed 1.7 X
Track quality 100.0 %
Test CRC 740C3521
Copy CRC 740C3521
Copy OK

Track 9

Filename C:\Users\ian\Desktop\VA - Sumer Is Icumen In The Pagan Sound Of British And Irish Folk 1966-1975 (2020) [FLAC] {3CD}\Sumer Is Icumen In The Pagan Sound Of British And Irish Folk CD1\09 - Strawbs - Canon Dale (Alternative Version).wav

Pre-gap length 0:00:02.00

Peak level 96.6 %
Extraction speed 1.7 X
Track quality 99.9 %
Test CRC 5844538B
Copy CRC 5844538B
Copy OK

Track 10

Filename C:\Users\ian\Desktop\VA - Sumer Is Icumen In The Pagan Sound Of British And Irish Folk 1966-1975 (2020) [FLAC] {3CD}\Sumer Is Icumen In The Pagan Sound Of British And Irish Folk CD1\10 - Kevin Coyne - White Horse.wav

Pre-gap length 0:00:02.01

Peak level 96.6 %
Extraction speed 2.0 X
Track quality 100.0 %
Test CRC 1D12F9E2
Copy CRC 1D12F9E2
Copy OK

Track 11

Filename C:\Users\ian\Desktop\VA - Sumer Is Icumen In The Pagan Sound Of British And Irish Folk 1966-1975 (2020) [FLAC] {3CD}\Sumer Is Icumen In The Pagan Sound Of British And Irish Folk CD1\11 - Meic Stevens - Yorric.wav

Pre-gap length 0:00:02.00

Peak level 96.6 %
Extraction speed 2.3 X
Track quality 100.0 %
Test CRC 3700E404
Copy CRC 3700E404
Copy OK

Track 12

Filename C:\Users\ian\Desktop\VA - Sumer Is Icumen In The Pagan Sound Of British And Irish Folk 1966-1975 (2020) [FLAC] {3CD}\Sumer Is Icumen In The Pagan Sound Of British And Irish Folk CD1\12 - The Young Tradition - Lyke Wake Dirge.wav

Pre-gap length 0:00:02.00

Peak level 96.6 %
Extraction speed 2.1 X
Track quality 100.0 %
Test CRC D194921C
Copy CRC D194921C
Copy OK

Track 13

Filename C:\Users\ian\Desktop\VA - Sumer Is Icumen In The Pagan Sound Of British And Irish Folk 1966-1975 (2020) [FLAC] {3CD}\Sumer Is Icumen In The Pagan Sound Of British And Irish Folk CD1\13 - Amber - Swan In The Evening.wav

Pre-gap length 0:00:02.00

Peak level 96.6 %
Extraction speed 2.1 X
Track quality 99.9 %
Test CRC 0F0910DA
Copy CRC 0F0910DA
Copy OK

Track 14

Filename C:\Users\ian\Desktop\VA - Sumer Is Icumen In The Pagan Sound Of British And Irish Folk 1966-1975 (2020) [FLAC] {3CD}\Sumer Is Icumen In The Pagan Sound Of British And Irish Folk CD1\14 - Synanthesia - Minerva.wav

Pre-gap length 0:00:02.00

Peak level 96.6 %
Extraction speed 2.3 X
Track quality 100.0 %
Test CRC 666F751E
Copy CRC 666F751E
Copy OK

Track 15

Filename C:\Users\ian\Desktop\VA - Sumer Is Icumen In The Pagan Sound Of British And Irish Folk 1966-1975 (2020) [FLAC] {3CD}\Sumer Is Icumen In The Pagan Sound Of British And Irish Folk CD1\15 - The Minor Birds - The Parting Glass.wav

Pre-gap length 0:00:02.00

Peak level 96.6 %
Extraction speed 2.1 X
Track quality 99.9 %
Test CRC ED5896A3
Copy CRC ED5896A3
Copy OK

Track 16

Filename C:\Users\ian\Desktop\VA - Sumer Is Icumen In The Pagan Sound Of British And Irish Folk 1966-1975 (2020) [FLAC] {3CD}\Sumer Is Icumen In The Pagan Sound Of British And Irish Folk CD1\16 - Parameter - Virgin Childe.wav

Pre-gap length 0:00:02.00

Peak level 96.6 %
Extraction speed 2.3 X
Track quality 100.0 %
Test CRC 0FCD328F
Copy CRC 0FCD328F
Copy OK

Track 17

Filename C:\Users\ian\Desktop\VA - Sumer Is Icumen In The Pagan Sound Of British And Irish Folk 1966-1975 (2020) [FLAC] {3CD}\Sumer Is Icumen In The Pagan Sound Of British And Irish Folk CD1\17 - Carolanne Pegg - The Sapphire.wav

Pre-gap length 0:00:03.00

Peak level 96.6 %
Extraction speed 2.5 X
Track quality 100.0 %
Test CRC 2DBC7B9A
Copy CRC 2DBC7B9A
Copy OK

Track 18

Filename C:\Users\ian\Desktop\VA - Sumer Is Icumen In The Pagan Sound Of British And Irish Folk 1966-1975 (2020) [FLAC] {3CD}\Sumer Is Icumen In The Pagan Sound Of British And Irish Folk CD1\18 - Dry Heart - Cabin On The Clifftop.wav

Pre-gap length 0:00:03.00

Peak level 96.6 %
Extraction speed 2.5 X
Track quality 100.0 %
Test CRC 2B3CA77F
Copy CRC 2B3CA77F
Copy OK

Track 19

Filename C:\Users\ian\Desktop\VA - Sumer Is Icumen In The Pagan Sound Of British And Irish Folk 1966-1975 (2020) [FLAC] {3CD}\Sumer Is Icumen In The Pagan Sound Of British And Irish Folk CD1\19 - Mighty Baby - Winter Passes.wav

Pre-gap length 0:00:03.00

Peak level 96.6 %
Extraction speed 2.5 X
Track quality 100.0 %
Test CRC 17BAEA95
Copy CRC 17BAEA95
Copy OK

Track 20

Filename C:\Users\ian\Desktop\VA - Sumer Is Icumen In The Pagan Sound Of British And Irish Folk 1966-1975 (2020) [FLAC] {3CD}\Sumer Is Icumen In The Pagan Sound Of British And Irish Folk CD1\20 - Mike Oldfield - On Horseback.wav

Pre-gap length 0:00:03.00

Peak level 96.6 %
Extraction speed 2.5 X
Track quality 100.0 %
Test CRC E2C9CDB0
Copy CRC E2C9CDB0
Copy OK

No errors occurred

End of status report

–– CUETools DB Plugin V2.1.6

[CTDB TOCID: Teex0OM0sL0CJhj12yiTTwprcAE-] found
Submit result: Teex0OM0sL0CJhj12yiTTwprcAE- has been confirmed
Track | CTDB Status
1 | (6/6) Accurately ripped
2 | (6/6) Accurately ripped
3 | (6/6) Accurately ripped
4 | (6/6) Accurately ripped
5 | (6/6) Accurately ripped
6 | (6/6) Accurately ripped
7 | (6/6) Accurately ripped
8 | (6/6) Accurately ripped
9 | (6/6) Accurately ripped
10 | (6/6) Accurately ripped
11 | (6/6) Accurately ripped
12 | (6/6) Accurately ripped
13 | (6/6) Accurately ripped
14 | (6/6) Accurately ripped
15 | (6/6) Accurately ripped
16 | (6/6) Accurately ripped
17 | (6/6) Accurately ripped
18 | (6/6) Accurately ripped
19 | (6/6) Accurately ripped
20 | (6/6) Accurately ripped


==== Log checksum 56C3D38E8FE5D7CB9088D0812F9EFE0FC4C26D2D5DABE14E16E6482872745752 ====




Exact Audio Copy V1.2 from 12. August 2016

EAC extraction logfile from 11. January 2021, 20:34

Various Artists / Sumer Is Icumen In The Pagan Sound Of British And Irish Folk CD2

Used drive : HL-DT-STDVD+-RW GU90N Adapter: 1 ID: 1

Read mode : Secure
Utilize accurate stream : Yes
Defeat audio cache : Yes
Make use of C2 pointers : No

Read offset correction : 102
Overread into Lead-In and Lead-Out : No
Fill up missing offset samples with silence : Yes
Delete leading and trailing silent blocks : No
Null samples used in CRC calculations : Yes
Used interface : Native Win32 interface for Win NT & 2000
Gap handling : Appended to previous track

Used output format : User Defined Encoder
Selected bitrate : 1024 kBit/s
Quality : High
Add ID3 tag : No
Command line compressor : C:\Program Files (x86)\Exact Audio Copy\Flac\flac.exe
Additional command line options : -8 -V -T "ARTIST=%artist%" -T "TITLE=%title%" -T "ALBUM=%albumtitle%" -T "DATE=%year%" -T "TRACKNUMBER=%tracknr%" -T "GENRE=%genre%" -T "PERFORMER=%albuminterpret%" -T "COMPOSER=%composer%" %haslyrics%–tag-from-file=LYRICS="%lyricsfile%"%haslyrics% -T "ALBUMARTIST=%albumartist%" -T "DISCNUMBER=%cdnumber%" -T "TOTALDISCS=%totalcds%" -T "TOTALTRACKS=%numtracks%" -T "COMMENT=%comment%" %source% -o %dest%


TOC of the extracted CD

Track | Start | Length | Start sector | End sector
––––––––––––––––––––––––––––-
1 | 0:00.00 | 7:14.34 | 0 | 32583
2 | 7:14.34 | 2:31.74 | 32584 | 43982
3 | 9:46.33 | 3:01.38 | 43983 | 57595
4 | 12:47.71 | 3:49.27 | 57596 | 74797
5 | 16:37.23 | 2:54.30 | 74798 | 87877
6 | 19:31.53 | 2:45.10 | 87878 | 100262
7 | 22:16.63 | 3:50.30 | 100263 | 117542
8 | 26:07.18 | 3:05.27 | 117543 | 131444
9 | 29:12.45 | 3:10.66 | 131445 | 145760
10 | 32:23.36 | 1:53.36 | 145761 | 154271
11 | 34:16.72 | 2:43.25 | 154272 | 166521
12 | 37:00.22 | 1:53.35 | 166522 | 175031
13 | 38:53.57 | 3:15.02 | 175032 | 189658
14 | 42:08.59 | 4:44.21 | 189659 | 210979
15 | 46:53.05 | 2:40.70 | 210980 | 223049
16 | 49:34.00 | 1:52.29 | 223050 | 231478
17 | 51:26.29 | 5:29.09 | 231479 | 256162
18 | 56:55.38 | 6:37.73 | 256163 | 286010
19 | 63:33.36 | 3:23.34 | 286011 | 301269
20 | 66:56.70 | 6:50.50 | 301270 | 332069
21 | 73:47.45 | 5:14.24 | 332070 | 355643


Track 1

Filename C:\Users\ian\Desktop\VA - Sumer Is Icumen In The Pagan Sound Of British And Irish Folk 1966-1975 (2020) [FLAC] {3CD}\Sumer Is Icumen In The Pagan Sound Of British And Irish Folk CD2\01 - Fairport Convention - Tam Lin.wav

Pre-gap length 0:00:02.00

Peak level 96.6 %
Extraction speed 1.4 X
Track quality 100.0 %
Test CRC 9259157E
Copy CRC 9259157E
Copy OK

Track 2

Filename C:\Users\ian\Desktop\VA - Sumer Is Icumen In The Pagan Sound Of British And Irish Folk 1966-1975 (2020) [FLAC] {3CD}\Sumer Is Icumen In The Pagan Sound Of British And Irish Folk CD2\02 - Gallery - Let No Man Steal Your Thyme.wav

Pre-gap length 0:00:02.00

Peak level 86.3 %
Extraction speed 1.3 X
Track quality 100.0 %
Test CRC 0CC96193
Copy CRC 0CC96193
Copy OK

Track 3

Filename C:\Users\ian\Desktop\VA - Sumer Is Icumen In The Pagan Sound Of British And Irish Folk 1966-1975 (2020) [FLAC] {3CD}\Sumer Is Icumen In The Pagan Sound Of British And Irish Folk CD2\03 - Tim Hart And Maddy Prior - False Knight On The Road.wav

Pre-gap length 0:00:02.00

Peak level 96.6 %
Extraction speed 1.4 X
Track quality 100.0 %
Test CRC B277468A
Copy CRC B277468A
Copy OK

Track 4

Filename C:\Users\ian\Desktop\VA - Sumer Is Icumen In The Pagan Sound Of British And Irish Folk 1966-1975 (2020) [FLAC] {3CD}\Sumer Is Icumen In The Pagan Sound Of British And Irish Folk CD2\04 - Lal Waterson - The Scarecrow (Demo Version).wav

Pre-gap length 0:00:02.00

Peak level 96.6 %
Extraction speed 1.6 X
Track quality 100.0 %
Test CRC 5EFE3B1A
Copy CRC 5EFE3B1A
Copy OK

Track 5

Filename C:\Users\ian\Desktop\VA - Sumer Is Icumen In The Pagan Sound Of British And Irish Folk 1966-1975 (2020) [FLAC] {3CD}\Sumer Is Icumen In The Pagan Sound Of British And Irish Folk CD2\05 - Chimera - Silver Man.wav

Pre-gap length 0:00:02.00

Peak level 93.0 %
Extraction speed 1.6 X
Track quality 100.0 %
Test CRC AF34CBBB
Copy CRC AF34CBBB
Copy OK

Track 6

Filename C:\Users\ian\Desktop\VA - Sumer Is Icumen In The Pagan Sound Of British And Irish Folk 1966-1975 (2020) [FLAC] {3CD}\Sumer Is Icumen In The Pagan Sound Of British And Irish Folk CD2\06 - Shirley Collins And The Albion Country Band - The White

Pre-gap length 0:00:02.00

Peak level 96.6 %
Extraction speed 1.6 X
Track quality 100.0 %
Test CRC 3D0D83DF
Copy CRC 3D0D83DF
Copy OK

Track 7

Filename C:\Users\ian\Desktop\VA - Sumer Is Icumen In The Pagan Sound Of British And Irish Folk 1966-1975 (2020) [FLAC] {3CD}\Sumer Is Icumen In The Pagan Sound Of British And Irish Folk CD2\07 - Horden Raikes - Mad Tom Of Bedlam.wav

Pre-gap length 0:00:03.00

Peak level 96.6 %
Extraction speed 1.6 X
Track quality 99.9 %
Test CRC 9599D5B3
Copy CRC 9599D5B3
Copy OK

Track 8

Filename C:\Users\ian\Desktop\VA - Sumer Is Icumen In The Pagan Sound Of British And Irish Folk 1966-1975 (2020) [FLAC] {3CD}\Sumer Is Icumen In The Pagan Sound Of British And Irish Folk CD2\08 - The Sallyangie - The Song Of The Healer.wav

Pre-gap length 0:00:03.00

Peak level 96.6 %
Extraction speed 1.8 X
Track quality 100.0 %
Test CRC 4A4B227C
Copy CRC 4A4B227C
Copy OK

Track 9

Filename C:\Users\ian\Desktop\VA - Sumer Is Icumen In The Pagan Sound Of British And Irish Folk 1966-1975 (2020) [FLAC] {3CD}\Sumer Is Icumen In The Pagan Sound Of British And Irish Folk CD2\09 - Bridget St John - Lizard Long Tonque Boy (Alternative Ve

Pre-gap length 0:00:03.00

Peak level 87.0 %
Extraction speed 1.6 X
Track quality 99.9 %
Test CRC FD22A783
Copy CRC FD22A783
Copy OK

Track 10

Filename C:\Users\ian\Desktop\VA - Sumer Is Icumen In The Pagan Sound Of British And Irish Folk 1966-1975 (2020) [FLAC] {3CD}\Sumer Is Icumen In The Pagan Sound Of British And Irish Folk CD2\10 - DR Strangely Strange - Strings In The Earth And Air.wav

Pre-gap length 0:00:02.00

Peak level 87.7 %
Extraction speed 1.7 X
Track quality 100.0 %
Test CRC A4214471
Copy CRC A4214471
Copy OK

Track 11

Filename C:\Users\ian\Desktop\VA - Sumer Is Icumen In The Pagan Sound Of British And Irish Folk 1966-1975 (2020) [FLAC] {3CD}\Sumer Is Icumen In The Pagan Sound Of British And Irish Folk CD2\11 - Jan Dukes De Grey - Sorcerers.wav

Pre-gap length 0:00:02.00

Peak level 96.6 %
Extraction speed 1.6 X
Track quality 99.9 %
Test CRC 3C9CA5C5
Copy CRC 3C9CA5C5
Copy OK

Track 12

Filename C:\Users\ian\Desktop\VA - Sumer Is Icumen In The Pagan Sound Of British And Irish Folk 1966-1975 (2020) [FLAC] {3CD}\Sumer Is Icumen In The Pagan Sound Of British And Irish Folk CD2\12 - Dave And Toni Arthur - Green Grass.wav

Pre-gap length 0:00:02.00

Peak level 96.6 %
Extraction speed 1.8 X
Track quality 100.0 %
Test CRC F68D5BDB
Copy CRC F68D5BDB
Copy OK

Track 13

Filename C:\Users\ian\Desktop\VA - Sumer Is Icumen In The Pagan Sound Of British And Irish Folk 1966-1975 (2020) [FLAC] {3CD}\Sumer Is Icumen In The Pagan Sound Of British And Irish Folk CD2\13 - Simon Finn - Wheres Your Master Gone.wav

Pre-gap length 0:00:02.00

Peak level 86.1 %
Extraction speed 2.0 X
Track quality 100.0 %
Test CRC EB7C23AC
Copy CRC EB7C23AC
Copy OK

Track 14

Filename C:\Users\ian\Desktop\VA - Sumer Is Icumen In The Pagan Sound Of British And Irish Folk 1966-1975 (2020) [FLAC] {3CD}\Sumer Is Icumen In The Pagan Sound Of British And Irish Folk CD2\14 - Oberon - Nottamun Town.wav

Pre-gap length 0:00:02.00

Peak level 96.6 %
Extraction speed 2.2 X
Track quality 100.0 %
Test CRC 43EF6313
Copy CRC 43EF6313
Copy OK

Track 15

Filename C:\Users\ian\Desktop\VA - Sumer Is Icumen In The Pagan Sound Of British And Irish Folk 1966-1975 (2020) [FLAC] {3CD}\Sumer Is Icumen In The Pagan Sound Of British And Irish Folk CD2\15 - Fresh Maggots - The House Carpenter.wav

Pre-gap length 0:00:02.00

Peak level 91.6 %
Extraction speed 2.1 X
Track quality 100.0 %
Test CRC 3CC0DA1A
Copy CRC 3CC0DA1A
Copy OK

Track 16

Filename C:\Users\ian\Desktop\VA - Sumer Is Icumen In The Pagan Sound Of British And Irish Folk 1966-1975 (2020) [FLAC] {3CD}\Sumer Is Icumen In The Pagan Sound Of British And Irish Folk CD2\16 - JP Sunshine - Hand In Hand.wav

Pre-gap length 0:00:02.90

Peak level 96.6 %
Extraction speed 2.0 X
Track quality 100.0 %
Test CRC 01ED8164
Copy CRC 01ED8164
Copy OK

Track 17

Filename C:\Users\ian\Desktop\VA - Sumer Is Icumen In The Pagan Sound Of British And Irish Folk 1966-1975 (2020) [FLAC] {3CD}\Sumer Is Icumen In The Pagan Sound Of British And Irish Folk CD2\17 - Comus - The Bite.wav

Pre-gap length 0:00:02.89

Peak level 96.6 %
Extraction speed 2.4 X
Track quality 100.0 %
Test CRC 020C42FB
Copy CRC 020C42FB
Copy OK

Track 18

Filename C:\Users\ian\Desktop\VA - Sumer Is Icumen In The Pagan Sound Of British And Irish Folk 1966-1975 (2020) [FLAC] {3CD}\Sumer Is Icumen In The Pagan Sound Of British And Irish Folk CD2\18 - The Sun Also Rises - Death.wav

Pre-gap length 0:00:01.93

Peak level 96.6 %
Extraction speed 2.6 X
Track quality 100.0 %
Test CRC 9E453F40
Copy CRC 9E453F40
Copy OK

Track 19

Filename C:\Users\ian\Desktop\VA - Sumer Is Icumen In The Pagan Sound Of British And Irish Folk 1966-1975 (2020) [FLAC] {3CD}\Sumer Is Icumen In The Pagan Sound Of British And Irish Folk CD2\19 - Tea And Symphony - Winter.wav

Pre-gap length 0:00:01.93

Peak level 90.2 %
Extraction speed 2.4 X
Track quality 100.0 %
Test CRC F65FAD59
Copy CRC F65FAD59
Copy OK

Track 20

Filename C:\Users\ian\Desktop\VA - Sumer Is Icumen In The Pagan Sound Of British And Irish Folk 1966-1975 (2020) [FLAC] {3CD}\Sumer Is Icumen In The Pagan Sound Of British And Irish Folk CD2\20 - Principal Edwards Magic Theatre - Autumn Lady Dancing So

Pre-gap length 0:00:01.92

Peak level 96.6 %
Extraction speed 2.5 X
Track quality 99.9 %
Test CRC D4507644
Copy CRC D4507644
Copy OK

Track 21

Filename C:\Users\ian\Desktop\VA - Sumer Is Icumen In The Pagan Sound Of British And Irish Folk 1966-1975 (2020) [FLAC] {3CD}\Sumer Is Icumen In The Pagan Sound Of British And Irish Folk CD2\21 - Anne Briggs - Summers In.wav

Pre-gap length 0:00:01.93

Peak level 93.8 %
Extraction speed 2.7 X
Track quality 100.0 %
Test CRC 2B721824
Copy CRC 2B721824
Copy OK

No errors occurred

End of status report

–– CUETools DB Plugin V2.1.6

[CTDB TOCID: Ojjmtml5vgbSh_xTroUzuNLaAR8-] database access error: The operation has timed out


==== Log checksum 67D2979C93647510F2E6B39BFE6064894E86A02D7583D14D485662D883E652F2 ====




Exact Audio Copy V1.2 from 12. August 2016

EAC extraction logfile from 12. January 2021, 12:05

Various Artists / Sumer Is Icumen In The Pagan Sound Of British And Irish Folk CD3

Used drive : HL-DT-STDVD+-RW GU90N Adapter: 1 ID: 1

Read mode : Secure
Utilize accurate stream : Yes
Defeat audio cache : Yes
Make use of C2 pointers : No

Read offset correction : 102
Overread into Lead-In and Lead-Out : No
Fill up missing offset samples with silence : Yes
Delete leading and trailing silent blocks : No
Null samples used in CRC calculations : Yes
Used interface : Native Win32 interface for Win NT & 2000
Gap handling : Appended to previous track

Used output format : User Defined Encoder
Selected bitrate : 1024 kBit/s
Quality : High
Add ID3 tag : No
Command line compressor : C:\Program Files (x86)\Exact Audio Copy\Flac\flac.exe
Additional command line options : -8 -V -T "ARTIST=%artist%" -T "TITLE=%title%" -T "ALBUM=%albumtitle%" -T "DATE=%year%" -T "TRACKNUMBER=%tracknr%" -T "GENRE=%genre%" -T "PERFORMER=%albuminterpret%" -T "COMPOSER=%composer%" %haslyrics%–tag-from-file=LYRICS="%lyricsfile%"%haslyrics% -T "ALBUMARTIST=%albumartist%" -T "DISCNUMBER=%cdnumber%" -T "TOTALDISCS=%totalcds%" -T "TOTALTRACKS=%numtracks%" -T "COMMENT=%comment%" %source% -o %dest%


TOC of the extracted CD

Track | Start | Length | Start sector | End sector
––––––––––––––––––––––––––––-
1 | 0:00.00 | 5:57.64 | 0 | 26838
2 | 5:57.64 | 7:04.33 | 26839 | 58671
3 | 13:02.22 | 2:34.28 | 58672 | 70249
4 | 15:36.50 | 2:41.51 | 70250 | 82375
5 | 18:18.26 | 2:53.28 | 82376 | 95378
6 | 21:11.54 | 4:16.50 | 95379 | 114628
7 | 25:28.29 | 4:44.68 | 114629 | 135996
8 | 30:13.22 | 3:19.42 | 135997 | 150963
9 | 33:32.64 | 3:52.48 | 150964 | 168411
10 | 37:25.37 | 6:42.64 | 168412 | 198625
11 | 44:08.26 | 3:13.26 | 198626 | 213126
12 | 47:21.52 | 2:25.71 | 213127 | 224072
13 | 49:47.48 | 4:38.12 | 224073 | 244934
14 | 54:25.60 | 2:50.16 | 244935 | 257700
15 | 57:16.01 | 4:00.74 | 257701 | 275774
16 | 61:17.00 | 1:27.14 | 275775 | 282313
17 | 62:44.14 | 2:44.38 | 282314 | 294651
18 | 65:28.52 | 3:50.08 | 294652 | 311909
19 | 69:18.60 | 7:21.05 | 311910 | 344989
20 | 76:39.65 | 1:33.43 | 344990 | 352007


Track 1

Filename C:\Users\ian\Desktop\VA - Sumer Is Icumen In The Pagan Sound Of British And Irish Folk 1966-1975 (2020) [FLAC] {3CD}\Sumer Is Icumen In The Pagan Sound Of British And Irish Folk CD3\01 - Stone Angel - The Bells Of Dunwich.wav

Pre-gap length 0:00:02.00

Peak level 96.6 %
Extraction speed 1.3 X
Track quality 100.0 %
Test CRC 43109247
Copy CRC 43109247
Copy OK

Track 2

Filename C:\Users\ian\Desktop\VA - Sumer Is Icumen In The Pagan Sound Of British And Irish Folk 1966-1975 (2020) [FLAC] {3CD}\Sumer Is Icumen In The Pagan Sound Of British And Irish Folk CD3\02 - Pentangle - Cruel Sister.wav

Pre-gap length 0:00:02.00

Peak level 96.6 %
Extraction speed 1.5 X
Track quality 100.0 %
Test CRC B24E2210
Copy CRC B24E2210
Copy OK

Track 3

Filename C:\Users\ian\Desktop\VA - Sumer Is Icumen In The Pagan Sound Of British And Irish Folk 1966-1975 (2020) [FLAC] {3CD}\Sumer Is Icumen In The Pagan Sound Of British And Irish Folk CD3\03 - Incredible String Band - Witches Hat.wav

Pre-gap length 0:00:02.00

Peak level 87.4 %
Extraction speed 1.2 X
Track quality 99.9 %
Test CRC 680118CC
Copy CRC 680118CC
Copy OK

Track 4

Filename C:\Users\ian\Desktop\VA - Sumer Is Icumen In The Pagan Sound Of British And Irish Folk 1966-1975 (2020) [FLAC] {3CD}\Sumer Is Icumen In The Pagan Sound Of British And Irish Folk CD3\04 - Archie Fisher - Reynerdine.wav

Pre-gap length 0:00:02.00

Peak level 96.6 %
Extraction speed 1.3 X
Track quality 99.9 %
Test CRC B10A3315
Copy CRC B10A3315
Copy OK

Track 5

Filename C:\Users\ian\Desktop\VA - Sumer Is Icumen In The Pagan Sound Of British And Irish Folk 1966-1975 (2020) [FLAC] {3CD}\Sumer Is Icumen In The Pagan Sound Of British And Irish Folk CD3\05 - Mellow Candle - The Poet And The Witch.wav

Pre-gap length 0:00:02.00

Peak level 96.6 %
Extraction speed 1.6 X
Track quality 100.0 %
Test CRC EB6218C7
Copy CRC EB6218C7
Copy OK

Track 6

Filename C:\Users\ian\Desktop\VA - Sumer Is Icumen In The Pagan Sound Of British And Irish Folk 1966-1975 (2020) [FLAC] {3CD}\Sumer Is Icumen In The Pagan Sound Of British And Irish Folk CD3\06 - Curved Air - Elfin Boy.wav

Pre-gap length 0:00:02.00

Peak level 96.6 %
Extraction speed 1.8 X
Track quality 100.0 %
Test CRC 5444B9CB
Copy CRC 5444B9CB
Copy OK

Track 7

Filename C:\Users\ian\Desktop\VA - Sumer Is Icumen In The Pagan Sound Of British And Irish Folk 1966-1975 (2020) [FLAC] {3CD}\Sumer Is Icumen In The Pagan Sound Of British And Irish Folk CD3\07 - Sweeneys Men - Pretty Polly.wav

Pre-gap length 0:00:02.00

Peak level 96.6 %
Extraction speed 1.9 X
Track quality 100.0 %
Test CRC 0F732B2F
Copy CRC 0F732B2F
Copy OK

Track 8

Filename C:\Users\ian\Desktop\VA - Sumer Is Icumen In The Pagan Sound Of British And Irish Folk 1966-1975 (2020) [FLAC] {3CD}\Sumer Is Icumen In The Pagan Sound Of British And Irish Folk CD3\08 - Parke - Three Ravens.wav

Pre-gap length 0:00:03.00

Peak level 84.9 %
Extraction speed 1.7 X
Track quality 99.9 %
Test CRC 9036835E
Copy CRC 9036835E
Copy OK

Track 9

Filename C:\Users\ian\Desktop\VA - Sumer Is Icumen In The Pagan Sound Of British And Irish Folk 1966-1975 (2020) [FLAC] {3CD}\Sumer Is Icumen In The Pagan Sound Of British And Irish Folk CD3\09 - Green Man - Salisbury Plain.wav

Pre-gap length 0:00:03.00

Peak level 96.6 %
Extraction speed 2.0 X
Track quality 100.0 %
Test CRC F6954ADE
Copy CRC F6954ADE
Copy OK

Track 10

Filename C:\Users\ian\Desktop\VA - Sumer Is Icumen In The Pagan Sound Of British And Irish Folk 1966-1975 (2020) [FLAC] {3CD}\Sumer Is Icumen In The Pagan Sound Of British And Irish Folk CD3\10 - Spriguns Of Tolgus - Flodden Field.wav

Pre-gap length 0:00:02.00

Peak level 96.6 %
Extraction speed 2.2 X
Track quality 100.0 %
Test CRC 3D48E475
Copy CRC 3D48E475
Copy OK

Track 11

Filename C:\Users\ian\Desktop\VA - Sumer Is Icumen In The Pagan Sound Of British And Irish Folk 1966-1975 (2020) [FLAC] {3CD}\Sumer Is Icumen In The Pagan Sound Of British And Irish Folk CD3\11 - The MacDonald Folk Group - Geordie.wav

Pre-gap length 0:00:03.00

Peak level 96.6 %
Extraction speed 2.1 X
Track quality 100.0 %
Test CRC 1E2FF55A
Copy CRC 1E2FF55A
Copy OK

Track 12

Filename C:\Users\ian\Desktop\VA - Sumer Is Icumen In The Pagan Sound Of British And Irish Folk 1966-1975 (2020) [FLAC] {3CD}\Sumer Is Icumen In The Pagan Sound Of British And Irish Folk CD3\12 - Michael Raven And Joan Mills - The Queen Of The Night.wa

Pre-gap length 0:00:03.00

Peak level 96.6 %
Extraction speed 2.1 X
Track quality 100.0 %
Test CRC 7A8447DF
Copy CRC 7A8447DF
Copy OK

Track 13

Filename C:\Users\ian\Desktop\VA - Sumer Is Icumen In The Pagan Sound Of British And Irish Folk 1966-1975 (2020) [FLAC] {3CD}\Sumer Is Icumen In The Pagan Sound Of British And Irish Folk CD3\13 - George Deacon And Marion Ross - Holsworthy Peters Fair.w

Pre-gap length 0:00:02.00

Peak level 96.6 %
Extraction speed 2.3 X
Track quality 100.0 %
Test CRC 6891138F
Copy CRC 6891138F
Copy OK

Track 14

Filename C:\Users\ian\Desktop\VA - Sumer Is Icumen In The Pagan Sound Of British And Irish Folk 1966-1975 (2020) [FLAC] {3CD}\Sumer Is Icumen In The Pagan Sound Of British And Irish Folk CD3\14 - Staverton Bridge - Captain Wedderburns Courtship.wav

Pre-gap length 0:00:02.00

Peak level 96.6 %
Extraction speed 2.2 X
Track quality 100.0 %
Test CRC F2CD9FF6
Copy CRC F2CD9FF6
Copy OK

Track 15

Filename C:\Users\ian\Desktop\VA - Sumer Is Icumen In The Pagan Sound Of British And Irish Folk 1966-1975 (2020) [FLAC] {3CD}\Sumer Is Icumen In The Pagan Sound Of British And Irish Folk CD3\15 - Shirley Kent - Butterfly On The Shore.wav

Pre-gap length 0:00:02.00

Peak level 96.6 %
Extraction speed 2.1 X
Track quality 99.9 %
Test CRC 14F74F07
Copy CRC 14F74F07
Copy OK

Track 16

Filename C:\Users\ian\Desktop\VA - Sumer Is Icumen In The Pagan Sound Of British And Irish Folk 1966-1975 (2020) [FLAC] {3CD}\Sumer Is Icumen In The Pagan Sound Of British And Irish Folk CD3\16 - Marc Bolan - Eastern Spell.wav

Pre-gap length 0:00:02.00

Peak level 96.6 %
Extraction speed 1.9 X
Track quality 100.0 %
Test CRC 41C7D8E0
Copy CRC 41C7D8E0
Copy OK

Track 17

Filename C:\Users\ian\Desktop\VA - Sumer Is Icumen In The Pagan Sound Of British And Irish Folk 1966-1975 (2020) [FLAC] {3CD}\Sumer Is Icumen In The Pagan Sound Of British And Irish Folk CD3\17 - Heather Adrian And John - The Lark In The Morning.wav

Pre-gap length 0:00:01.90

Peak level 96.6 %
Extraction speed 2.3 X
Track quality 100.0 %
Test CRC E9C95092
Copy CRC E9C95092
Copy OK

Track 18

Filename C:\Users\ian\Desktop\VA - Sumer Is Icumen In The Pagan Sound Of British And Irish Folk 1966-1975 (2020) [FLAC] {3CD}\Sumer Is Icumen In The Pagan Sound Of British And Irish Folk CD3\18 - The Coterie - Scarborough Fair.wav

Pre-gap length 0:00:01.92

Peak level 84.5 %
Extraction speed 2.5 X
Track quality 100.0 %
Test CRC 0413D8EA
Copy CRC 0413D8EA
Copy OK

Track 19

Filename C:\Users\ian\Desktop\VA - Sumer Is Icumen In The Pagan Sound Of British And Irish Folk 1966-1975 (2020) [FLAC] {3CD}\Sumer Is Icumen In The Pagan Sound Of British And Irish Folk CD3\19 - Mr Fox - Mendle.wav

Pre-gap length 0:00:01.93

Peak level 81.5 %
Extraction speed 2.8 X
Track quality 100.0 %
Test CRC B483C149
Copy CRC B483C149
Copy OK

Track 20

Filename C:\Users\ian\Desktop\VA - Sumer Is Icumen In The Pagan Sound Of British And Irish Folk 1966-1975 (2020) [FLAC] {3CD}\Sumer Is Icumen In The Pagan Sound Of British And Irish Folk CD3\20 - Choir - Sumer Is A-Cumin In.wav

Pre-gap length 0:00:08.96

Peak level 96.6 %
Extraction speed 2.1 X
Track quality 100.0 %
Test CRC F1EA7A11
Copy CRC F1EA7A11
Copy OK

No errors occurred

End of status report

–– CUETools DB Plugin V2.1.6

[CTDB TOCID: BJMvLFYJPQKKw6_V6y7SnlnAoks-] found
Submit result: BJMvLFYJPQKKw6_V6y7SnlnAoks- has been confirmed
Track | CTDB Status
1 | (4/4) Accurately ripped
2 | (4/4) Accurately ripped
3 | (4/4) Accurately ripped
4 | (4/4) Accurately ripped
5 | (4/4) Accurately ripped
6 | (4/4) Accurately ripped
7 | (4/4) Accurately ripped
8 | (4/4) Accurately ripped
9 | (4/4) Accurately ripped
10 | (4/4) Accurately ripped
11 | (4/4) Accurately ripped
12 | (4/4) Accurately ripped
13 | (4/4) Accurately ripped
14 | (4/4) Accurately ripped
15 | (4/4) Accurately ripped
16 | (4/4) Accurately ripped
17 | (4/4) Accurately ripped
18 | (4/4) Accurately ripped
19 | (4/4) Accurately ripped
20 | (4/4) Accurately ripped


==== Log checksum 4C5AD47C9F997B9064E93554F13C494D42F9FE7109E742A633FA14F6FD554DD0 ====

Thanks to the Original ripper !