Tags
Language
Tags

100 Christmas Masterworks [5CDs] (2018)

Posted By: ArlegZ
100 Christmas Masterworks [5CDs] (2018)

100 Christmas Masterworks [5CDs] (2018)
EAC | FLAC | Image (Cue & Log) ~ 1.40 Gb | Total time: 05:28:14 | Scans included
Classical | Label: Deutsche Grammophon | 483 6001 | Recorded: 1961-2017

This imaginatively-curated, generously-filled Christmas package is sure to find favor during this and future holiday seasons. Why? Because it packs in every conceivable carol, tune, choral work or song in timeless performances from the greatest artists in the world: singers of immense communicative gifts including Cecilia Bartoli, Bryn Terfel, Renee Fleming and Luciano Pavarotti to name but four. It truly offers something of every Christmas mind, spirit, and looks fantastic.

Contents:
CD1: Arias & Songs
CD2: Carols
CD3: Instrumental Music
CD4: Choral Music
CD5: Popular Tunes & The Nutcracker Suite


CD1:
Michael Praetorius (c.1571-1621)
01. In dulci jubilo (arr. Fritz Neumeyer)
Fritz Wunderlich, tenor
Hermann Prey, baritone
Wolfgang Neininger, violin / Robert Bodenröder, clarinet / Dietmar Keller, oboe
Hans Georg Renner, oboe d amore / Helmut Böcker, bassoon
Wolfgang Stert, double bass / Fritz Neumeyer, cembalo
George Frideric Handel (1685-1759)
02. Messiah, HWV 56: Rejoice greatly, o daughter of Zion
Arleen Auger, soprano
The English Concert / Trevor Pinnock
Wolfgang Amadeus Mozart (1756-1791)
03. Vesperae solennes de confessore in C, K.339: Laudate Dominum omnes gentes
Rachel Harnisch, soprano
Kay Johannsen, organ
Schwedischer Rundfunkchor, Berliner Philharmoniker / Claudio Abbado
Peter Cornelius (1824-1874)
04. Weihnachtslieder, Op.8: Die Könige
Bryn Terfel, bass-baritone
Malcolm Martineau, piano
Johann Sebastian Bach (1685-1750)
05. Weihnachtsoratorium BWV 248: Aria Baß: Großer Herr, o starker König
Olaf Bär, bass
English Baroque Soloists / Sir John Eliot Gardiner
Anonymous
06. Tomorrow shall be my dancing day (arr. Svante Henryson)
Anne Sofie von Otter, mezzo-soprano
Markus Leoson, percussion
Stockholm Chamber Brass
César Franck (1822-1890)
07. Panis Angelicus
Plácido Domingo, tenor
Orchestra Sinfonica di Milano Giuseppe Verdi / Marcello Viotti
George Frideric Handel (1685-1759)
08. Samson, HWV 57: Air: Let the bright Seraphim
Münchener Bach-Orchester / Karl Richter
Johann Sebastian Bach (1685-1750)
09. Herz und Mund und Tat und Leben BWV 147: Jesu bleibet meine freunde (arr. Chris Hazell)
Renée Fleming, soprano
Royal Philharmonic Orchestra / Andreas Delfs
Pérotin (fl. c.1200)
10. Beata viscera Mariae Virginis
Cecilia Bartoli, mezzo-soprano
Sistine Chapel Choir / Massimo Palombella
Geistliches Wiegenlied, Op.91, No.2
Johannes Brahms (1833-1897)
11. Geistliches Wiegenlied, Op. 91, No. 2
Jessye Norman, soprano
Daniel Barenboim, piano
Anonymous
12. O Jesulein süß (arr. Annette Isserlis)
Anne Sofie von Otter, mezzo-soprano
Ulf Forsberg, Ulrika Jansson, violins
Torbjörn Helander, viola
Ole Karlsson, cello
George Frideric Handel (1685-1759)
13. Serse, HWV 40: Ombra mai fu
Rolando Villazón, tenor
Gabrieli Consort / Paul McCreesh
14. Messiah, HWV 56: Ev'ry Valley shall be exalted
Howard Crook, tenor
The English Concert / Trevor Pinnock
Wolfgang Amadeus Mozart (1756-1791)
15. Exsultate, jubilate, K.165: Alleluia
Barbara Bonney, soprano
The English Concert / Trevor Pinnock
Gustav Holst (1874-1934)
16. In The Bleak Midwinter (arr. Mack Wilberg)
Bryn Terfel, bass-baritone
Orchestra of the Welsh National Opera / Tecwyn Evans
Giuseppe Verdi (1813-1901)
17. Otello: Ave Maria, piena di grazia
Anna Netrebko, soprano
Mahler Chamber Orchestra / Claudio Abbado
Johann Sebastian Bach (1685-1750)
18. Weihnachtsoratorium BWV 248: Aria Alto: Bereite dich, Zion
Anne Sofie von Otter, mezzo-soprano
Anthony Robson, oboe d amore
English Baroque Soloists / Sir John Eliot Gardiner
CD2:
01. Gauntlett: Once in Royal David's city (arr. Arthur Henry Mann, David Willcocks)
Simon Johnson, organ / Nathaniel Morley, treble
02. Wade, J F: O come, all ye faithful (arr. David Willcocks)
Simon Johnson, organ
St Paul’s Cathedral Choir / Andrew Carwood
03. Mendelssohn: Hark! the herald angels sing (arr. David Willcocks)
Christopher Herrick, organ
Westminster Abbey Choir / Simon Preston
04. Holst: In the Bleak Mid-winter (Cranham)
St Paul’s Cathedral Choir / Andrew Carwood
05. Anon.: O Little Town of Bethlehem (arr. Ralph Vaughan Williams, Thomas Armstrong)
Sir Andrew Davis, organ
Choir of King's College Cambridge / Sir David Willcocks
06. Anon.: I Saw Three Ships (arr. John Rutter)
Orchestra of Clare College, Cambridge / Choir of Clare College Cambridge / John Rutter
07. Praetorius: Es ist ein' Ros' entsprungen Speierisches Gesangbuch, Köln, 1599
Dresdner Kreuzchor / Matthias Jung
08. Trad.: Still, weil's Kindlein schlafen will
Brass Ensemble of the Berlin Philharmonic Orchestra
09. Anon.: The first Nowell (arr. David Willcocks)
Choir of King's College Cambridge / Sir David Willcocks
10. Kodály: Advent Song 'Veni, Veni Emmanuel'
Dresdner Kreuzchor / Matthias Jung
11. Anon.: Up! Good Christen Folk, And Listen (arr. G.R. Woodward)
Westminster Abbey Choir / Simon Preston
12. Anon.: Gaudete
St Paul’s Cathedral Choir / Andrew Carwood
13. Gruber, F: Stille Nacht, heilige Nacht (arr. Donald Fraser)
Dresdner Kreuzchor / Matthias Jung
14. Trad.: There Is No Rose Of Swych Vertu
Gabrieli Consort / Paul McCreesh
15. Trad.: The Holly and the Ivy (arr. H. Walford Davies)
Westminster Abbey Choir / Simon Preston
16. Anon.: God rest ye merry, gentlemen (arr. David Willcocks)
John Scott, organ
David Corkhill, percussion
Bach Choir, Philip Jones Brass Ensemble / Sir David Willcocks
17. Britten: A Shepherd's Carol
Westminster Abbey Choir / Simon Preston
18. Kaminski, H: Maria durch ein Dornwald ging
Dresdner Kreuzchor / Matthias Jung
19. Anonymous, Thoinot Arbeau: Ding Dong! Merrily On High (arr. Charles Wood)
Westminster Abbey Choir / Simon Preston
20. Reger: Unser lieben Frauen Traum (8 Geistliche Gesänge, Op.138)
Thomanerchor / Georg Christoph Biller, Hans-Christian Bartel
21. Trad.: Birjina gaztettobat zegoen
Gabrieli Consort / Paul McCreesh
22. Poston: Jesus Christ the Apple Tree
Westminster Abbey Choir / Simon Preston
23. Reger: Nachtlied (8 Geistliche Gesänge, Op.138)
Thomanerchor / Georg Christoph Biller, Hans-Christian Bartel
CD3:
Jean-Joseph Mouret (1682-1738)
01. Rondeau, Fanfares of Suite No.1 (arr. Friedrich Held)
Hannes Läubin, Wolfgang Läubin, Bernhard Läubin, trumpets
Norbert Schmitt, timpani
Simon Preston, organ
Johann Sebastian Bach (1685-1750)
02. Weihnachtsoratorium BWV 248: Sinfonia
English Baroque Soloists / Sir John Eliot Gardiner
Arcangelo Corelli (1653-1713)
Concerto grosso in G minor, Op.6, No.8 "fatto per la notte di Natale"
03. 1. Vivace - Grave. Arcate, sostenuto e come stà
04. 2. Allegro
05. 3. Adagio - Allegro - Adagio
06. 4. Vivace
07. 5. Allegro
08. 6. Pastorale: Largo
The English Concert / Trevor Pinnock
George Frideric Handel (1685-1759)
09. Messiah, HWV 56: Pifa (Pastoral Symphony)
The English Concert / Trevor Pinnock
Johann Sebastian Bach (1685-1750)
10. Orchestral Suite No. 3 In D Major, Bwv 1068: Air
The English Concert / Trevor Pinnock
Marc-Antoine Charpentier (1643-1704)
11. In nativitatem Domini canticum, H. 416: Nuit
Les Musiciens du Louvre / Marc Minkowski
Antonio Vivaldi (1678-1741)
Violin Concerto in F Minor, Op. 8, No. 4, RV 297 "L'inverno"
12. 1. Allegro non molto
13. 2. Largo
14. 3. Allegro
Gidon Kremer, violin
Leslie Pearson, organ & harpsichord
London Symphony Orchestra / Claudio Abbado
Giovanni Cabrieli (c.1554-1612)
15. Canzon noni toni a 12, C 183
Gabrieli Consort / Paul McCreesh
Johann Sebastian Bach (1685-1750)
16. Herz und Mund und Tat und Leben, BWV 147: Jesu, Joy Of Man's Desiring (arr. Guillermo Figueroa)
Orpheus Chamber Orchestra
Marc-Antoine Charpentier (1643-1704)
Noëls sur les instruments, H 531, 534
17. 1. Vous qui désirez sans fin
18. 2. A la venue de Noël
19. 3. Or nous dites, Marie
20. 4. Où s'en vont ces gais bergers?
The English Concert / Trevor Pinnock
Samuel Scheidt (1587-1654)
21. Cantiones Sacre 1620: In dulci jubilo (Eingerichtet für Blechbläser von Hans-Dieter Schwarz)
Brass Ensemble of the Berlin Philharmonic Orchestra
CD4:
Johann Sebastian Bach (1685-1750)
02. Weihnachtsoratorium BWV 248: Chorus: Jauchzet, frohlocket
English Baroque Soloists, Monteverdi Choir / Sir John Eliot Gardiner
George Frideric Handel (1685-1759)
02. Messiah, HWV 56: For unto us a Child is born
The English Concert, The English Concert Choir / Trevor Pinnock
Michael Praetorius (c.1571-1621)
03. Polyhymnia Caduceatrix et Panegyrica: In dulci jubilo
Susan Hemington Jones, soprano
Tessa Bonner, soprano
Mark le Brocq, tenor
Gabrieli Consort, Boy's Choir Of Roskilde Cathedral / Paul McCreesh
Herbert Howells (1892-1983)
04. A Spotless Rose
Gabrieli Consort / Paul McCreesh
Anton Bruckner (1824-1896)
Dresdner Kreuzchor / Matthias Jung
05. Virga Jesse (Motet)
John Tavener (1944-2013)
06. The Lamb
The Choir of the Temple Church / Stephen Layton
Judith Bingham (1952)
07. The Darkness Is No Darkness
Voces8
Heinrich Schütz (1585-1672)
08. Historia Der Geburt Jesu Christi, SWV435: Dank sagen wir alle Gott
Gabrieli Consort, Boy's Choir Of Roskilde Cathedral / Paul McCreesh
George Frideric Handel (1685-1759)
09. Messiah, HWV 56: Hallelujah
The English Concert, The English Concert Choir / Trevor Pinnock
Orlande de Lassus (c.1532-1594)
10. Resonet in Laudibus à 5
Pomerium / Alexander Blachly
Giovanni Pierluigi da Palestrina (c.1525-1594)
11. Motet "Hodie Christus natus est"
Sistine Chapel Choir / Massimo Palombella
Francis Poulenc (1899-1963)
12. Quatre motets pour le temps de Noël: Quem vidistis pastores
Dresdner Kreuzchor / Matthias Jung
John Tavener (1944-2013)
13. God Is With Us (A Christmas Proclamation)
Andrew Rupp, baritone
Ian Le Grice, organ
The Holst Singers, The Choir of the Temple Church / Stephen Layton
Johann Sebastian Bach (1685-1750)
14. Magnificat In D Major, BWV 243: Magnificat
Münchener Bach-Orchester, Münchener Bach-Chor / Karl Richter
Benjamin Britten (1913-1976)
15. Ceremony of Carols, Op.28: As Dew In Aprille
Rachel Masters, harp
Choir of King's College Cambridge / Stephen Cleobury
Johann Sebastian Bach (1685-1750)
16. Nun Komm, Der Heiden Heiland, BWV 62: Chorus: Nun komm, der Heiden Heiland
English Baroque Soloists, Monteverdi Choir / Sir John Eliot Gardiner
Michael Praetorius (c.1571-1621)
17. Communion Motet: "Uns ist ein Kindlein heut geborn" - Musae Sioniae VI
Sarah Pendlebury, soprano
Hannelore Devaere, harp
Gabrieli Consort / Paul McCreesh
Benjamin Britten (1913-1976)
18. A Hymn to the Virgin 1930, rev. 1934
Dresdner Kreuzchor / Matthias Jung
CD5:
01. White Christmas (Berlin)
Bryn Terfel, bass-baritone
Philharmonia Orchestra / Paul Daniel
02. Il est né le divin enfant (Anonymous, arr. Annette Isserlis)
Anne Sofie von Otter, mezzo-soprano
Ulf Forsberg, violin
Markus Leoson, marimba
03. O holy night (Adolphe Charles Adam, arr. Gamley)
Luciano Pavarotti, tenor
National Philharmonic Orchestra / Kurt Herbert
04. Shepherd's Pipe Carol (arr. Chris Hazell)
Bryn Terfel, bass-baritone
Orchestra of the Welsh National Opera / Tecwyn Evans
05. Ave Maria D839 (Franz Schubert, arr. Ion Marin)
Cheryl Studer, soprano
London Symphony Orchestra / Ion Marin
06. Winter Wonderland (Bernard, arr. David Cullen 1941)
Kiri Te Kanawa, soprano
London Voices / Philharmonia Orchestra / Carl Davis
07. Carol of the Bells (Mykola Leontovych; Peter Wilhousky)
St. Paul's Cathedral Choir / Andrew Carwood
08. Deck the hall with boughs of Holly (Anonymous, arr. Douglas Gamley)
Joan Sutherland, soprano
New Philharmonia Orchestra / Richard Bonynge
09. Joy to the World (Trad., arr. Patrick Kerber)
Los Romeros
10. Mary's Boy Child (Hairston, arr. David Cullen & Chris Hazell)
Bryn Terfel, bass-baritone
Orchestra of the Welsh National Opera / Tecwyn Evans
11. Have yourself a merry little Christmas (Hugh Martin, arr. Svante Henryson)
Anne Sofie von Otter, mezzo-soprano
Mogens Rasmussen, discant gamba
Leif Hendrickson, tenor gamba
Goran Danielsson, bass viol
Markus Leoson, vibraphone
12. Ave Maria (J.S. Bach / Gounod, arr. Mischa Maisky)
Mischa Maisky, cello / Pavel Gililov, piano
Peter Ilyich Tchaikovsky
Nutcracker Suite, Op.71a
13. Miniature Overture
14. March
15. Dance of the Sugar-Plum Fairy
16. Russian Dance (Trepak)
17. Arabian Dance (Coffee)
18. Chinese Dance (Tea)
19. Dance of the Reed-Pipes (Mirlitons)
20. Waltz of the Flowers
Berliner Philharmoniker / Mstislav Rostropovich


Exact Audio Copy V1.5 from 20. February 2020

EAC extraction logfile from 7. December 2020, 18:37

Various Artists / 100 Christmas Masterworks (Disc 1)

Used drive : ATAPI iHAS124 F Adapter: 1 ID: 0

Read mode : Secure
Utilize accurate stream : Yes
Defeat audio cache : Yes
Make use of C2 pointers : No

Read offset correction : 6
Overread into Lead-In and Lead-Out : No
Fill up missing offset samples with silence : Yes
Delete leading and trailing silent blocks : No
Null samples used in CRC calculations : Yes
Used interface : Native Win32 interface for Win NT & 2000

Used output format : User Defined Encoder
Selected bitrate : 1024 kBit/s
Quality : High
Add ID3 tag : No
Command line compressor : C:\Program Files (x86)\Exact Audio Copy\FLAC\FLAC.EXE
Additional command line options : -6 -V -T "ARTIST=%artist%" -T "TITLE=%title%" -T "ALBUM=%albumtitle%" -T "DATE=%year%" -T "TRACKNUMBER=%tracknr%" -T "GENRE=%genre%" -T "COMMENT=%comment%" -T "BAND=%albuminterpret%" -T "ALBUMARTIST=%albuminterpret%" -T "COMPOSER=%composer%" %haslyrics%–tag-from-file=LYRICS="%lyricsfile%"%haslyrics% -T "DISCNUMBER=%cdnumber%" -T "TOTALDISCS=%totalcds%" -T "TOTALTRACKS=%numtracks%" %hascover%–picture="%coverfile%"%hascover% %source% -o %dest%


TOC of the extracted CD

Track | Start | Length | Start sector | End sector
––––––––––––––––––––––––––––-
1 | 0:00.00 | 2:40.04 | 0 | 12003
2 | 2:40.04 | 4:52.59 | 12004 | 33962
3 | 7:32.63 | 4:30.51 | 33963 | 54263
4 | 12:03.39 | 2:39.06 | 54264 | 66194
5 | 14:42.45 | 4:27.15 | 66195 | 86234
6 | 19:09.60 | 1:50.50 | 86235 | 94534
7 | 21:00.35 | 3:40.58 | 94535 | 111092
8 | 24:41.18 | 3:21.11 | 111093 | 126178
9 | 28:02.29 | 2:49.69 | 126179 | 138922
10 | 30:52.23 | 3:51.60 | 138923 | 156307
11 | 34:44.08 | 6:14.06 | 156308 | 184363
12 | 40:58.14 | 4:09.46 | 184364 | 203084
13 | 45:07.60 | 2:43.67 | 203085 | 215376
14 | 47:51.52 | 3:38.02 | 215377 | 231728
15 | 51:29.54 | 2:38.52 | 231729 | 243630
16 | 54:08.31 | 4:04.05 | 243631 | 261935
17 | 58:12.36 | 4:56.45 | 261936 | 284180
18 | 63:09.06 | 5:05.69 | 284181 | 307124


Range status and errors

Selected range

Filename C:\EACRip\100 Christmas Masterworks (VA, DG, 5CDs) (2018)\CD1\100 Christmas Masterworks (Disc 1).wav

Peak level 81.5 %
Extraction speed 9.6 X
Range quality 100.0 %
Test CRC F8A2DB54
Copy CRC F8A2DB54
Copy OK

No errors occurred


AccurateRip summary

Track 1 accurately ripped (confidence 1) [E703ADF8] (AR v2)
Track 2 accurately ripped (confidence 1) [B5D8A5E7] (AR v2)
Track 3 accurately ripped (confidence 1) [D981D6B0] (AR v2)
Track 4 accurately ripped (confidence 1) [22F3805C] (AR v2)
Track 5 accurately ripped (confidence 1) [0B4F0C18] (AR v2)
Track 6 accurately ripped (confidence 1) [30226697] (AR v2)
Track 7 accurately ripped (confidence 1) [5AA4BA27] (AR v2)
Track 8 accurately ripped (confidence 1) [A5C2A382] (AR v2)
Track 9 accurately ripped (confidence 1) [21623BD6] (AR v2)
Track 10 accurately ripped (confidence 1) [7257D528] (AR v2)
Track 11 accurately ripped (confidence 1) [E6E66180] (AR v2)
Track 12 accurately ripped (confidence 1) [439A546F] (AR v2)
Track 13 accurately ripped (confidence 1) [77B990A8] (AR v2)
Track 14 accurately ripped (confidence 1) [A0F35F82] (AR v2)
Track 15 accurately ripped (confidence 1) [8C9732C7] (AR v2)
Track 16 accurately ripped (confidence 1) [FC1676E6] (AR v2)
Track 17 accurately ripped (confidence 1) [8E22EE7D] (AR v2)
Track 18 accurately ripped (confidence 1) [9E6D3D19] (AR v2)

All tracks accurately ripped

End of status report

–– CUETools DB Plugin V2.1.6

[CTDB TOCID: 7n__nEZdvX_frp389k880SYQyko-] found
Submit result: 7n__nEZdvX_frp389k880SYQyko- has been confirmed
Track | CTDB Status
1 | (8/8) Accurately ripped
2 | (8/8) Accurately ripped
3 | (8/8) Accurately ripped
4 | (8/8) Accurately ripped
5 | (8/8) Accurately ripped
6 | (8/8) Accurately ripped
7 | (8/8) Accurately ripped
8 | (8/8) Accurately ripped
9 | (8/8) Accurately ripped
10 | (8/8) Accurately ripped
11 | (8/8) Accurately ripped
12 | (8/8) Accurately ripped
13 | (8/8) Accurately ripped
14 | (8/8) Accurately ripped
15 | (8/8) Accurately ripped
16 | (8/8) Accurately ripped
17 | (8/8) Accurately ripped
18 | (8/8) Accurately ripped


==== Log checksum DE44DE4DE7F54BE166A442B46D5CCD847160FB40DF899539C882E73247C89871 ====


Exact Audio Copy V1.5 from 20. February 2020

EAC extraction logfile from 7. December 2020, 19:12

Various Artists / 100 Christmas Masterworks (Disc 2)

Used drive : ATAPI iHAS124 F Adapter: 1 ID: 0

Read mode : Secure
Utilize accurate stream : Yes
Defeat audio cache : Yes
Make use of C2 pointers : No

Read offset correction : 6
Overread into Lead-In and Lead-Out : No
Fill up missing offset samples with silence : Yes
Delete leading and trailing silent blocks : No
Null samples used in CRC calculations : Yes
Used interface : Native Win32 interface for Win NT & 2000

Used output format : User Defined Encoder
Selected bitrate : 1024 kBit/s
Quality : High
Add ID3 tag : No
Command line compressor : C:\Program Files (x86)\Exact Audio Copy\FLAC\FLAC.EXE
Additional command line options : -6 -V -T "ARTIST=%artist%" -T "TITLE=%title%" -T "ALBUM=%albumtitle%" -T "DATE=%year%" -T "TRACKNUMBER=%tracknr%" -T "GENRE=%genre%" -T "COMMENT=%comment%" -T "BAND=%albuminterpret%" -T "ALBUMARTIST=%albuminterpret%" -T "COMPOSER=%composer%" %haslyrics%–tag-from-file=LYRICS="%lyricsfile%"%haslyrics% -T "DISCNUMBER=%cdnumber%" -T "TOTALDISCS=%totalcds%" -T "TOTALTRACKS=%numtracks%" %hascover%–picture="%coverfile%"%hascover% %source% -o %dest%


TOC of the extracted CD

Track | Start | Length | Start sector | End sector
––––––––––––––––––––––––––––-
1 | 0:00.00 | 3:13.38 | 0 | 14512
2 | 3:13.38 | 3:59.16 | 14513 | 32453
3 | 7:12.54 | 2:24.57 | 32454 | 43310
4 | 9:37.36 | 4:45.46 | 43311 | 64731
5 | 14:23.07 | 3:07.24 | 64732 | 78780
6 | 17:30.31 | 2:17.20 | 78781 | 89075
7 | 19:47.51 | 4:17.45 | 89076 | 108395
8 | 24:05.21 | 0:51.68 | 108396 | 112288
9 | 24:57.14 | 4:50.13 | 112289 | 134051
10 | 29:47.27 | 3:56.18 | 134052 | 151769
11 | 33:43.45 | 1:24.06 | 151770 | 158075
12 | 35:07.51 | 1:41.73 | 158076 | 165723
13 | 36:49.49 | 3:36.09 | 165724 | 181932
14 | 40:25.58 | 4:58.55 | 181933 | 204337
15 | 45:24.38 | 3:35.15 | 204338 | 220477
16 | 48:59.53 | 3:00.43 | 220478 | 234020
17 | 52:00.21 | 5:02.40 | 234021 | 256710
18 | 57:02.61 | 2:10.67 | 256711 | 266527
19 | 59:13.53 | 2:03.31 | 266528 | 275783
20 | 61:17.09 | 2:16.36 | 275784 | 286019
21 | 63:33.45 | 2:32.19 | 286020 | 297438
22 | 66:05.64 | 2:55.10 | 297439 | 310573
23 | 69:00.74 | 2:48.01 | 310574 | 323174


Range status and errors

Selected range

Filename C:\EACRip\100 Christmas Masterworks (VA, DG, 5CDs) (2018)\CD2\100 Christmas Masterworks (Disc 2).wav

Peak level 99.6 %
Extraction speed 9.7 X
Range quality 100.0 %
Test CRC 050E66D5
Copy CRC 050E66D5
Copy OK

No errors occurred


AccurateRip summary

Track 1 accurately ripped (confidence 2) [DD77AD6D] (AR v2)
Track 2 accurately ripped (confidence 2) [ED270237] (AR v2)
Track 3 accurately ripped (confidence 2) [25A0D158] (AR v2)
Track 4 accurately ripped (confidence 2) [75427D46] (AR v2)
Track 5 accurately ripped (confidence 2) [60DE61C5] (AR v2)
Track 6 accurately ripped (confidence 2) [FF2E5D3E] (AR v2)
Track 7 accurately ripped (confidence 2) [4C1ED223] (AR v2)
Track 8 accurately ripped (confidence 2) [572CE5C3] (AR v2)
Track 9 accurately ripped (confidence 2) [5501B236] (AR v2)
Track 10 accurately ripped (confidence 2) [B3E668BA] (AR v2)
Track 11 accurately ripped (confidence 2) [7C98C601] (AR v2)
Track 12 accurately ripped (confidence 2) [5EF87086] (AR v2)
Track 13 accurately ripped (confidence 2) [B03ABA83] (AR v2)
Track 14 accurately ripped (confidence 2) [544959F4] (AR v2)
Track 15 accurately ripped (confidence 2) [1A583BF9] (AR v2)
Track 16 accurately ripped (confidence 2) [BA212A66] (AR v2)
Track 17 accurately ripped (confidence 2) [5A7D8CBF] (AR v2)
Track 18 accurately ripped (confidence 2) [C62C4000] (AR v2)
Track 19 accurately ripped (confidence 2) [D44AB944] (AR v2)
Track 20 accurately ripped (confidence 2) [DA9BE097] (AR v2)
Track 21 accurately ripped (confidence 2) [8363F712] (AR v2)
Track 22 accurately ripped (confidence 2) [5A67F9F9] (AR v2)
Track 23 accurately ripped (confidence 2) [FA49961C] (AR v2)

All tracks accurately ripped

End of status report

–– CUETools DB Plugin V2.1.6

[CTDB TOCID: askvEPawfZ3joKRnf7K7hhLosuI-] found
Submit result: askvEPawfZ3joKRnf7K7hhLosuI- has been confirmed
Track | CTDB Status
1 | (11/11) Accurately ripped
2 | (11/11) Accurately ripped
3 | (11/11) Accurately ripped
4 | (11/11) Accurately ripped
5 | (11/11) Accurately ripped
6 | (11/11) Accurately ripped
7 | (11/11) Accurately ripped
8 | (11/11) Accurately ripped
9 | (11/11) Accurately ripped
10 | (11/11) Accurately ripped
11 | (11/11) Accurately ripped
12 | (11/11) Accurately ripped
13 | (11/11) Accurately ripped
14 | (11/11) Accurately ripped
15 | (11/11) Accurately ripped
16 | (11/11) Accurately ripped
17 | (11/11) Accurately ripped
18 | (11/11) Accurately ripped
19 | (11/11) Accurately ripped
20 | (10/11) Accurately ripped
21 | (11/11) Accurately ripped
22 | (11/11) Accurately ripped
23 | (11/11) Accurately ripped


==== Log checksum 3898FF5EC43A5636EA395BFADEEEE24F21C67D1BA1B76DBB19A80AC348B1E959 ====


Exact Audio Copy V1.5 from 20. February 2020

EAC extraction logfile from 8. December 2020, 9:17

Various Artists / 100 Christmas Masterworks (Disc 3)

Used drive : ATAPI iHAS124 F Adapter: 1 ID: 0

Read mode : Secure
Utilize accurate stream : Yes
Defeat audio cache : Yes
Make use of C2 pointers : No

Read offset correction : 6
Overread into Lead-In and Lead-Out : No
Fill up missing offset samples with silence : Yes
Delete leading and trailing silent blocks : No
Null samples used in CRC calculations : Yes
Used interface : Native Win32 interface for Win NT & 2000

Used output format : User Defined Encoder
Selected bitrate : 1024 kBit/s
Quality : High
Add ID3 tag : No
Command line compressor : C:\Program Files (x86)\Exact Audio Copy\FLAC\FLAC.EXE
Additional command line options : -6 -V -T "ARTIST=%artist%" -T "TITLE=%title%" -T "ALBUM=%albumtitle%" -T "DATE=%year%" -T "TRACKNUMBER=%tracknr%" -T "GENRE=%genre%" -T "COMMENT=%comment%" -T "BAND=%albuminterpret%" -T "ALBUMARTIST=%albuminterpret%" -T "COMPOSER=%composer%" %haslyrics%–tag-from-file=LYRICS="%lyricsfile%"%haslyrics% -T "DISCNUMBER=%cdnumber%" -T "TOTALDISCS=%totalcds%" -T "TOTALTRACKS=%numtracks%" %hascover%–picture="%coverfile%"%hascover% %source% -o %dest%


TOC of the extracted CD

Track | Start | Length | Start sector | End sector
––––––––––––––––––––––––––––-
1 | 0:00.00 | 2:00.71 | 0 | 9070
2 | 2:00.71 | 5:19.25 | 9071 | 33020
3 | 7:20.21 | 1:30.14 | 33021 | 39784
4 | 8:50.35 | 2:00.72 | 39785 | 48856
5 | 10:51.32 | 3:19.28 | 48857 | 63809
6 | 14:10.60 | 0:59.72 | 63810 | 68306
7 | 15:10.57 | 2:05.30 | 68307 | 77711
8 | 17:16.12 | 4:10.18 | 77712 | 96479
9 | 21:26.30 | 1:14.43 | 96480 | 102072
10 | 22:40.73 | 4:53.48 | 102073 | 124095
11 | 27:34.46 | 4:43.24 | 124096 | 145344
12 | 32:17.70 | 3:40.66 | 145345 | 161910
13 | 35:58.61 | 1:29.63 | 161911 | 168648
14 | 37:28.49 | 3:29.55 | 168649 | 184378
15 | 40:58.29 | 3:28.09 | 184379 | 199987
16 | 44:26.38 | 3:23.67 | 199988 | 215279
17 | 47:50.30 | 2:10.23 | 215280 | 225052
18 | 50:00.53 | 0:58.55 | 225053 | 229457
19 | 50:59.33 | 2:21.27 | 229458 | 240059
20 | 53:20.60 | 1:35.33 | 240060 | 247217
21 | 54:56.18 | 3:46.57 | 247218 | 264224


Range status and errors

Selected range

Filename C:\EACRip\100 Christmas Masterworks (VA, DG, 5CDs) (2018)\CD3\100 Christmas Masterworks (Disc 3).wav

Peak level 87.8 %
Extraction speed 8.6 X
Range quality 100.0 %
Test CRC 092EED92
Copy CRC 092EED92
Copy OK

No errors occurred


AccurateRip summary

Track 1 accurately ripped (confidence 2) [908B090B] (AR v2)
Track 2 accurately ripped (confidence 2) [EBCA4E09] (AR v2)
Track 3 accurately ripped (confidence 2) [9522B963] (AR v2)
Track 4 accurately ripped (confidence 2) [9EF7246D] (AR v2)
Track 5 accurately ripped (confidence 2) [29CE8FC7] (AR v2)
Track 6 accurately ripped (confidence 2) [65DB7033] (AR v2)
Track 7 accurately ripped (confidence 2) [CCD8AD68] (AR v2)
Track 8 accurately ripped (confidence 2) [28265C61] (AR v2)
Track 9 accurately ripped (confidence 2) [F7375285] (AR v2)
Track 10 accurately ripped (confidence 2) [58B53828] (AR v2)
Track 11 accurately ripped (confidence 2) [6E0A2860] (AR v2)
Track 12 accurately ripped (confidence 2) [36C660EB] (AR v2)
Track 13 accurately ripped (confidence 2) [C56AA66D] (AR v2)
Track 14 accurately ripped (confidence 2) [AABD98DF] (AR v2)
Track 15 accurately ripped (confidence 2) [E3BA6761] (AR v2)
Track 16 accurately ripped (confidence 2) [D4C69562] (AR v2)
Track 17 accurately ripped (confidence 2) [8272D0C6] (AR v2)
Track 18 accurately ripped (confidence 2) [52378E9B] (AR v2)
Track 19 accurately ripped (confidence 2) [6AAFABCF] (AR v2)
Track 20 accurately ripped (confidence 2) [136077B3] (AR v2)
Track 21 accurately ripped (confidence 2) [22C538DB] (AR v2)

All tracks accurately ripped

End of status report

–– CUETools DB Plugin V2.1.6

[CTDB TOCID: A5Z3iqup7BpEt4AokptdEPirBK0-] found
Submit result: A5Z3iqup7BpEt4AokptdEPirBK0- has been confirmed
Track | CTDB Status
1 | (10/10) Accurately ripped
2 | (10/10) Accurately ripped
3 | (10/10) Accurately ripped
4 | (10/10) Accurately ripped
5 | (10/10) Accurately ripped
6 | (10/10) Accurately ripped
7 | (10/10) Accurately ripped
8 | (10/10) Accurately ripped
9 | (10/10) Accurately ripped
10 | (10/10) Accurately ripped
11 | (10/10) Accurately ripped
12 | (10/10) Accurately ripped
13 | (10/10) Accurately ripped
14 | (10/10) Accurately ripped
15 | (10/10) Accurately ripped
16 | (10/10) Accurately ripped
17 | (10/10) Accurately ripped
18 | (10/10) Accurately ripped
19 | (10/10) Accurately ripped
20 | (10/10) Accurately ripped
21 | (10/10) Accurately ripped


==== Log checksum 92BFF7BF3D51FA0DC4142C7563033210EBA6CCFFD043EB3AA6FAA4C5D6DAFC0A ====


Exact Audio Copy V1.5 from 20. February 2020

EAC extraction logfile from 8. December 2020, 9:49

Various Artists / 100 Christmas Masterworks (Disc 4)

Used drive : ATAPI iHAS124 F Adapter: 1 ID: 0

Read mode : Secure
Utilize accurate stream : Yes
Defeat audio cache : Yes
Make use of C2 pointers : No

Read offset correction : 6
Overread into Lead-In and Lead-Out : No
Fill up missing offset samples with silence : Yes
Delete leading and trailing silent blocks : No
Null samples used in CRC calculations : Yes
Used interface : Native Win32 interface for Win NT & 2000

Used output format : User Defined Encoder
Selected bitrate : 1024 kBit/s
Quality : High
Add ID3 tag : No
Command line compressor : C:\Program Files (x86)\Exact Audio Copy\FLAC\FLAC.EXE
Additional command line options : -6 -V -T "ARTIST=%artist%" -T "TITLE=%title%" -T "ALBUM=%albumtitle%" -T "DATE=%year%" -T "TRACKNUMBER=%tracknr%" -T "GENRE=%genre%" -T "COMMENT=%comment%" -T "BAND=%albuminterpret%" -T "ALBUMARTIST=%albuminterpret%" -T "COMPOSER=%composer%" %haslyrics%–tag-from-file=LYRICS="%lyricsfile%"%haslyrics% -T "DISCNUMBER=%cdnumber%" -T "TOTALDISCS=%totalcds%" -T "TOTALTRACKS=%numtracks%" %hascover%–picture="%coverfile%"%hascover% %source% -o %dest%


TOC of the extracted CD

Track | Start | Length | Start sector | End sector
––––––––––––––––––––––––––––-
1 | 0:00.00 | 7:45.35 | 0 | 34909
2 | 7:45.35 | 4:08.36 | 34910 | 53545
3 | 11:53.71 | 5:26.40 | 53546 | 78035
4 | 17:20.36 | 3:40.05 | 78036 | 94540
5 | 21:00.41 | 4:21.61 | 94541 | 114176
6 | 25:22.27 | 3:39.66 | 114177 | 130667
7 | 29:02.18 | 4:30.32 | 130668 | 150949
8 | 33:32.50 | 2:12.28 | 150950 | 160877
9 | 35:45.03 | 4:01.55 | 160878 | 179007
10 | 39:46.58 | 4:17.37 | 179008 | 198319
11 | 44:04.20 | 3:25.46 | 198320 | 213740
12 | 47:29.66 | 3:24.40 | 213741 | 229080
13 | 50:54.31 | 5:45.60 | 229081 | 255015
14 | 56:40.16 | 3:06.17 | 255016 | 268982
15 | 59:46.33 | 1:11.07 | 268983 | 274314
16 | 60:57.40 | 4:31.47 | 274315 | 294686
17 | 65:29.12 | 2:15.42 | 294687 | 304853
18 | 67:44.54 | 2:43.21 | 304854 | 317099


Range status and errors

Selected range

Filename C:\EACRip\100 Christmas Masterworks (VA, DG, 5CDs) (2018)\CD4\100 Christmas Masterworks (Disc 4).wav

Peak level 98.4 %
Extraction speed 9.7 X
Range quality 99.9 %
Test CRC 7A4F518D
Copy CRC 7A4F518D
Copy OK

No errors occurred


AccurateRip summary

Track 1 accurately ripped (confidence 2) [BB26E1AF] (AR v2)
Track 2 accurately ripped (confidence 2) [CD08D041] (AR v2)
Track 3 accurately ripped (confidence 2) [6A55A165] (AR v2)
Track 4 accurately ripped (confidence 2) [D5470650] (AR v2)
Track 5 accurately ripped (confidence 2) [EE788F5C] (AR v2)
Track 6 accurately ripped (confidence 2) [92D15E0E] (AR v2)
Track 7 accurately ripped (confidence 2) [FFDC108B] (AR v2)
Track 8 accurately ripped (confidence 2) [186F46F9] (AR v2)
Track 9 accurately ripped (confidence 2) [CF96C09E] (AR v2)
Track 10 accurately ripped (confidence 2) [7085BA55] (AR v2)
Track 11 accurately ripped (confidence 2) [A1A91D50] (AR v2)
Track 12 accurately ripped (confidence 2) [50D3AA32] (AR v2)
Track 13 accurately ripped (confidence 2) [E83DCC68] (AR v2)
Track 14 accurately ripped (confidence 2) [9C234703] (AR v2)
Track 15 accurately ripped (confidence 2) [61573FF4] (AR v2)
Track 16 accurately ripped (confidence 2) [091709B9] (AR v2)
Track 17 accurately ripped (confidence 2) [1F6F071A] (AR v2)
Track 18 accurately ripped (confidence 2) [92730089] (AR v2)

All tracks accurately ripped

End of status report

–– CUETools DB Plugin V2.1.6

[CTDB TOCID: _0jA6EnlR5L1QONEfw5sgXWpcnA-] found
Submit result: _0jA6EnlR5L1QONEfw5sgXWpcnA- has been confirmed
Track | CTDB Status
1 | (10/10) Accurately ripped
2 | (10/10) Accurately ripped
3 | (10/10) Accurately ripped
4 | (10/10) Accurately ripped
5 | (10/10) Accurately ripped
6 | (10/10) Accurately ripped
7 | (10/10) Accurately ripped
8 | (10/10) Accurately ripped
9 | (10/10) Accurately ripped
10 | (10/10) Accurately ripped
11 | (10/10) Accurately ripped
12 | (10/10) Accurately ripped
13 | (10/10) Accurately ripped
14 | (10/10) Accurately ripped
15 | (10/10) Accurately ripped
16 | (10/10) Accurately ripped
17 | (10/10) Accurately ripped
18 | (10/10) Accurately ripped


==== Log checksum BFC47AA3EFB132457C960EC356E76429C482722F9096026F7A55FBA3FADACBEF ====


Exact Audio Copy V1.5 from 20. February 2020

EAC extraction logfile from 8. December 2020, 10:20

Various Artists / 100 Christmas Masterworks (Disc 5)

Used drive : ATAPI iHAS124 F Adapter: 1 ID: 0

Read mode : Secure
Utilize accurate stream : Yes
Defeat audio cache : Yes
Make use of C2 pointers : No

Read offset correction : 6
Overread into Lead-In and Lead-Out : No
Fill up missing offset samples with silence : Yes
Delete leading and trailing silent blocks : No
Null samples used in CRC calculations : Yes
Used interface : Native Win32 interface for Win NT & 2000

Used output format : User Defined Encoder
Selected bitrate : 1024 kBit/s
Quality : High
Add ID3 tag : No
Command line compressor : C:\Program Files (x86)\Exact Audio Copy\FLAC\FLAC.EXE
Additional command line options : -6 -V -T "ARTIST=%artist%" -T "TITLE=%title%" -T "ALBUM=%albumtitle%" -T "DATE=%year%" -T "TRACKNUMBER=%tracknr%" -T "GENRE=%genre%" -T "COMMENT=%comment%" -T "BAND=%albuminterpret%" -T "ALBUMARTIST=%albuminterpret%" -T "COMPOSER=%composer%" %haslyrics%–tag-from-file=LYRICS="%lyricsfile%"%haslyrics% -T "DISCNUMBER=%cdnumber%" -T "TOTALDISCS=%totalcds%" -T "TOTALTRACKS=%numtracks%" %hascover%–picture="%coverfile%"%hascover% %source% -o %dest%


TOC of the extracted CD

Track | Start | Length | Start sector | End sector
––––––––––––––––––––––––––––-
1 | 0:00.00 | 5:01.18 | 0 | 22592
2 | 5:01.18 | 1:27.15 | 22593 | 29132
3 | 6:28.33 | 4:15.40 | 29133 | 48297
4 | 10:43.73 | 2:58.05 | 48298 | 61652
5 | 13:42.03 | 5:40.55 | 61653 | 87207
6 | 19:22.58 | 3:52.60 | 87208 | 104667
7 | 23:15.43 | 1:27.70 | 104668 | 111262
8 | 24:43.38 | 1:19.18 | 111263 | 117205
9 | 26:02.56 | 2:30.50 | 117206 | 128505
10 | 28:33.31 | 3:34.06 | 128506 | 144561
11 | 32:07.37 | 3:16.03 | 144562 | 159264
12 | 35:23.40 | 5:30.05 | 159265 | 184019
13 | 40:53.45 | 3:03.07 | 184020 | 197751
14 | 43:56.52 | 2:26.05 | 197752 | 208706
15 | 46:22.57 | 2:06.18 | 208707 | 218174
16 | 48:29.00 | 1:10.05 | 218175 | 223429
17 | 49:39.05 | 3:46.02 | 223430 | 240381
18 | 53:25.07 | 1:13.70 | 240382 | 245926
19 | 54:39.02 | 2:34.67 | 245927 | 257543
20 | 57:13.69 | 6:45.06 | 257544 | 287924


Range status and errors

Selected range

Filename C:\EACRip\100 Christmas Masterworks (VA, DG, 5CDs) (2018)\CD5\100 Christmas Masterworks (Disc 5).wav

Peak level 100.0 %
Extraction speed 9.1 X
Range quality 100.0 %
Test CRC 8D0B4DF8
Copy CRC 8D0B4DF8
Copy OK

No errors occurred


AccurateRip summary

Track 1 accurately ripped (confidence 2) [14B40105] (AR v2)
Track 2 accurately ripped (confidence 2) [4FCEA2D3] (AR v2)
Track 3 accurately ripped (confidence 2) [D3E691C1] (AR v2)
Track 4 accurately ripped (confidence 2) [FA6D8A7C] (AR v2)
Track 5 accurately ripped (confidence 2) [EB41EB9F] (AR v2)
Track 6 accurately ripped (confidence 2) [E2D056D9] (AR v2)
Track 7 accurately ripped (confidence 2) [8192FCA7] (AR v2)
Track 8 accurately ripped (confidence 2) [B25C3847] (AR v2)
Track 9 accurately ripped (confidence 2) [BF984DA1] (AR v2)
Track 10 accurately ripped (confidence 2) [1624327A] (AR v2)
Track 11 accurately ripped (confidence 2) [1202CDC4] (AR v2)
Track 12 accurately ripped (confidence 2) [0F22CB29] (AR v2)
Track 13 accurately ripped (confidence 2) [C9300D0D] (AR v2)
Track 14 accurately ripped (confidence 2) [994B87FC] (AR v2)
Track 15 accurately ripped (confidence 2) [CC6805AE] (AR v2)
Track 16 accurately ripped (confidence 2) [EEC8C20F] (AR v2)
Track 17 accurately ripped (confidence 2) [5333B07B] (AR v2)
Track 18 accurately ripped (confidence 2) [2CC180F4] (AR v2)
Track 19 accurately ripped (confidence 2) [563E5AE4] (AR v2)
Track 20 accurately ripped (confidence 2) [F6FB4EEE] (AR v2)

All tracks accurately ripped

End of status report

–– CUETools DB Plugin V2.1.6

[CTDB TOCID: Gb4IjZbN4cqYxNdPVkqE1KzD1FM-] found
Submit result: Gb4IjZbN4cqYxNdPVkqE1KzD1FM- has been confirmed
Track | CTDB Status
1 | (10/10) Accurately ripped
2 | (10/10) Accurately ripped
3 | (10/10) Accurately ripped
4 | (10/10) Accurately ripped
5 | (10/10) Accurately ripped
6 | (10/10) Accurately ripped
7 | (10/10) Accurately ripped
8 | (10/10) Accurately ripped
9 | (10/10) Accurately ripped
10 | (10/10) Accurately ripped
11 | (10/10) Accurately ripped
12 | (10/10) Accurately ripped
13 | (10/10) Accurately ripped
14 | (10/10) Accurately ripped
15 | (10/10) Accurately ripped
16 | (10/10) Accurately ripped
17 | (10/10) Accurately ripped
18 | (10/10) Accurately ripped
19 | (10/10) Accurately ripped
20 | (10/10) Accurately ripped


==== Log checksum C5B5AC02A06372BE6A366E9528E8AC5B26F9162F3F704B1DE561FE380C6D3731 ====

100 Christmas Masterworks [5CDs] (2018)

Thanks to the original releaser