Tags
Language
Tags

Aretha Franklin - Through The Storm (1989)

Posted By: BlondStyle
Aretha Franklin - Through The Storm (1989)

Aretha Franklin - Through The Storm (1989)
R&B, Soul, Urban | EAC Rip | FLAC, Img+CUE+LOG+Scans (JPEG) | 35:48 Min. | 256,18 Mb
Label: Arista Records (UK & Europe) | Cat.# 259 842 | Released: 1989
Aretha Franklin - Through The Storm (1989)

"Through the Storm" is the thirty-fifth studio album by American singer Aretha Franklin, released on Arista Records in the spring of 1989. Despite the #16 Billboard Hot 100 hit title track (a duet with Elton John), the album was not a commercial success; it reached #55 on the Billboard 200. The follow-up single, "It Isn't, It Wasn't, It Ain't Never Gonna Be", a duet with Whitney Houston, failed to make the top 40 of the Billboard Hot 100, peaking at #41. Other guest artists included James Brown, The Four Tops and Kenny G.
~Wikipedia
Having scored in the recent past with producer Narada Michael Walden and some star duets, Franklin and Arista turned out another album with the same approach but less successful results. The title duet with Elton John went Top 20, but its followup, "It Isn't, It Wasn't, It Ain't Never Gonna Be" was an embarrassing failure for both Franklin and the previously pop-perfect Whitney Houston. The rest was even less distinguished, including a song with The Four Tops and Kenny G and a remake of the old hit "Think."
~Artist Biography by William Ruhlmann

Aretha Franklin - Through The Storm (1989)

Aretha Franklin - Through The Storm (1989)




Release of this album: 1989, May [LP Arista Records, Cat.# AL-8572, USA]
Release of this CD: 1989 [CD Arista Records (UK & Europe), Cat.# 259 842 / UPC: 4007192598427]
℗ 1980, 1988, 1989 Arista Records, Inc.
Distributed in the UK by BMG Records / in Europe by BMG Ariola,
a Bertelsmann Music Group Company.
Printed in Germany by TOPAC

Credits:

Arranged By – Arif Mardin (tracks: 7), Narada Michael Walden (tracks: 1, 2, 4, 5)
Art Direction – Marlene Cohen
Cover [Front & Back Cover Art] – Peter Max
Photography By – Norman Parkinson
Producer – Aaron Zigman (tracks: B8), Aretha Franklin (tracks: 3), Arif Mardin (tracks: 6, 7), Jerry Knight (tracks: 8), Joe Mardin (tracks: 6), Narada Michael Walden (tracks: 1, 2, 4, 5)


Tracklist:

01. Gimme Your Love (duet with James Brown) (05:20)
02. Mercy (04:08)
03. He's The Boy (04:08)
04. It Isn't, It Wasn't, It Ain't Never Gonna Be (duet with Whitney Houston) (05:39)
05. Through The Storm (duet with Elton John) (04:25)
06. Think (1989) (03:38)
07. Come To Me (03:43)
08. If Ever A Love There Was (feat. The Four Tops & Kenny G) (04:46)

Exact Audio Copy V1.0 beta 2 from 29. April 2011

EAC extraction logfile from 27. August 2011, 20:44

Franklin, Aretha / Through the storm

Used drive : DVDRW DRW-6S160P Adapter: 1 ID: 0

Read mode : Secure
Utilize accurate stream : Yes
Defeat audio cache : Yes
Make use of C2 pointers : No

Read offset correction : 6
Overread into Lead-In and Lead-Out : No
Fill up missing offset samples with silence : Yes
Delete leading and trailing silent blocks : No
Null samples used in CRC calculations : Yes
Used interface : Native Win32 interface for Win NT & 2000

Used output format : Monkey's Audio Lossless Encoder
Selected bitrate : High Lossless Compression
Quality : High
Add ID3 tag : No
Command line compressor : C:\Program Files\Monkey's Audio\MAC.exe


TOC of the extracted CD

Track | Start | Length | Start sector | End sector
––––––––––––––––––––––––––––-
1 | 0:00.00 | 5:20.12 | 0 | 24011
2 | 5:20.12 | 4:08.33 | 24012 | 42644
3 | 9:28.45 | 4:07.52 | 42645 | 61221
4 | 13:36.22 | 5:39.03 | 61222 | 86649
5 | 19:15.25 | 4:24.60 | 86650 | 106509
6 | 23:40.10 | 3:38.00 | 106510 | 122859
7 | 27:18.10 | 3:43.20 | 122860 | 139604
8 | 31:01.30 | 4:46.17 | 139605 | 161071


Range status and errors

Selected range

Filename C:\Users\London\Desktop\Franklin, Aretha - Through the storm.wav

Peak level 100.0 %
Extraction speed 2.4 X
Range quality 100.0 %
Copy CRC 44388B81
Copy OK

No errors occurred


AccurateRip summary

Track 1 accurately ripped (confidence 2) [46EC633A] (AR v2)
Track 2 accurately ripped (confidence 19) [9048A301] (AR v1)
Track 3 accurately ripped (confidence 2) [FC21582D] (AR v2)
Track 4 accurately ripped (confidence 2) [70F6D9C5] (AR v2)
Track 5 accurately ripped (confidence 2) [BE5D4601] (AR v2)
Track 6 accurately ripped (confidence 2) [8FFDC72A] (AR v2)
Track 7 accurately ripped (confidence 20) [FE95622B] (AR v1)
Track 8 accurately ripped (confidence 2) [F7882D73] (AR v2)

All tracks accurately ripped

End of status report

==== Log checksum 689644EB548B7D9A1205180BC9E0078C5904C956D58565938C9483A66D2ADFE2 ====

––––––––––––––––––––––––––––––––––––––––
Analyzed: Franklin, Aretha / Through the storm
––––––––––––––––––––––––––––––––––––––––

DR Peak RMS Duration Track
––––––––––––––––––––––––––––––––––––––––
DR13 0.00 dB -14.82 dB 5:20 01-Gimme your love (Duet with James Brown)
DR12 0.00 dB -14.67 dB 4:08 02-Mercy
DR12 -1.31 dB -16.19 dB 4:08 03-He's the boy
DR12 -0.48 dB -15.25 dB 5:39 04-It isn't, it wasn't, it ain't never gonna be (Duet with Whitney Houston)
DR11 0.00 dB -14.39 dB 4:25 05-Through the storm (Duet with Elton John)
DR11 -0.26 dB -13.72 dB 3:38 06-Think (1989)
DR12 -1.26 dB -17.69 dB 3:43 07-Come to me
DR12 -0.01 dB -16.29 dB 4:46 08-If ever a love there was (feat. The Four Tops & Kenny G)
––––––––––––––––––––––––––––––––––––––––

Number of tracks: 8
Official DR value: DR12

Samplerate: 44100 Hz
Channels: 2
Bits per sample: 16
Bitrate: 920 kbps
Codec: FLAC
================================================================================

All thanks to London

See also:


password: BlondStyle