Tags
Language
Tags

Constance Demby - Albums Collection 1978-2011 (12CD + DVD5) [Re-Up]

Posted By: Designol
Constance Demby - Albums Collection 1978-2011 (12CD + DVD5) [Re-Up]

Constance Demby - Albums Collection 1978-2011 (12CD + DVD5)
EAC | FLAC | Tracks (Cue&Log) ~ 3.58 Gb | Mp3 (CBR320) ~ 1.84 Gb | Scans included
New Age, Neo-Classical, Space Music, Progressive Electronic, Ambient, Spiritual | Time: 11:40:35

Constance Demby is one of the few representatives of the New Age movement (in both her music and her personal philosophies) who consistently creates artistic, highly expressive compositions. Demby was trained in classical music as a child, and her artistic spirit led her to also master several other art forms; at the University of Michigan, she studied painting, sculpture, and music. It was her work as a sculptor that led her to new dimensions of sound. As she was torching a sheet of metal, it roared thunderously, and thus was born the Sonic Steel Instruments: the Whale Sail, and the Space Bass, enormous bowed instruments with deep archetypal resonances.

As an innovator in the world of sound, Demby learned a number of ethnic instruments and found ways to use them inventively. She co-founded a unique multimedia group, Central Maine Power Sound & Light, which toured the East Coast from 1971 to 1976 with their "Space Mass" program and other groundbreaking light/sound and planetarium shows.

In the late '70s, Demby began to investigate the spiritual life by following a discipline that was focused on the inner light and the inner sound, or Surat Shabd Yoga. She found a special affinity for the hammered dulcimer and discovered that her "prayers would turn into song." These devotional songs formed the basis of her first album, Skies Above Skies.

In 1980, Demby, a fifth generation Californian, returned to Marin County north of San Francisco, where she received a warm reception and played concerts to overflow audiences. Here, she founded her own record company, Sound Currents, and released Sunborne, an ambitious five-part tone poem that featured her Sonic Steel instruments, world percussion, synthesizers, hammered dulcimer, and vocals.

The mid-'80s brought changes in recording technology with the advent of digital sampled sounds; Demby embraced this electronic revolution to compose contemporary space music using a full range of symphonic instruments, pipe organ, and choral voices. Tapping into her spiritual guidance, she brought through, track by track, Novus Magnificat, the album that many call the most important New Age recording of all time. This album, released in 1986, was one of the first releases on the Hearts of Space record label. Her other albums with Hearts of Space include the devotional Sacred Space Music, the celebratory Set Free, and Aeterna, the emotionally cathartic sequel to Novus Magnificat.

Demby says of the artistry and spiritual impact of her music: "Novus Magnificat reached 'up and out' to catch a galactic beam through space. Aeterna is down and into the heart, here and now. Now our society is in the thick of it, and if people do not handle their feelings, we are in trouble. My music is emotional, but it is always redemptive. If my music stirs things up and takes you down into your feelings, it will then transmute, take you up and out again and redeem. If the listener approaches music with 'active listening,' or with full absorption, and if the music has spiritual commitment and depth, then music can blow your mind. It will make you weep. And you will wonder breathlessly,'God, what was that? It did something to me!'"

In 2000, after release of a few private label albums, Demby moved from Southern California to Barcelona, Spain, relishing the openness of its people for music and the arts.

Biography by Carol Wright, Allmusic.com

Constance Demby - Albums Collection 1978-2011 (12CD + DVD5) [Re-Up]






Constance Demby - Albums Collection 1978-2011 (12CD + DVD5) [Re-Up]

Constance Demby - Skies Above Skies (1978)
EAC | FLAC | Tracks (Cue&Log) ~ 290 Mb | Mp3 (CBR320) ~ 152 Mb
Label: Sound Currents/Current Sounds | # SC-SAS | Time: 00:58:14 | Scans included

Constance Demby, the "queen of symphonic spacemusic," draws from an international palette of musical mysticism on this 1978 spiritual album. Meditative drones from twanging tamboura, noble organ chords, shimmering waves of the hammered dulcimer, and cello overtones overlap to create sonic tapestries, heady settings for seven chants and prayers sung by Demby. The Tibetan chant "Om Mani Padme Hum" offers intoxicating layers upon layers of sounds and voices. The Chinese-flavored "Peace of God," with lyrics by Annie Besant, dances suspensefully between the flittering of the hammered dulcimer and the deeply resonant twang of the Chinese cheng (a koto-like instrument). The Chinese mode is employed again on "El Mie." The "St. Francis Prayer" brings words above the plateaus of the hammered dulcimer. The devotional "Sant Ji" brings in just a touch of synthesizer sweetening to create expansive vistas of heaven; listening is almost like flying. The multi-instrumental Demby plays all the instruments and sings, and the sonic effects are quite an achievement for the synthesizer and overdubbing technology of the time. What makes Skies Above Skies so enduring is Demby's sensitivity toward the "live" sonic vibrations of her voice and instruments and her alignment with the sentiments of the holy prayers. It is like the nectar of profound innocence.

Review by Carol Wright, Allmusic.com

Tracklist:

01. Om Mani Padme Hum (9:58)
02. Endless (8:59)
03. Peace of God (11:55)
04. El Mie (8:10)
05. St. Francis Prayer (4:56)
06. Sant Ji (5:10)
07. God Is (9:08)


Exact Audio Copy V1.0 beta 1 from 15. November 2010

EAC extraction logfile from 28. July 2011, 0:59

Constance Demby / Skies above skies

Used drive : PIONEER DVD-RW DVR-218L Adapter: 0 ID: 0

Read mode : Secure
Utilize accurate stream : Yes
Defeat audio cache : Yes
Make use of C2 pointers : No

Read offset correction : 6
Overread into Lead-In and Lead-Out : No
Fill up missing offset samples with silence : Yes
Delete leading and trailing silent blocks : No
Null samples used in CRC calculations : Yes
Used interface : Installed external ASPI interface
Gap handling : Appended to previous track

Used output format : User Defined Encoder
Selected bitrate : 896 kBit/s
Quality : High
Add ID3 tag : No
Command line compressor : C:\Program Files\Exact Audio Copy\FLAC\FLAC.EXE
Additional command line options : -8 -V -T "ARTIST=%a" -T "TITLE=%t" -T "ALBUM=%g" -T "DATE=%y" -T "TRACKNUMBER=%n" -T "GENRE=%m" -T "COMMENT=ripped by boccador" %s


TOC of the extracted CD

Track | Start | Length | Start sector | End sector
––––––––––––––––––––––––––––-
1 | 0:00.00 | 9:57.42 | 0 | 44816
2 | 9:57.42 | 8:58.65 | 44817 | 85231
3 | 18:56.32 | 11:54.53 | 85232 | 138834
4 | 30:51.10 | 8:09.62 | 138835 | 175571
5 | 39:00.72 | 4:56.03 | 175572 | 197774
6 | 43:57.00 | 5:09.67 | 197775 | 221016
7 | 49:06.67 | 9:07.43 | 221017 | 262084


Track 1

Filename D:\torrent\ripped by boccador\01. Constance Demby – Om Mani Padme Hum.wav

Pre-gap length 0:00:02.00

Peak level 58.9 %
Extraction speed 1.4 X
Track quality 100.0 %
Test CRC 52957170
Copy CRC 52957170
Accurately ripped (confidence 1) [233E8E94]
Copy OK

Track 2

Filename D:\torrent\ripped by boccador\02. Constance Demby – Endless.wav

Peak level 92.5 %
Extraction speed 1.6 X
Track quality 100.0 %
Test CRC 02BDED82
Copy CRC 02BDED82
Accurately ripped (confidence 1) [4104C4CE]
Copy OK

Track 3

Filename D:\torrent\ripped by boccador\03. Constance Demby – Peace of God.wav

Peak level 91.4 %
Extraction speed 1.9 X
Track quality 100.0 %
Test CRC D39F31F4
Copy CRC D39F31F4
Accurately ripped (confidence 1) [4F436887]
Copy OK

Track 4

Filename D:\torrent\ripped by boccador\04. Constance Demby – El Mie.wav

Peak level 84.6 %
Extraction speed 2.1 X
Track quality 100.0 %
Test CRC 0BF96BA1
Copy CRC 0BF96BA1
Accurately ripped (confidence 1) [4EA54CC0]
Copy OK

Track 5

Filename D:\torrent\ripped by boccador\05. Constance Demby – St Francis Prayer.wav

Peak level 65.5 %
Extraction speed 2.1 X
Track quality 100.0 %
Test CRC 47092017
Copy CRC 47092017
Accurately ripped (confidence 1) [384891F9]
Copy OK

Track 6

Filename D:\torrent\ripped by boccador\06. Constance Demby – Sant Ji.wav

Peak level 54.2 %
Extraction speed 2.2 X
Track quality 100.0 %
Test CRC 98B8F17A
Copy CRC 98B8F17A
Accurately ripped (confidence 1) [1100743F]
Copy OK

Track 7

Filename D:\torrent\ripped by boccador\07. Constance Demby – God Is.wav

Peak level 84.8 %
Extraction speed 2.3 X
Track quality 99.9 %
Test CRC 2F7E4D7F
Copy CRC 2F7E4D7F
Accurately ripped (confidence 1) [FC38C005]
Copy OK


All tracks accurately ripped

No errors occurred

End of status report

==== Log checksum EF24DB2105C335F285657A0646B2EC8FB7054F040C424814F9C63BE545A9B100 ====

foobar2000 1.2 / Dynamic Range Meter 1.1.1
log date: 2013-06-22 14:20:59

––––––––––––––––––––––––––––––––––––––––
Analyzed: Constance Demby / Skies above skies
––––––––––––––––––––––––––––––––––––––––

DR Peak RMS Duration Track
––––––––––––––––––––––––––––––––––––––––
DR12 -4.59 dB -20.57 dB 9:58 01-Om Mani Padme Hum
DR13 -0.67 dB -18.02 dB 8:59 02-Endless
DR15 -0.78 dB -21.73 dB 11:55 03-Peace of God
DR13 -1.44 dB -21.09 dB 8:10 04-El Mie
DR13 -3.67 dB -20.38 dB 4:56 05-St Francis Prayer
DR11 -5.32 dB -22.02 dB 5:10 06-Sant Ji
DR10 -1.43 dB -14.98 dB 9:08 07-God Is
––––––––––––––––––––––––––––––––––––––––

Number of tracks: 7
Official DR value: DR12

Samplerate: 44100 Hz
Channels: 2
Bits per sample: 16
Bitrate: 637 kbps
Codec: FLAC
================================================================================




Constance Demby - Albums Collection 1978-2011 (12CD + DVD5) [Re-Up]

Constance Demby - Sunborne (1980)
EAC | FLAC | Tracks (Cue&Log) ~ 165 Mb | Mp3 (CBR320) ~ 98 Mb
Label: Sound Currents/Current Sounds | # SC-SUN | Time: 00:36:30 | Scans included

Constance Demby, the "queen of symphonic spacemusic," recorded this full-bodied musical tonepoem in 1980; I use the term "full-bodied" because Sunborne features Demby's extraordinary musical inventions, the Space Bass and the Whale Sail, two enormous bowed sheetmetal sculptures. Demby makes them roar like thunder and sing like whales, and I doubt any synthesizer–even these days–could emulate their presence. Sunborne is a five-movement symphonic space-poem with lyrics from the "Emerald Tablets," an ancient text by Hermes Trismegistus. The recording–using keyboard synthesizer, zither, gamelon, the sparkling hammered dulcimer, cheng, tabla, percussion, and vocals–evokes ancient primordial stirrings and heady futuristic space voyages, watery depths and exploding rays of light. The title cut swirls and blips with inner electronic space galaxies powered by a driving percussion and Demby's centered, hypnotic voice. "One with the Light" begins with the breathtaking and resonant Chinese cheng which is then joined by the plaintive cries of the Whale Sail. Its voyage through the empty, echoing void is heartbreaking until Demby's eternal voice encourages its return to the light. Sunborne is both a feast for the ears and an incredible vibrational voyage for the soul. Don headphones, grab a comfy armchair, crank up the speakers, close your eyes, and let yourself fly. Guest artists include Laksmi G. Tewari (tabla), Hugh Robbins and John Sergeant (synthesizer special effects), David Burn (bass and drums), and Warren Davis (percussion).

Review by Carol Wright, Allmusic.com

Tracklist:

01. The Dawning (08:28)
02. Darkness of Space (06:45)
03. Lift Thine Eyes (07:09)
04. Sunborne (06:01)
05. One with the Light (08:04)


Exact Audio Copy V1.0 beta 1 from 15. November 2010

EAC extraction logfile from 28. June 2011, 13:29

Constance Demby / Sunborne

Used drive : HP DVD Writer 1270r Adapter: 1 ID: 0

Read mode : Secure
Utilize accurate stream : Yes
Defeat audio cache : Yes
Make use of C2 pointers : No

Read offset correction : 48
Overread into Lead-In and Lead-Out : No
Fill up missing offset samples with silence : Yes
Delete leading and trailing silent blocks : No
Null samples used in CRC calculations : Yes
Used interface : Installed external ASPI interface
Gap handling : Appended to previous track

Used output format : User Defined Encoder
Selected bitrate : 32 kBit/s
Quality : High
Add ID3 tag : No
Command line compressor : C:\Program Files\Exact Audio Copy\Flac\flac.exe
Additional command line options : -8 -V -T "ARTIST=%a" -T "TITLE=%t" -T "ALBUM=%g" -T "DATE=%y" -T "TRACKNUMBER=%n" -T "GENRE=%m" -T "COMMENT=ripped by boccador" %s


TOC of the extracted CD

Track | Start | Length | Start sector | End sector
––––––––––––––––––––––––––––-
1 | 0:00.00 | 8:28.42 | 0 | 38141
2 | 8:28.42 | 6:45.60 | 38142 | 68576
3 | 15:14.27 | 7:09.62 | 68577 | 100813
4 | 22:24.14 | 6:01.54 | 100814 | 127942
5 | 28:25.68 | 8:04.01 | 127943 | 164243


Track 1

Filename D:\torrent\ripped by boccador\01. Constance Demby – The Dawning.wav

Pre-gap length 0:00:02.00

Peak level 94.3 %
Extraction speed 2.9 X
Track quality 100.0 %
Test CRC 0E2EF169
Copy CRC 0E2EF169
Accurately ripped (confidence 1) [4F2F142B]
Copy OK

Track 2

Filename D:\torrent\ripped by boccador\02. Constance Demby – Darkness of Space.wav

Peak level 69.6 %
Extraction speed 3.2 X
Track quality 100.0 %
Test CRC ABEA3062
Copy CRC ABEA3062
Accurately ripped (confidence 1) [15B2BE02]
Copy OK

Track 3

Filename D:\torrent\ripped by boccador\03. Constance Demby – Lift Thine Eyes.wav

Peak level 86.5 %
Extraction speed 3.6 X
Track quality 100.0 %
Test CRC 52071ED6
Copy CRC 52071ED6
Accurately ripped (confidence 1) [740DE1A8]
Copy OK

Track 4

Filename D:\torrent\ripped by boccador\04. Constance Demby – Sunborne.wav

Peak level 100.0 %
Extraction speed 3.9 X
Track quality 100.0 %
Test CRC 91D36096
Copy CRC 91D36096
Accurately ripped (confidence 1) [F43A77F3]
Copy OK

Track 5

Filename D:\torrent\ripped by boccador\05. Constance Demby – One with the Light.wav

Peak level 83.2 %
Extraction speed 4.3 X
Track quality 100.0 %
Test CRC 0F8A6C05
Copy CRC 0F8A6C05
Accurately ripped (confidence 1) [4C734723]
Copy OK


All tracks accurately ripped

No errors occurred

End of status report

==== Log checksum 64F18A23AEFA4A70E095551FA7DCC24AD443015A3FE82377499EFA7886A3E72F ====

foobar2000 1.2 / Dynamic Range Meter 1.1.1
log date: 2013-06-22 14:21:36

––––––––––––––––––––––––––––––––––––––––
Analyzed: Constance Demby / Sunborne
––––––––––––––––––––––––––––––––––––––––

DR Peak RMS Duration Track
––––––––––––––––––––––––––––––––––––––––
DR8 -0.50 dB -12.35 dB 8:29 01-The Dawning
DR11 -3.15 dB -19.46 dB 6:46 02-Darkness of Space
DR13 -1.26 dB -18.75 dB 7:10 03-Lift Thine Eyes
DR8 0.00 dB -11.51 dB 6:02 04-Sunborne
DR11 -1.59 dB -17.89 dB 8:04 05-One with the Light
––––––––––––––––––––––––––––––––––––––––

Number of tracks: 5
Official DR value: DR10

Samplerate: 44100 Hz
Channels: 2
Bits per sample: 16
Bitrate: 573 kbps
Codec: FLAC
================================================================================




Constance Demby - Albums Collection 1978-2011 (12CD + DVD5) [Re-Up]

Constance Demby - Novus Magnificat: Through The Stargate (1986)
EAC | FLAC | Tracks (Cue&Log) ~ 288 Mb | Mp3 (CBR320) ~ 130 Mb
Label: Hearts Of Space | # 11003-2 | Time: 00:53:38 | Scans included

This two-part album of symphonic space music by Constance Demby is a must-have. Divinely inspired? Probably so; for those who believe in Fate, the timing of its release was in alignment with the arrival of the Harmonic Convergence. Demby, with her years on the road with an experimental music group, was used to creating massive spiritual works: large sounds, unusual instruments, and broad scopes. Novus Magnificat was her first album produced with her 16-track studio using digital sampling technology. Here, she had all the voices of the orchestra and choir at her fingertips, and she used all 16 tracks (and then some) to complete the composition. The music is in two parts: part one is like wandering the halls of heaven before the Big Event. Choir sounds bounce from cloud formations, and redemption seems at hand. Though Demby sets an overall path of sound, rhapsodic cul-de-sacs appear like intimate and sacred shrines. Part two begins with a Bach-like organ piece, which creates fascinating inner structures. Demby then takes you through long hallways; angels sing nearby, melodies tug at your heart, space winds clean away cobwebs of the mind. Trumpets begin their heralding calls, an organ sings in anticipation, choirs rejoice, harps fly, shooting stars sparkle. Peak builds on crescendo until ultimately, the cosmos split open and the whole universe joyously avalanches through with the angels enjoying the ride. This awe-inspiring and breathtaking anointment is worth playing on a good sound system. Crank up the sound, place yourself between the speakers, and allow yourself the gift of this music. Space music composer Michael Stearns contributed special celestial sonic effects.

Review by Carol Wright, Allmusic.com

Tracklist:

01. Part One (26:24)
02. Part Two (27:14)


Exact Audio Copy V0.99 prebeta 4 from 23. January 2008

EAC extraction logfile from 25. August 2008, 11:31

Constance Demby / Novus Magnificat: Through The Stargate

Used drive : Optiarc DVD RW AD-7203A Adapter: 5 ID: 0

Read mode : Secure
Utilize accurate stream : Yes
Defeat audio cache : Yes
Make use of C2 pointers : No

Read offset correction : 48
Overread into Lead-In and Lead-Out : No
Fill up missing offset samples with silence : Yes
Delete leading and trailing silent blocks : No
Null samples used in CRC calculations : Yes
Used interface : Installed external ASPI interface
Gap handling : Appended to previous track

Used output format : User Defined Encoder
Selected bitrate : 192 kBit/s
Quality : High
Add ID3 tag : No
Command line compressor : C:\Program Files\Exact Audio Copy\Flac\flac.exe
Additional command line options : -8 -A tukey(0.25) -A gauss(0.1875) -b 4096 -V -T "artist=%a" -T "title=%t" -T "album=%g" -T "date=%y" -T "tracknumber=%n" -T "genre=%m" %s –sector-align


TOC of the extracted CD

Track | Start | Length | Start sector | End sector
––––––––––––––––––––––––––––-
1 | 0:00.32 | 26:24.05 | 32 | 118836
2 | 26:24.37 | 27:14.23 | 118837 | 241409


Track 1

Filename G:\Music\Electronic, Ambient\Constance Demby\1986 - Novus Magnificat (Through The Stargate)\01. Constance Demby - Part One.wav

Pre-gap length 0:00:02.42

Peak level 100.0 %
Track quality 100.0 %
Test CRC 911A5FF2
Copy CRC 911A5FF2
Cannot be verified as accurate (confidence 3) [66E92D0A], AccurateRip returned [2E785F4C]
Copy OK

Track 2

Filename G:\Music\Electronic, Ambient\Constance Demby\1986 - Novus Magnificat (Through The Stargate)\02. Constance Demby - Part Two.wav

Pre-gap length 0:00:09.76

Peak level 78.4 %
Track quality 100.0 %
Test CRC F9E14128
Copy CRC F9E14128
Cannot be verified as accurate (confidence 3) [3365E792], AccurateRip returned [3D394EFD]
Copy OK


No tracks could be verified as accurate
You may have a different pressing from the one(s) in the database

No errors occurred

End of status report

foobar2000 1.2 / Dynamic Range Meter 1.1.1
log date: 2013-06-23 11:35:18

––––––––––––––––––––––––––––––––––––––––
Analyzed: Constance Demby / Novus Magnificat: Through The Stargate
––––––––––––––––––––––––––––––––––––––––

DR Peak RMS Duration Track
––––––––––––––––––––––––––––––––––––––––
DR13 0.00 dB -19.64 dB 26:24 01-Part One
DR13 -2.11 dB -20.09 dB 27:14 02-Part Two
––––––––––––––––––––––––––––––––––––––––

Number of tracks: 2
Official DR value: DR13

Samplerate: 44100 Hz
Channels: 2
Bits per sample: 16
Bitrate: 718 kbps
Codec: FLAC
================================================================================




Constance Demby - Albums Collection 1978-2011 (12CD + DVD5) [Re-Up]

Constance Demby - Light of This World (1987)
EAC | FLAC | Tracks (Cue&Log) ~ 350 Mb | Mp3 (CBR320) ~ 164 Mb
Label: Sound Currents/Current Sounds | # SC-LOW | Time: 01:03:22 | Scans included

Light of this World: The Best of Constance Demby offers a sampler of the music of the "queen of spacemusic" from her 1978 Skies above Skies through the 1986 masterpiece Novus Magnificat; two bonus tracks were written for this compilation album. The title track opens the album, an inspiring and brash pop vocal piece (Demby sounds remarkably like Bette Midler) with female backup vocals, hot drums, electric guitar emulator, and bass. The title track from Demby's 1980 Sunborne also showcases Demby's voice, but in her more cosmic and chantlike mode. The instrumentation is vast – organ sounds, trap set, piano – a sound fit for the birth of galaxies. The exhilarating "Flying Bach" from Novus Magnificat features some fancy organ work with sampled chorus and orchestra. "Radiance" from Sacred Space Music offers an organ drone with the sparkling tones of the hammered dulcimer. Overhead, Demby vocalizes like an angel. "The Dawning" from Sunborne showcases Demby's enormous Sonic Steel Instruments, the Space Bass and the Whale Sail. Demby's 1994 live album, Constance Demby at Alaron, is represented by two pieces, "The Chakoor Bird" (on which Demby plays the resonant Chinese cheng) and "Gurudev Aja," an exotic synthesizer piece with drone. Demby's first album, Skies above Skies, is represented by two devotional prayers, "OmManiPadmeHum" (radiant piano and organ drone) and "God Is" (a mystical work for organ). "Sanctus" ends the album, a radiant new piece brimming with chimes and gongs. None of the pieces here tops seven minutes (the pieces may last to a half hour in the original versions), but I could not sense any had been cut. A lot of albums claim "best of"; this one delivers. Demby is a visionary musician, and this album should whet your appetite for more.

Review by Carol Wright, Allmusic.com

Tracklist:

01. Light of This World (6:57)
02. Sunborne (4:21)
03. The Flying Bach (6:09)
04. Radiance (4:53)
05. The Dawning (4:13)
06. My Heart Doth Soar (4:03)
07. Darkness of Space (6:52)
08. The Longing (5:39)
09. The Chakoor Bird (6:30)
10. Gurudev Aja (3:54)
11. OmManiPadmHum (3:47)
12. God is (3:29)
13. Sanctus (2:36)


Exact Audio Copy V1.0 beta 1 from 15. November 2010

EAC extraction logfile from 1. September 2011, 11:49

Constance Demby / Light of This World

Used drive : HP DVD Writer 1270r Adapter: 2 ID: 0

Read mode : Secure
Utilize accurate stream : Yes
Defeat audio cache : Yes
Make use of C2 pointers : No

Read offset correction : 48
Overread into Lead-In and Lead-Out : No
Fill up missing offset samples with silence : Yes
Delete leading and trailing silent blocks : No
Null samples used in CRC calculations : Yes
Used interface : Installed external ASPI interface
Gap handling : Appended to previous track

Used output format : User Defined Encoder
Selected bitrate : 896 kBit/s
Quality : High
Add ID3 tag : No
Command line compressor : C:\Program Files\Exact Audio Copy\FLAC\FLAC.EXE
Additional command line options : -8 -V -T "ARTIST=%a" -T "TITLE=%t" -T "ALBUM=%g" -T "DATE=%y" -T "TRACKNUMBER=%n" -T "GENRE=%m" -T "COMMENT=ripped by boccador" %s


TOC of the extracted CD

Track | Start | Length | Start sector | End sector
––––––––––––––––––––––––––––-
1 | 0:00.00 | 6:57.37 | 0 | 31311
2 | 6:57.37 | 4:21.36 | 31312 | 50922
3 | 11:18.73 | 6:08.38 | 50923 | 78560
4 | 17:27.36 | 4:52.54 | 78561 | 100514
5 | 22:20.15 | 4:13.15 | 100515 | 119504
6 | 26:33.30 | 4:03.27 | 119505 | 137756
7 | 30:36.57 | 6:51.40 | 137757 | 168621
8 | 37:28.22 | 5:38.52 | 168622 | 194023
9 | 43:06.74 | 6:29.73 | 194024 | 223271
10 | 49:36.72 | 3:53.57 | 223272 | 240803
11 | 53:30.54 | 3:46.62 | 240804 | 257815
12 | 57:17.41 | 3:28.50 | 257816 | 273465
13 | 60:46.16 | 2:35.73 | 273466 | 285163


Track 1

Filename D:\torrent\ripped by boccador\01. Constance Demby – Light of This World.wav

Pre-gap length 0:00:02.00

Peak level 79.2 %
Extraction speed 2.8 X
Track quality 100.0 %
Test CRC C638367C
Copy CRC C638367C
Track not present in AccurateRip database
Copy OK

Track 2

Filename D:\torrent\ripped by boccador\02. Constance Demby – Sunborne.wav

Peak level 73.7 %
Extraction speed 3.0 X
Track quality 100.0 %
Test CRC 21D5BF82
Copy CRC 21D5BF82
Accurately ripped (confidence 1) [E9DAA93A]
Copy OK

Track 3

Filename D:\torrent\ripped by boccador\03. Constance Demby – The Flying Bach.wav

Peak level 69.5 %
Extraction speed 3.4 X
Track quality 100.0 %
Test CRC F4854850
Copy CRC F4854850
Accurately ripped (confidence 1) [C0927C72]
Copy OK

Track 4

Filename D:\torrent\ripped by boccador\04. Constance Demby – Radiance.wav

Peak level 55.7 %
Extraction speed 3.6 X
Track quality 100.0 %
Test CRC 2AAA7854
Copy CRC 2AAA7854
Accurately ripped (confidence 1) [6A8FA2B4]
Copy OK

Track 5

Filename D:\torrent\ripped by boccador\05. Constance Demby – The Dawning.wav

Peak level 54.9 %
Extraction speed 3.6 X
Track quality 100.0 %
Test CRC 9046A18E
Copy CRC 9046A18E
Accurately ripped (confidence 1) [9BCFCBCC]
Copy OK

Track 6

Filename D:\torrent\ripped by boccador\06. Constance Demby – My Heart Doth Soar.wav

Peak level 53.9 %
Extraction speed 3.8 X
Track quality 100.0 %
Test CRC 1CC9046B
Copy CRC 1CC9046B
Accurately ripped (confidence 1) [DFA66416]
Copy OK

Track 7

Filename D:\torrent\ripped by boccador\07. Constance Demby – Darkness of Space.wav

Peak level 71.4 %
Extraction speed 4.3 X
Track quality 100.0 %
Test CRC 69810B13
Copy CRC 69810B13
Accurately ripped (confidence 1) [C40B3DCC]
Copy OK

Track 8

Filename D:\torrent\ripped by boccador\08. Constance Demby – The Longing.wav

Peak level 66.3 %
Extraction speed 4.0 X
Track quality 99.9 %
Test CRC 581E3AA4
Copy CRC 581E3AA4
Accurately ripped (confidence 1) [040E264A]
Copy OK

Track 9

Filename D:\torrent\ripped by boccador\09. Constance Demby – The Chakoor Bird.wav

Peak level 67.2 %
Extraction speed 4.8 X
Track quality 100.0 %
Test CRC 4140FBE2
Copy CRC 4140FBE2
Accurately ripped (confidence 1) [122A80FA]
Copy OK

Track 10

Filename D:\torrent\ripped by boccador\10. Constance Demby – Gurudev Aja.wav

Peak level 56.9 %
Extraction speed 4.0 X
Track quality 99.9 %
Test CRC 0D6FC079
Copy CRC 0D6FC079
Accurately ripped (confidence 1) [3B6896BE]
Copy OK

Track 11

Filename D:\torrent\ripped by boccador\11. Constance Demby – OmManiPadmHum.wav

Peak level 72.5 %
Extraction speed 4.7 X
Track quality 100.0 %
Test CRC 33ED369F
Copy CRC 33ED369F
Accurately ripped (confidence 1) [5B9A681A]
Copy OK

Track 12

Filename D:\torrent\ripped by boccador\12. Constance Demby – God is.wav

Peak level 52.4 %
Extraction speed 4.8 X
Track quality 100.0 %
Test CRC 1217BA4F
Copy CRC 1217BA4F
Accurately ripped (confidence 1) [D2472A5C]
Copy OK

Track 13

Filename D:\torrent\ripped by boccador\13. Constance Demby – Sanctus.wav

Peak level 39.0 %
Extraction speed 4.6 X
Track quality 100.0 %
Test CRC A69BB87A
Copy CRC A69BB87A
Accurately ripped (confidence 1) [7C147F66]
Copy OK


12 track(s) accurately ripped
1 track(s) not present in the AccurateRip database

Some tracks could not be verified as accurate

No errors occurred

End of status report

==== Log checksum A416B08F1423B668E192252FCD47DBB8DE85D4C6E73108D26FA9387A7BBBC516 ====

foobar2000 1.2 / Dynamic Range Meter 1.1.1
log date: 2013-06-22 14:20:06

––––––––––––––––––––––––––––––––––––––––
Analyzed: Constance Demby / Light of This World
––––––––––––––––––––––––––––––––––––––––

DR Peak RMS Duration Track
––––––––––––––––––––––––––––––––––––––––
DR12 -2.02 dB -16.37 dB 6:57 01-Light of This World
DR13 -2.64 dB -17.84 dB 4:21 02-Sunborne
DR11 -3.16 dB -18.60 dB 6:09 03-The Flying Bach
DR10 -5.08 dB -17.70 dB 4:53 04-Radiance
DR11 -5.21 dB -20.31 dB 4:13 05-The Dawning
DR11 -5.36 dB -20.11 dB 4:03 06-My Heart Doth Soar
DR11 -2.92 dB -19.41 dB 6:52 07-Darkness of Space
DR14 -3.56 dB -23.01 dB 5:39 08-The Longing
DR12 -3.44 dB -20.27 dB 6:30 09-The Chakoor Bird
DR11 -4.88 dB -19.74 dB 3:54 10-Gurudev Aja
DR12 -2.78 dB -22.00 dB 3:47 11-OmManiPadmHum
DR9 -5.61 dB -17.53 dB 3:29 12-God is
DR11 -8.16 dB -25.18 dB 2:36 13-Sanctus
––––––––––––––––––––––––––––––––––––––––

Number of tracks: 13
Official DR value: DR12

Samplerate: 44100 Hz
Channels: 2
Bits per sample: 16
Bitrate: 541 kbps
Codec: FLAC
================================================================================




Constance Demby - Albums Collection 1978-2011 (12CD + DVD5) [Re-Up]

Constance Demby - Aeterna (1995)
EAC | FLAC | Tracks (Cue&Log) ~ 343 Mb | Mp3 (CBR320) ~ 161 Mb
Label: Hearts Of Space | # HS11051-2 | Time: 01:04:46 | Scans included

Constance Demby's monumental Novus Magnificat (1986) took its inspiration from the sacred choral and organ music of J.S. Bach. The overall impact of that piece was one of spiritual deliverance, that the heavens and all its angelic choirs arrived to welcome you. It is an incredibly moving piece, but Demby and her celestial inspiration gave the listener a gift, a spiritual "free ride," a release, an anointment. But with 1996's Aeterna, Demby has thankfully decided to pick up where Novus left off. Demby again uses digital samples to re-create lush orchestras, choirs, piano, and cello, but instead of Bach, she taps into the styles of Romantic composers such as Tchaikovsky, Rachmaninoff, and Anton Bruckner; this means stirring up emotions. The album begins with "The Dawning," which has the orchestral colors and the bright hopefulness of Grofe's dawn movement of The Grand Canyon Suite. "Ocean Without Shores" is a piano concerto that surfs themes wave after wave. The three-part "Innocence" has quieter spaces: a star-spangled hall with chimes and a delicate waltz, but later a cautious piano stalking through an orchestral canyon. "Cry of the Heart," awith its ponderous pulls and deep musings, features the mournful cello as the solo instrument. The broad piano/orchestral themes "Eternal Return" is powerfully sweeping. The final suite, "Rites of Passage," acontains Demby's most dynamic melodies and orchestration balanced with wind sounds and moments of abstract sonic dangling. The piano theme then reappears with the smoke and thunder of dragons. The next reappearance of the theme moves upscale with angel choirs, and eventually Demby brings the piece to plateaus of sonic serenity. If you actively listen to the whole album, it's quite possible your ribs will ache with cathartic anguish. If so, then Demby has succeeded; she dedicates the album to "the healing of the heart" and reexperiencing and releasing buried emotions. This awe inspiring and glorious album isn't the "free ride" of Novus Magnificat. This trip with Aeterna must be actively engaged, at least in the beginning listenings, as some music requires your full participation in order to receive the entire emotional impact.

Review by Carol Wright, Allmusic.com

Tracklist:

01. The Dawning (10:22)
02. Ocean Without Shores (05:45)
03. Innocence (Starfields, Innocence, Beloved) (13:15)
04. Cry Of The Heart (06:20)
05. Eternal Return (Unfolding, Enfolding, Return) (10:58)
06. Rites Of Passage (Remembrance, The Calling, Serenity) (18:03)


Exact Audio Copy V0.99 prebeta 4 from 23. January 2008

EAC extraction logfile from 25. August 2008, 12:47

Constance Demby / Aeterna

Used drive : Optiarc DVD RW AD-7203A Adapter: 5 ID: 0

Read mode : Secure
Utilize accurate stream : Yes
Defeat audio cache : Yes
Make use of C2 pointers : No

Read offset correction : 48
Overread into Lead-In and Lead-Out : No
Fill up missing offset samples with silence : Yes
Delete leading and trailing silent blocks : No
Null samples used in CRC calculations : Yes
Used interface : Installed external ASPI interface
Gap handling : Appended to previous track

Used output format : User Defined Encoder
Selected bitrate : 192 kBit/s
Quality : High
Add ID3 tag : No
Command line compressor : C:\Program Files\Exact Audio Copy\Flac\flac.exe
Additional command line options : -8 -A tukey(0.25) -A gauss(0.1875) -b 4096 -V -T "artist=%a" -T "title=%t" -T "album=%g" -T "date=%y" -T "tracknumber=%n" -T "genre=%m" %s –sector-align


TOC of the extracted CD

Track | Start | Length | Start sector | End sector
––––––––––––––––––––––––––––-
1 | 0:00.00 | 10:22.17 | 0 | 46666
2 | 10:22.17 | 5:45.26 | 46667 | 72567
3 | 16:07.43 | 13:15.45 | 72568 | 132237
4 | 29:23.13 | 6:20.68 | 132238 | 160805
5 | 35:44.06 | 10:58.33 | 160806 | 210188
6 | 46:42.39 | 18:03.10 | 210189 | 291423


Track 1

Filename G:\Music\Electronic, Ambient\Constance Demby\1995 - Aeterna\01. Constance Demby - The Dawning.wav

Pre-gap length 0:00:02.00

Peak level 98.8 %
Track quality 99.9 %
Test CRC 25382C00
Copy CRC 25382C00
Accurately ripped (confidence 3) [D0CAE3E1]
Copy OK

Track 2

Filename G:\Music\Electronic, Ambient\Constance Demby\1995 - Aeterna\02. Constance Demby - Ocean Without Shores.wav

Peak level 97.7 %
Track quality 99.9 %
Test CRC 90DD79E7
Copy CRC 90DD79E7
Accurately ripped (confidence 3) [ACE46D68]
Copy OK

Track 3

Filename G:\Music\Electronic, Ambient\Constance Demby\1995 - Aeterna\03. Constance Demby - Innocence (Starfields, Innocence, Beloved).wav

Pre-gap length 0:00:04.60

Peak level 68.3 %
Track quality 99.9 %
Test CRC 503FF6D1
Copy CRC 503FF6D1
Accurately ripped (confidence 3) [6A137C79]
Copy OK

Track 4

Filename G:\Music\Electronic, Ambient\Constance Demby\1995 - Aeterna\04. Constance Demby - Cry Of The Heart.wav

Pre-gap length 0:00:03.60

Peak level 63.3 %
Track quality 100.0 %
Test CRC 4D54A3C3
Copy CRC 4D54A3C3
Accurately ripped (confidence 3) [7168AFBF]
Copy OK

Track 5

Filename G:\Music\Electronic, Ambient\Constance Demby\1995 - Aeterna\05. Constance Demby - Eternal Return (Unfolding, Enfolding, Return).wav

Peak level 95.4 %
Track quality 100.0 %
Test CRC FE7517F1
Copy CRC FE7517F1
Accurately ripped (confidence 3) [D2E3645A]
Copy OK

Track 6

Filename G:\Music\Electronic, Ambient\Constance Demby\1995 - Aeterna\06. Constance Demby - Rites Of Passage (Remembrance, The Calling, Serenity).wav

Peak level 96.6 %
Track quality 100.0 %
Test CRC 201F3953
Copy CRC 201F3953
Accurately ripped (confidence 3) [033B4304]
Copy OK


All tracks accurately ripped

No errors occurred

End of status report

foobar2000 1.2 / Dynamic Range Meter 1.1.1
log date: 2013-06-22 14:18:57

––––––––––––––––––––––––––––––––––––––––
Analyzed: Constance Demby / Aeterna
––––––––––––––––––––––––––––––––––––––––

DR Peak RMS Duration Track
––––––––––––––––––––––––––––––––––––––––
DR13 -0.10 dB -19.18 dB 10:22 01-The Dawning
DR11 -0.20 dB -14.65 dB 5:45 02-Ocean Without Shores
DR13 -3.30 dB -21.61 dB 13:16 03-Innocence (Starfields, Innocence, Beloved)
DR11 -3.97 dB -20.25 dB 6:21 04-Cry Of The Heart
DR14 -0.40 dB -19.76 dB 10:58 05-Eternal Return (Unfolding, Enfolding, Return)
DR13 -0.30 dB -18.32 dB 18:03 06-Rites Of Passage (Remembrance, The Calling, Serenity)
––––––––––––––––––––––––––––––––––––––––

Number of tracks: 6
Official DR value: DR13

Samplerate: 44100 Hz
Channels: 2
Bits per sample: 16
Bitrate: 704 kbps
Codec: FLAC
================================================================================




Constance Demby - Albums Collection 1978-2011 (12CD + DVD5) [Re-Up]

Constance Demby - Sonic Immersion (1996)
EAC | FLAC | Tracks (Cue&Log) ~ 173 Mb | Mp3 (CBR320) ~ 126 Mb
Label: Sound Currents/Current Sounds | # SC-SI | Time: 00:47:35 | Scans included

A vibrational sound attunement and healing journey through the chakras. Like a therapeutic bath, SONIC IMMERSION clears, attunes and heals the energy centers with sound, light and color. " I could feel the corresponding chakra vibrating as you went through each one." …"…A powerful auric clearing. Took me deeply into the chakras to view my issues and fill them with light. Liberating and sublime!"

Recorded live at TOM KENYON'S Sound Healing Conference, this guided meditation is performed with the cosmic penetrating frequencies of the Sonic Steel Space Bass, a very powerful healing instrument. An original design of Constance Demby's, the Space Bass has been recorded by LUCAS SKYWALKER STUDIOS for their filmscores, and filmed by DISCOVERY CHANNEL. The low frequencies and long standing waves of the Space Bass (some 30 ft long), are potent and penetrating, and tend to break up old encrustations."…WHAT AN AMAZING INSTRUMENT!! I was healed by the SPACE BASS, but most important, I felt hope. I have the SONIC IMMERSION CD playing over and over, and I am now inspired to be all that I can be on this planet…"

"I felt altered and cleansed, renewed and deeply relaxed" …. "I arrived at the workshop with an irregular heartbeat, and left with a normal heartbeat"…."The Sonic Immersion touched, opened and cleansed my chakras at a level that is so deep it is usually unreachable in the third dimension. My chakras were expelling old gunk like seven oil wells gushing at the same time!"…. "During the Sonic Immersion, I felt my heart open up, and energy from an endless supply poured from my heart."

Tracklist:

01. Chakra #1 (7:35)
02. Chakra #2 (6:30)
03. Chakra #3 (5:28)
04. Chakra #4 (5:27)
05. Chakra #5 (5:53)
06. Chakra #6 (4:56)
07. Chakra #7 (7:03)
08. Meditation (4:42)


Exact Audio Copy V1.0 beta 1 from 15. November 2010

EAC extraction logfile from 22. June 2011, 14:23

Constance Demby / Sonic Immersion

Used drive : HP DVD Writer 1270r Adapter: 1 ID: 0

Read mode : Secure
Utilize accurate stream : Yes
Defeat audio cache : Yes
Make use of C2 pointers : No

Read offset correction : 48
Overread into Lead-In and Lead-Out : No
Fill up missing offset samples with silence : Yes
Delete leading and trailing silent blocks : No
Null samples used in CRC calculations : Yes
Used interface : Installed external ASPI interface
Gap handling : Appended to previous track

Used output format : User Defined Encoder
Selected bitrate : 32 kBit/s
Quality : High
Add ID3 tag : No
Command line compressor : C:\Program Files\Exact Audio Copy\Flac\flac.exe
Additional command line options : -8 -V -T "ARTIST=%a" -T "TITLE=%t" -T "ALBUM=%g" -T "DATE=%y" -T "TRACKNUMBER=%n" -T "GENRE=%m" -T "COMMENT=ripped by boccador" %s


TOC of the extracted CD

Track | Start | Length | Start sector | End sector
––––––––––––––––––––––––––––-
1 | 0:00.00 | 7:35.34 | 0 | 34158
2 | 7:35.34 | 6:30.01 | 34159 | 63409
3 | 14:05.35 | 5:27.42 | 63410 | 87976
4 | 19:33.02 | 5:26.55 | 87977 | 112481
5 | 24:59.57 | 5:53.28 | 112482 | 138984
6 | 30:53.10 | 4:56.07 | 138985 | 161191
7 | 35:49.17 | 7:03.35 | 161192 | 192951
8 | 42:52.52 | 4:42.27 | 192952 | 214128


Track 1

Filename D:\torrent\ripped by boccador\01. Constance Demby – First Chakra.wav

Pre-gap length 0:00:02.00

Peak level 98.2 %
Extraction speed 2.8 X
Track quality 100.0 %
Test CRC 8E312E14
Copy CRC 8E312E14
Accurately ripped (confidence 1) [A62502F8]
Copy OK

Track 2

Filename D:\torrent\ripped by boccador\02. Constance Demby – Second Chakra.wav

Peak level 85.5 %
Extraction speed 3.2 X
Track quality 100.0 %
Test CRC AD1B99C3
Copy CRC AD1B99C3
Accurately ripped (confidence 1) [6E2A2647]
Copy OK

Track 3

Filename D:\torrent\ripped by boccador\03. Constance Demby – Third Chakra.wav

Peak level 85.6 %
Extraction speed 3.5 X
Track quality 100.0 %
Test CRC F11FD1D7
Copy CRC F11FD1D7
Accurately ripped (confidence 1) [4E912309]
Copy OK

Track 4

Filename D:\torrent\ripped by boccador\04. Constance Demby – Fourth Chakra.wav

Peak level 92.2 %
Extraction speed 3.3 X
Track quality 99.9 %
Test CRC A91BDD4A
Copy CRC A91BDD4A
Accurately ripped (confidence 1) [E2F9131B]
Copy OK

Track 5

Filename D:\torrent\ripped by boccador\05. Constance Demby – Fifth Chakra.wav

Peak level 99.3 %
Extraction speed 4.0 X
Track quality 100.0 %
Test CRC 090CADA4
Copy CRC 090CADA4
Accurately ripped (confidence 1) [F12512FD]
Copy OK

Track 6

Filename D:\torrent\ripped by boccador\06. Constance Demby – Sixth Chakra.wav

Peak level 94.4 %
Extraction speed 4.1 X
Track quality 100.0 %
Test CRC FB855007
Copy CRC FB855007
Accurately ripped (confidence 1) [53F662F9]
Copy OK

Track 7

Filename D:\torrent\ripped by boccador\07. Constance Demby – Seventh Chakra.wav

Peak level 93.4 %
Extraction speed 4.5 X
Track quality 100.0 %
Test CRC 28CA6330
Copy CRC 28CA6330
Accurately ripped (confidence 1) [380024A1]
Copy OK

Track 8

Filename D:\torrent\ripped by boccador\08. Constance Demby – Meditation Music.wav

Peak level 72.9 %
Extraction speed 4.5 X
Track quality 100.0 %
Test CRC B1903693
Copy CRC B1903693
Accurately ripped (confidence 1) [2276AD33]
Copy OK


All tracks accurately ripped

No errors occurred

End of status report

==== Log checksum 444EC6C624F9DD56F95C13083A2D24F6A29AC4E5479186759D27A3A1C78FF1B8 ====

foobar2000 1.2 / Dynamic Range Meter 1.1.1
log date: 2013-06-22 14:21:10

––––––––––––––––––––––––––––––––––––––––
Analyzed: Constance Demby / Sonic Immersion
––––––––––––––––––––––––––––––––––––––––

DR Peak RMS Duration Track
––––––––––––––––––––––––––––––––––––––––
DR9 -0.15 dB -13.29 dB 7:35 01-First Chakra
DR9 -1.35 dB -13.79 dB 6:30 02-Second Chakra
DR9 -1.34 dB -15.25 dB 5:28 03-Third Chakra
DR9 -0.70 dB -13.79 dB 5:27 04-Fourth Chakra
DR9 -0.05 dB -11.97 dB 5:53 05-Fifth Chakra
DR10 -0.49 dB -14.73 dB 4:56 06-Sixth Chakra
DR10 -0.59 dB -14.89 dB 7:03 07-Seventh Chakra
DR9 -2.74 dB -16.03 dB 4:42 08-Meditation Music
––––––––––––––––––––––––––––––––––––––––

Number of tracks: 8
Official DR value: DR9

Samplerate: 44100 Hz
Channels: 2
Bits per sample: 16
Bitrate: 442 kbps
Codec: FLAC
================================================================================




Constance Demby - Albums Collection 1978-2011 (12CD + DVD5) [Re-Up]

Constance Demby - Attunement (2000)
EAC | FLAC | Tracks (Cue&Log) ~ 310 Mb | Mp3 (CBR320) ~ 180 Mb
Label: Sound Currents/Current Sounds | # SC-att | Time: 01:10:24 | Scans included

Constance Demby is a new age and space music veteran. Her marvelous symphonic synthesizer arrangements have documented healing qualities. Attunement: Live in Concert – Dec. 1999 is a set of material that she performed in concert in December of 1999. She released the CD in March of 2000 along with Faces of the Christ; they were her first new discs in about five years. The concert set features Demby's sonic steel instruments – the whale sail and the space bass; she designed and constructed them herself. She accompanies those instruments with three Kurzweil digital sampling synthesizers. The sound is very smooth and caresses listeners warmly. This CD will appeal to fans of Kitaro, Liquid Mind, Darshan Ambient, Paul Avgerinos, and Harold Budd.

Review by Jim Brenholts, Allmusic.com

Tracklist:

01. Bringing Down The Silence (14:53)
02. Strings of my Heart (6:56)
03. Out of the Mist (3:29)
04. Eyes in the Mirror (4:40)
05. Fathoms (Space Bass) (8:50)
06. Deep Mother (9:06)
07. Gabriel's Dragon (5:39)
08. Absolution (8:04)
09. The Light of All (6:12)
10. Ringing in the New (2:36)


Exact Audio Copy V1.0 beta 1 from 15. November 2010

EAC extraction logfile from 25. June 2011, 18:27

Constance Demby / Attunement

Used drive : HP DVD Writer 1270r Adapter: 1 ID: 0

Read mode : Secure
Utilize accurate stream : Yes
Defeat audio cache : Yes
Make use of C2 pointers : No

Read offset correction : 48
Overread into Lead-In and Lead-Out : No
Fill up missing offset samples with silence : Yes
Delete leading and trailing silent blocks : No
Null samples used in CRC calculations : Yes
Used interface : Installed external ASPI interface
Gap handling : Appended to previous track

Used output format : User Defined Encoder
Selected bitrate : 32 kBit/s
Quality : High
Add ID3 tag : No
Command line compressor : C:\Program Files\Exact Audio Copy\Flac\flac.exe
Additional command line options : -8 -V -T "ARTIST=%a" -T "TITLE=%t" -T "ALBUM=%g" -T "DATE=%y" -T "TRACKNUMBER=%n" -T "GENRE=%m" -T "COMMENT=ripped by boccador" %s


TOC of the extracted CD

Track | Start | Length | Start sector | End sector
––––––––––––––––––––––––––––-
1 | 0:00.00 | 14:52.72 | 0 | 66971
2 | 14:52.72 | 6:55.45 | 66972 | 98141
3 | 21:48.42 | 3:29.26 | 98142 | 113842
4 | 25:17.68 | 4:39.67 | 113843 | 134834
5 | 29:57.60 | 8:50.02 | 134835 | 174586
6 | 38:47.62 | 9:06.28 | 174587 | 215564
7 | 47:54.15 | 5:38.66 | 215565 | 240980
8 | 53:33.06 | 8:03.42 | 240981 | 277247
9 | 61:36.48 | 6:11.63 | 277248 | 305135
10 | 67:48.36 | 2:35.59 | 305136 | 316819


Track 1

Filename D:\torrent\ripped by boccador\01. Constance Demby – Bringing Down The Silence.wav

Pre-gap length 0:00:02.00

Peak level 98.3 %
Extraction speed 3.1 X
Track quality 100.0 %
Test CRC 6C865057
Copy CRC 6C865057
Accurately ripped (confidence 1) [C00856FD]
Copy OK

Track 2

Filename D:\torrent\ripped by boccador\02. Constance Demby – Strings of my Heart.wav

Peak level 97.9 %
Extraction speed 3.6 X
Track quality 100.0 %
Test CRC F46D98DC
Copy CRC F46D98DC
Accurately ripped (confidence 1) [6B75E8B5]
Copy OK

Track 3

Filename D:\torrent\ripped by boccador\03. Constance Demby – Out of the Mist.wav

Peak level 100.0 %
Extraction speed 3.6 X
Track quality 100.0 %
Test CRC D07F0A58
Copy CRC D07F0A58
Accurately ripped (confidence 1) [F6B0F4C5]
Copy OK

Track 4

Filename D:\torrent\ripped by boccador\04. Constance Demby – Eyes in the Mirror.wav

Peak level 100.0 %
Extraction speed 3.4 X
Track quality 99.9 %
Test CRC C40B92C4
Copy CRC C40B92C4
Accurately ripped (confidence 1) [729C5D2B]
Copy OK

Track 5

Filename D:\torrent\ripped by boccador\05. Constance Demby – Fathoms (Space Bass).wav

Peak level 100.0 %
Extraction speed 4.4 X
Track quality 100.0 %
Test CRC DEEF23FD
Copy CRC DEEF23FD
Accurately ripped (confidence 1) [C530368F]
Copy OK

Track 6

Filename D:\torrent\ripped by boccador\06. Constance Demby – Deep Mother.wav

Peak level 86.5 %
Extraction speed 4.8 X
Track quality 100.0 %
Test CRC 37A2A921
Copy CRC 37A2A921
Accurately ripped (confidence 1) [5D53E07F]
Copy OK

Track 7

Filename D:\torrent\ripped by boccador\07. Constance Demby – Gabriel's Dragon.wav

Peak level 90.0 %
Extraction speed 4.8 X
Track quality 100.0 %
Test CRC E7E8D94A
Copy CRC E7E8D94A
Accurately ripped (confidence 1) [4E6E5C80]
Copy OK

Track 8

Filename D:\torrent\ripped by boccador\08. Constance Demby – Absolution.wav

Peak level 89.4 %
Extraction speed 5.2 X
Track quality 100.0 %
Test CRC 2D4FA4B3
Copy CRC 2D4FA4B3
Accurately ripped (confidence 1) [08DAFCE2]
Copy OK

Track 9

Filename D:\torrent\ripped by boccador\09. Constance Demby – The Light of All.wav

Peak level 100.0 %
Extraction speed 5.3 X
Track quality 100.0 %
Test CRC 54B6E51D
Copy CRC 54B6E51D
Accurately ripped (confidence 1) [275CF2D8]
Copy OK

Track 10

Filename D:\torrent\ripped by boccador\10. Constance Demby – Ringing in the New.wav

Peak level 35.4 %
Extraction speed 4.8 X
Track quality 100.0 %
Test CRC 1174A1EB
Copy CRC 1174A1EB
Accurately ripped (confidence 1) [5915F3A8]
Copy OK


All tracks accurately ripped

No errors occurred

End of status report

==== Log checksum B4916E57B74C9354D6FE33E25E476C0C753B244405E0042165CC8593B90E2C09 ====

foobar2000 1.2 / Dynamic Range Meter 1.1.1
log date: 2013-06-22 14:19:34

––––––––––––––––––––––––––––––––––––––––
Analyzed: Constance Demby / Attunement
––––––––––––––––––––––––––––––––––––––––

DR Peak RMS Duration Track
––––––––––––––––––––––––––––––––––––––––
DR9 -0.15 dB -13.84 dB 14:53 01-Bringing Down The Silence
DR10 -0.18 dB -14.61 dB 6:56 02-Strings of my Heart
DR14 0.00 dB -19.50 dB 3:29 03-Out of the Mist
DR12 0.00 dB -16.61 dB 4:40 04-Eyes in the Mirror
DR7 0.00 dB -10.08 dB 8:50 05-Fathoms (Space Bass)
DR12 -1.26 dB -18.82 dB 9:06 06-Deep Mother
DR10 -0.91 dB -16.14 dB 5:39 07-Gabriel's Dragon
DR11 -0.97 dB -16.03 dB 8:04 08-Absolution
DR12 0.00 dB -18.02 dB 6:12 09-The Light of All
DR10 -9.00 dB -25.64 dB 2:36 10-Ringing in the New
––––––––––––––––––––––––––––––––––––––––

Number of tracks: 10
Official DR value: DR11

Samplerate: 44100 Hz
Channels: 2
Bits per sample: 16
Bitrate: 440 kbps
Codec: FLAC
================================================================================




Constance Demby - Albums Collection 1978-2011 (12CD + DVD5) [Re-Up]

Constance Demby - Faces of the Christ (2000)
EAC | FLAC | Tracks (Cue&Log) ~ 383 Mb | Mp3 (CBR320) ~ 171 Mb
Label: Sound Currents/Current Sounds | # SC-FOC | Time: 00:58:43 | Scans included

After a five-year hiatus, Constance Demby released two new CDs in March of 2000. Faces of the Christ is the soundtrack to an Avalon Productions film of the same name. The CD has four separate compositions with seamless transitions between them. In essence, the soundtrack is one single 59-minute piece. Demby has a reputation for creating and performing deeply spiritual and sacred atmospheres. This soundscape is reverent, dynamic, and triumphant with somber overtones. This is an absolute classic disc for all collectors of electronic music. It will appeal to fans of Suzanne Ciani, Nik Tyndall, Giles Reaves, J. Arif Verner, and Michael Stearns.

Review by Jim Brenholts, Allmusic.com

Tracklist:

01. Part 1 (14:57)
02. Part 2 (13:11)
03. Part 3 (15:21)
04. Part 4 (15:14)


Exact Audio Copy V1.0 beta 1 from 15. November 2010

EAC extraction logfile from 24. June 2011, 13:16

Constance Demby / Faces of the Christ

Used drive : HP DVD Writer 1270r Adapter: 1 ID: 0

Read mode : Secure
Utilize accurate stream : Yes
Defeat audio cache : Yes
Make use of C2 pointers : No

Read offset correction : 48
Overread into Lead-In and Lead-Out : No
Fill up missing offset samples with silence : Yes
Delete leading and trailing silent blocks : No
Null samples used in CRC calculations : Yes
Used interface : Installed external ASPI interface
Gap handling : Appended to previous track

Used output format : User Defined Encoder
Selected bitrate : 32 kBit/s
Quality : High
Add ID3 tag : No
Command line compressor : C:\Program Files\Exact Audio Copy\Flac\flac.exe
Additional command line options : -8 -V -T "ARTIST=%a" -T "TITLE=%t" -T "ALBUM=%g" -T "DATE=%y" -T "TRACKNUMBER=%n" -T "GENRE=%m" -T "COMMENT=ripped by boccador" %s


TOC of the extracted CD

Track | Start | Length | Start sector | End sector
––––––––––––––––––––––––––––-
1 | 0:00.00 | 14:57.02 | 0 | 67276
2 | 14:57.02 | 13:10.70 | 67277 | 126596
3 | 28:07.72 | 15:21.05 | 126597 | 195676
4 | 43:29.02 | 15:13.73 | 195677 | 264224


Track 1

Filename D:\torrent\ripped by boccador\01. Constance Demby – Part 1.wav

Pre-gap length 0:00:02.00

Peak level 95.3 %
Extraction speed 3.1 X
Track quality 100.0 %
Test CRC DBB4FDBF
Copy CRC DBB4FDBF
Track not present in AccurateRip database
Copy OK

Track 2

Filename D:\torrent\ripped by boccador\02. Constance Demby – Part 2.wav

Peak level 84.8 %
Extraction speed 3.9 X
Track quality 100.0 %
Test CRC C8464557
Copy CRC C8464557
Track not present in AccurateRip database
Copy OK

Track 3

Filename D:\torrent\ripped by boccador\03. Constance Demby – Part 3.wav

Peak level 99.9 %
Extraction speed 4.6 X
Track quality 100.0 %
Test CRC 537EEE38
Copy CRC 537EEE38
Track not present in AccurateRip database
Copy OK

Track 4

Filename D:\torrent\ripped by boccador\04. Constance Demby – Part 4.wav

Peak level 84.5 %
Extraction speed 5.2 X
Track quality 100.0 %
Test CRC 88402C9E
Copy CRC 88402C9E
Track not present in AccurateRip database
Copy OK


None of the tracks are present in the AccurateRip database

No errors occurred

End of status report

==== Log checksum EB0EFB5BD57BE2D020687CD9850780914A975FB67123A200EC0653B87AD93A75 ====

foobar2000 1.2 / Dynamic Range Meter 1.1.1
log date: 2013-06-22 14:19:49

––––––––––––––––––––––––––––––––––––––––
Analyzed: Constance Demby / Faces of the Christ
––––––––––––––––––––––––––––––––––––––––

DR Peak RMS Duration Track
––––––––––––––––––––––––––––––––––––––––
DR11 -0.41 dB -15.34 dB 14:57 01-Part 1
DR11 -1.42 dB -16.82 dB 13:11 02-Part 2
DR11 0.00 dB -15.28 dB 15:21 03-Part 3
DR11 -1.46 dB -16.93 dB 15:14 04-Part 4
––––––––––––––––––––––––––––––––––––––––

Number of tracks: 4
Official DR value: DR11

Samplerate: 44100 Hz
Channels: 2
Bits per sample: 16
Bitrate: 771 kbps
Codec: FLAC
================================================================================




Constance Demby - Albums Collection 1978-2011 (12CD + DVD5) [Re-Up]

Constance Demby - Sanctum Sanctuorum (2003)
EAC | FLAC | Tracks (Cue&Log) ~ 259 Mb | Mp3 (CBR320) ~ 124 Mb
Label: Hearts of Space | # HOS 11411 | Time: 00:45:39 | Scans included

Sanctum Sanctuorum is Constance Demby's companion to Faces of the Christ. She built this set from the basics of that CD. She makes it quite clear that this deep space music is intended for meditation and introspection. The soundscapes just reach out and grab listeners. The gentle orchestral tones, Gregorian chant samples, and Demby's own wordless vocals create a cushion that allows listeners to enter a trance-like state of being. It becomes an alternate awareness. Within that state, deep listeners see more clearly. The journey leads to increased spiritual and emotional well-being. This CD will appeal to fans of Steven Halpern, Suzanne Ciani, Paul Sauvanet, and Diane Arkenstone. It is essential for new age and space music fans.

Review by Jim Brenholts, Allmusic.com

Tracklist:

01. Alleluiah (5:44)
02. Invocation (12:54)
03. Formless Presence (6:13)
04. Gateway (8:00)
05. Haven of Peace (7:15)
06. Sanctuary (5:43)


Exact Audio Copy V1.0 beta 1 from 15. November 2010

EAC extraction logfile from 31. August 2011, 13:22

Constance Demby / Sanctum Sanctuorum

Used drive : HP DVD Writer 1270r Adapter: 2 ID: 0

Read mode : Secure
Utilize accurate stream : Yes
Defeat audio cache : Yes
Make use of C2 pointers : No

Read offset correction : 48
Overread into Lead-In and Lead-Out : No
Fill up missing offset samples with silence : Yes
Delete leading and trailing silent blocks : No
Null samples used in CRC calculations : Yes
Used interface : Installed external ASPI interface
Gap handling : Appended to previous track

Used output format : User Defined Encoder
Selected bitrate : 896 kBit/s
Quality : High
Add ID3 tag : No
Command line compressor : C:\Program Files\Exact Audio Copy\FLAC\FLAC.EXE
Additional command line options : -8 -V -T "ARTIST=%a" -T "TITLE=%t" -T "ALBUM=%g" -T "DATE=%y" -T "TRACKNUMBER=%n" -T "GENRE=%m" -T "COMMENT=ripped by boccador" %s


TOC of the extracted CD

Track | Start | Length | Start sector | End sector
––––––––––––––––––––––––––––-
1 | 0:00.00 | 5:44.18 | 0 | 25817
2 | 5:44.18 | 12:53.68 | 25818 | 83860
3 | 18:38.11 | 6:12.59 | 83861 | 111819
4 | 24:50.70 | 7:59.74 | 111820 | 147818
5 | 32:50.69 | 7:15.10 | 147819 | 180453
6 | 40:06.04 | 5:42.38 | 180454 | 206141


Track 1

Filename D:\torrent\ripped by boccador\01. Constance Demby – Alleluiah.wav

Pre-gap length 0:00:02.00

Peak level 100.0 %
Extraction speed 2.4 X
Track quality 100.0 %
Test CRC 8BB9540A
Copy CRC 8BB9540A
Accurately ripped (confidence 5) [92FD6C09]
Copy OK

Track 2

Filename D:\torrent\ripped by boccador\02. Constance Demby – Invocation.wav

Pre-gap length 0:00:03.53

Peak level 100.0 %
Extraction speed 3.2 X
Track quality 100.0 %
Test CRC 0EC297CE
Copy CRC 0EC297CE
Accurately ripped (confidence 6) [DACF5026]
Copy OK

Track 3

Filename D:\torrent\ripped by boccador\03. Constance Demby – Formless Presence.wav

Pre-gap length 0:00:03.53

Peak level 100.0 %
Extraction speed 3.5 X
Track quality 100.0 %
Test CRC D2749F94
Copy CRC D2749F94
Accurately ripped (confidence 6) [ADA8A0E5]
Copy OK

Track 4

Filename D:\torrent\ripped by boccador\04. Constance Demby – Gateway.wav

Pre-gap length 0:00:03.53

Peak level 98.8 %
Extraction speed 3.9 X
Track quality 100.0 %
Test CRC 2D580678
Copy CRC 2D580678
Accurately ripped (confidence 6) [8656B038]
Copy OK

Track 5

Filename D:\torrent\ripped by boccador\05. Constance Demby – Haven of Peace.wav

Pre-gap length 0:00:03.53

Peak level 98.8 %
Extraction speed 4.2 X
Track quality 100.0 %
Test CRC FD100F61
Copy CRC FD100F61
Accurately ripped (confidence 6) [D31066D7]
Copy OK

Track 6

Filename D:\torrent\ripped by boccador\06. Constance Demby – Sanctuary.wav

Pre-gap length 0:00:03.53

Peak level 98.8 %
Extraction speed 4.4 X
Track quality 100.0 %
Test CRC AFCFAED5
Copy CRC AFCFAED5
Accurately ripped (confidence 6) [3708F9D1]
Copy OK


All tracks accurately ripped

No errors occurred

End of status report

==== Log checksum C7D2B82B4EE27FACB467727A106160A77F1FAE2ECA23B28B080289793E0910E9 ====

foobar2000 1.2 / Dynamic Range Meter 1.1.1
log date: 2013-06-22 14:20:18

––––––––––––––––––––––––––––––––––––––––
Analyzed: Constance Demby / Sanctum Sanctuorum
––––––––––––––––––––––––––––––––––––––––

DR Peak RMS Duration Track
––––––––––––––––––––––––––––––––––––––––
DR11 0.00 dB -14.54 dB 5:44 01-Alleluiah
DR12 0.00 dB -16.11 dB 12:54 02-Invocation
DR10 0.00 dB -14.27 dB 6:13 03-Formless Presence
DR12 -0.10 dB -15.89 dB 8:00 04-Gateway
DR11 -0.10 dB -17.21 dB 7:15 05-Haven of Peace
DR9 -0.10 dB -12.93 dB 5:43 06-Sanctuary
––––––––––––––––––––––––––––––––––––––––

Number of tracks: 6
Official DR value: DR11

Samplerate: 44100 Hz
Channels: 2
Bits per sample: 16
Bitrate: 700 kbps
Codec: FLAC
================================================================================




Constance Demby - Albums Collection 1978-2011 (12CD + DVD5) [Re-Up]

Constance Demby - Spirit Trance (2004)
EAC | FLAC | Tracks (Cue&Log) ~ 283 Mb | Mp3 (CBR320) ~ 167 Mb
Label: Hearts of Space | # HOS-11412 | Time: 00:56:44 | Scans included

Constance Demby is known as a musician who gives voice to spaceships and stargates, but on SPIRIT TRANCE, she returns to earth with a grounded and deeply felt collection of film music and rare re-mixes. After being nominated for the New Age Grammy with NOVUS MAGNIFICAT, Demby became known for her celestial harmonies and her ability to turn sound effects into real, evocative music.

Her talent for giving life to unique sounds is evident on the albums stand-out track, "Ocean of Life", where underwater echoes convey the enormity of the sea, while short, high notes vibrate like schools of fish moving though the dark. "Legend" is a grand, sweeping piece that was written for an unreleased film about James Dean. On this track, Demby gives a sonic portrait with all the pathos you would expect from a 500-page tome on the actor. The earthbound tone of this album may surprise some of her fans, but careful listening reveals the artist's signature style. Symphonic and spiritual, TRANCE speaks to the soul and transports the listener to new realms without leaving the planet.

Allmusic.com

Tracklist:

01. Legend (6:56)
02. Cosmos (7:37)
03. Paths to Prayer (World Religions) (8:08)
04. Ave's Trance (5:45)
05. Ocean of Life (6:17)
06. Earth Tones (6:24)
07. Into Her Center (5:47)
08. The Annointing (9:50)


Exact Audio Copy V1.0 beta 1 from 15. November 2010

EAC extraction logfile from 23. June 2011, 16:10

Constance Demby / Spirit Trance

Used drive : HP DVD Writer 1270r Adapter: 1 ID: 0

Read mode : Secure
Utilize accurate stream : Yes
Defeat audio cache : Yes
Make use of C2 pointers : No

Read offset correction : 48
Overread into Lead-In and Lead-Out : No
Fill up missing offset samples with silence : Yes
Delete leading and trailing silent blocks : No
Null samples used in CRC calculations : Yes
Used interface : Installed external ASPI interface
Gap handling : Appended to previous track

Used output format : User Defined Encoder
Selected bitrate : 32 kBit/s
Quality : High
Add ID3 tag : No
Command line compressor : C:\Program Files\Exact Audio Copy\Flac\flac.exe
Additional command line options : -8 -V -T "ARTIST=%a" -T "TITLE=%t" -T "ALBUM=%g" -T "DATE=%y" -T "TRACKNUMBER=%n" -T "GENRE=%m" -T "COMMENT=ripped by boccador" %s


TOC of the extracted CD

Track | Start | Length | Start sector | End sector
––––––––––––––––––––––––––––-
1 | 0:00.00 | 6:55.38 | 0 | 31162
2 | 6:55.38 | 7:36.52 | 31163 | 65414
3 | 14:32.15 | 8:08.16 | 65415 | 102030
4 | 22:40.31 | 5:45.13 | 102031 | 127918
5 | 28:25.44 | 6:17.26 | 127919 | 156219
6 | 34:42.70 | 6:23.64 | 156220 | 185008
7 | 41:06.59 | 5:47.00 | 185009 | 211033
8 | 46:53.59 | 9:50.21 | 211034 | 255304


Track 1

Filename D:\torrent\ripped by boccador\01. Constance Demby – Legend.wav

Pre-gap length 0:00:02.00

Peak level 97.7 %
Extraction speed 2.5 X
Track quality 100.0 %
Test CRC 87F2FFA0
Copy CRC 87F2FFA0
Accurately ripped (confidence 3) [00E4A4A4]
Copy OK

Track 2

Filename D:\torrent\ripped by boccador\02. Constance Demby – Cosmos.wav

Pre-gap length 0:00:05.00

Peak level 97.7 %
Extraction speed 3.0 X
Track quality 100.0 %
Test CRC 212A260D
Copy CRC 212A260D
Accurately ripped (confidence 3) [1B45970B]
Copy OK

Track 3

Filename D:\torrent\ripped by boccador\03. Constance Demby – Paths to Prayer (World Religions).wav

Pre-gap length 0:00:04.00

Peak level 97.7 %
Extraction speed 3.5 X
Track quality 100.0 %
Test CRC 84BBBEAC
Copy CRC 84BBBEAC
Accurately ripped (confidence 3) [66597326]
Copy OK

Track 4

Filename D:\torrent\ripped by boccador\04. Constance Demby – Ave's Trance.wav

Pre-gap length 0:00:04.00

Peak level 97.7 %
Extraction speed 3.7 X
Track quality 100.0 %
Test CRC 1013C092
Copy CRC 1013C092
Accurately ripped (confidence 3) [875BC420]
Copy OK

Track 5

Filename D:\torrent\ripped by boccador\05. Constance Demby – Ocean of Life.wav

Pre-gap length 0:00:04.00

Peak level 92.2 %
Extraction speed 4.0 X
Track quality 100.0 %
Test CRC A5D1C088
Copy CRC A5D1C088
Accurately ripped (confidence 3) [67E65F75]
Copy OK

Track 6

Filename D:\torrent\ripped by boccador\06. Constance Demby – Earth Tones.wav

Pre-gap length 0:00:04.00

Peak level 97.7 %
Extraction speed 3.9 X
Track quality 99.9 %
Test CRC 8E57D662
Copy CRC 8E57D662
Accurately ripped (confidence 3) [007F7133]
Copy OK

Track 7

Filename D:\torrent\ripped by boccador\07. Constance Demby – Into Her Center.wav

Pre-gap length 0:00:04.00

Peak level 97.7 %
Extraction speed 4.0 X
Track quality 99.9 %
Test CRC 9622323A
Copy CRC 9622323A
Accurately ripped (confidence 3) [BA29AAAB]
Copy OK

Track 8

Filename D:\torrent\ripped by boccador\08. Constance Demby – The Annointing.wav

Pre-gap length 0:00:04.00

Peak level 97.7 %
Extraction speed 4.9 X
Track quality 100.0 %
Test CRC 2A819AE5
Copy CRC 2A819AE5
Accurately ripped (confidence 3) [3946A521]
Copy OK


All tracks accurately ripped

No errors occurred

End of status report

==== Log checksum EEFF48A2A29799B31FFB566FCDE703D9D0287224A09C58C44AD8CFDDB3192174 ====

foobar2000 1.2 / Dynamic Range Meter 1.1.1
log date: 2013-06-22 14:21:26

––––––––––––––––––––––––––––––––––––––––
Analyzed: Constance Demby / Spirit Trance
––––––––––––––––––––––––––––––––––––––––

DR Peak RMS Duration Track
––––––––––––––––––––––––––––––––––––––––
DR8 -0.20 dB -14.03 dB 6:56 01-Legend
DR11 -0.20 dB -15.27 dB 7:37 02-Cosmos
DR13 -0.20 dB -18.41 dB 8:08 03-Paths to Prayer (World Religions)
DR10 -0.20 dB -14.42 dB 5:45 04-Ave's Trance
DR10 -0.70 dB -14.82 dB 6:17 05-Ocean of Life
DR11 -0.20 dB -17.90 dB 6:24 06-Earth Tones
DR11 -0.20 dB -14.86 dB 5:47 07-Into Her Center
DR11 -0.20 dB -14.17 dB 9:50 08-The Annointing
––––––––––––––––––––––––––––––––––––––––

Number of tracks: 8
Official DR value: DR11

Samplerate: 44100 Hz
Channels: 2
Bits per sample: 16
Bitrate: 609 kbps
Codec: FLAC
================================================================================




Constance Demby - Albums Collection 1978-2011 (12CD + DVD5) [Re-Up]

Constance Demby - Set Free (The Definitive Edition) (2006)
EAC | FLAC | Tracks (Cue&Log) ~ 491 Mb | Mp3 (CBR320) ~ 216 Mb
Label: Hearts of Space | # 2-HOS-11016 | Time: 01:12:39 | Scans included

Set Free deserves a place next to the symphonic space-music classic of Novus Magnificat. This release journeys even deeper into the intensely moving electronic soundscapes that was developed in other recordings. Newly noticeable are rhythmic influences from the Balinese and African cultures that are unabashedly ritualistic and celebratory in nature. But, Demby has not forgotten her roots; the last four tracks, taken together, create a majestic celestial voyage for inner travelers.

Tracklist:

01. Waltz of Joy (4:45)
02. Tribal Gregorian (4:19)
03. Jungle Jam (6:13)
04. Javalon (4:19)
05. I Set Myself Free (4:30)
06. Moving On (4:46)
07. Mother of the World (5:30)
08. Chambers of the Heart (4:38)
09. Lotus Opening (5:54)
10. Into the Center (11:02)
11. The Galactic Chalice (7:26)
12. Celestial Communion (9:17)


Exact Audio Copy V1.0 beta 3 from 29. August 2011

EAC extraction logfile from 18. November 2011, 19:31

Constance Demby / Set Free (The Definitive Edition)

Used drive : HP DVD Writer 1270r Adapter: 2 ID: 1

Read mode : Secure
Utilize accurate stream : Yes
Defeat audio cache : Yes
Make use of C2 pointers : No

Read offset correction : 48
Overread into Lead-In and Lead-Out : No
Fill up missing offset samples with silence : Yes
Delete leading and trailing silent blocks : No
Null samples used in CRC calculations : Yes
Used interface : Installed external ASPI interface
Gap handling : Appended to previous track

Used output format : User Defined Encoder
Selected bitrate : 896 kBit/s
Quality : High
Add ID3 tag : No
Command line compressor : C:\Program Files\Exact Audio Copy 1.0beta3\Flac\flac.exe
Additional command line options : -V -8 -T "Genre=%genre%" -T "Artist=%artist%" -T "Title=%title%" -T "Album=%albumtitle%" -T "Date=%year%" -T "Tracknumber=%tracknr%" -T "Comment=ripped by boccador" %source%


TOC of the extracted CD

Track | Start | Length | Start sector | End sector
––––––––––––––––––––––––––––-
1 | 0:00.00 | 4:45.22 | 0 | 21396
2 | 4:45.22 | 4:19.34 | 21397 | 40855
3 | 9:04.56 | 6:12.46 | 40856 | 68801
4 | 15:17.27 | 4:19.28 | 68802 | 88254
5 | 19:36.55 | 4:30.19 | 88255 | 108523
6 | 24:06.74 | 4:45.57 | 108524 | 129955
7 | 28:52.56 | 5:29.74 | 129956 | 154704
8 | 34:22.55 | 4:37.68 | 154705 | 175547
9 | 39:00.48 | 5:53.45 | 175548 | 202067
10 | 44:54.18 | 11:01.73 | 202068 | 251715
11 | 55:56.16 | 7:26.11 | 251716 | 285176
12 | 63:22.27 | 9:16.58 | 285177 | 326934


Track 1

Filename D:\torrent\ripped by boccador\01. Constance Demby – Waltz of Joy.wav

Pre-gap length 0:00:02.00

Peak level 96.5 %
Extraction speed 2.6 X
Track quality 100.0 %
Test CRC 2C30BF31
Copy CRC 2C30BF31
Accurately ripped (confidence 2) [765D9F26] (AR v1)
Copy OK

Track 2

Filename D:\torrent\ripped by boccador\02. Constance Demby – Tribal Gregorian.wav

Peak level 96.5 %
Extraction speed 2.8 X
Track quality 100.0 %
Test CRC D04C233A
Copy CRC D04C233A
Accurately ripped (confidence 2) [2D9E1072] (AR v1)
Copy OK

Track 3

Filename D:\torrent\ripped by boccador\03. Constance Demby – Jungle Jam.wav

Peak level 99.9 %
Extraction speed 3.2 X
Track quality 100.0 %
Test CRC 9DE87425
Copy CRC 9DE87425
Accurately ripped (confidence 2) [76083661] (AR v1)
Copy OK

Track 4

Filename D:\torrent\ripped by boccador\04. Constance Demby – Javalon.wav

Peak level 96.5 %
Extraction speed 3.3 X
Track quality 100.0 %
Test CRC C67D9798
Copy CRC C67D9798
Accurately ripped (confidence 2) [E69137DB] (AR v1)
Copy OK

Track 5

Filename D:\torrent\ripped by boccador\05. Constance Demby – I Set Myself Free.wav

Peak level 96.5 %
Extraction speed 3.1 X
Track quality 99.9 %
Test CRC 19808AAE
Copy CRC 19808AAE
Accurately ripped (confidence 2) [C5557C03] (AR v1)
Copy OK

Track 6

Filename D:\torrent\ripped by boccador\06. Constance Demby – Moving On.wav

Peak level 96.5 %
Extraction speed 3.7 X
Track quality 100.0 %
Test CRC D3BCBEFC
Copy CRC D3BCBEFC
Accurately ripped (confidence 2) [50BED28B] (AR v1)
Copy OK

Track 7

Filename D:\torrent\ripped by boccador\07. Constance Demby – Mother of the World.wav

Peak level 96.5 %
Extraction speed 3.6 X
Track quality 99.9 %
Test CRC D1416DC6
Copy CRC D1416DC6
Accurately ripped (confidence 2) [42FBB984] (AR v1)
Copy OK

Track 8

Filename D:\torrent\ripped by boccador\08. Constance Demby – Chambers of the Heart.wav

Peak level 96.5 %
Extraction speed 3.7 X
Track quality 99.9 %
Test CRC FBD5F78C
Copy CRC FBD5F78C
Accurately ripped (confidence 2) [2DBC22A3] (AR v1)
Copy OK

Track 9

Filename D:\torrent\ripped by boccador\09. Constance Demby – Lotus Opening.wav

Peak level 96.5 %
Extraction speed 4.4 X
Track quality 100.0 %
Test CRC 6B9A086E
Copy CRC 6B9A086E
Accurately ripped (confidence 2) [7113EB63] (AR v1)
Copy OK

Track 10

Filename D:\torrent\ripped by boccador\10. Constance Demby – Into the Center.wav

Peak level 96.5 %
Extraction speed 4.7 X
Track quality 99.9 %
Test CRC 750AD807
Copy CRC 750AD807
Accurately ripped (confidence 2) [4A9AE5F8] (AR v1)
Copy OK

Track 11

Filename D:\torrent\ripped by boccador\11. Constance Demby – The Galactic Chalice.wav

Peak level 96.5 %
Extraction speed 5.1 X
Track quality 100.0 %
Test CRC 9EB53D93
Copy CRC 9EB53D93
Accurately ripped (confidence 2) [13E1D648] (AR v1)
Copy OK

Track 12

Filename D:\torrent\ripped by boccador\12. Constance Demby – Celestial Communion.wav

Peak level 96.5 %
Extraction speed 5.2 X
Track quality 99.9 %
Test CRC F68027E5
Copy CRC F68027E5
Track not present in AccurateRip database
Copy OK


11 track(s) accurately ripped
1 track(s) not present in the AccurateRip database

Some tracks could not be verified as accurate

No errors occurred

End of status report

–– CUETools DB Plugin V2.1.3

[CTDB TOCID: w8t_uEU9irR3aAT2haV9A8ijvhY-] disk not present in database, Submit result: w8t_uEU9irR3aAT2haV9A8ijvhY- has been uploaded


==== Log checksum EDB830D45216254447A5EC04E6E199F09C9B71B9E4ABD8D202D54B2CE0260CC3 ====

foobar2000 1.2 / Dynamic Range Meter 1.1.1
log date: 2013-06-22 14:20:42

––––––––––––––––––––––––––––––––––––––––
Analyzed: Constance Demby / Set Free (The Definitive Edition)
––––––––––––––––––––––––––––––––––––––––

DR Peak RMS Duration Track
––––––––––––––––––––––––––––––––––––––––
DR8 -0.30 dB -10.82 dB 4:45 01-Waltz of Joy
DR7 -0.30 dB -9.62 dB 4:19 02-Tribal Gregorian
DR10 0.00 dB -11.98 dB 6:13 03-Jungle Jam
DR8 -0.30 dB -10.96 dB 4:19 04-Javalon
DR7 -0.30 dB -9.82 dB 4:30 05-I Set Myself Free
DR8 -0.30 dB -10.49 dB 4:46 06-Moving On
DR6 -0.30 dB -10.10 dB 5:30 07-Mother of the World
DR8 -0.30 dB -11.18 dB 4:38 08-Chambers of the Heart
DR7 -0.30 dB -10.18 dB 5:54 09-Lotus Opening
DR9 -0.30 dB -13.35 dB 11:02 10-Into the Center
DR8 -0.30 dB -11.75 dB 7:26 11-The Galactic Chalice
DR8 -0.30 dB -11.77 dB 9:17 12-Celestial Communion
––––––––––––––––––––––––––––––––––––––––

Number of tracks: 12
Official DR value: DR8

Samplerate: 44100 Hz
Channels: 2
Bits per sample: 16
Bitrate: 847 kbps
Codec: FLAC
================================================================================




Constance Demby - Albums Collection 1978-2011 (12CD + DVD5) [Re-Up]

Constance Demby - Ambrosial Waves – Healing Waters (2011)
EAC | FLAC | Tracks (Cue&Log) ~ 325 Mb | Mp3 (CBR320) ~ 190 Mb
Label: Sound Currents/Current Sounds | # SC-AW | Time: 01:12:04 | Scans included

A floating, deeply peaceful meditation. Calming… Nurturing…Transforms time and space. A gateway to dissolve into blissful healing waters and extended, altered states of consciousness.

Tracklist:

01. Ambrosial Waves - Healing Waters (72:04)

Exact Audio Copy V1.0 beta 3 from 29. August 2011

EAC extraction logfile from 22. November 2011, 13:27

Constance Demby / Ambrosial Waves - Healing Waters

Used drive : HP DVD Writer 1270r Adapter: 2 ID: 1

Read mode : Secure
Utilize accurate stream : Yes
Defeat audio cache : Yes
Make use of C2 pointers : No

Read offset correction : 48
Overread into Lead-In and Lead-Out : No
Fill up missing offset samples with silence : Yes
Delete leading and trailing silent blocks : No
Null samples used in CRC calculations : Yes
Used interface : Installed external ASPI interface
Gap handling : Appended to previous track

Used output format : User Defined Encoder
Selected bitrate : 896 kBit/s
Quality : High
Add ID3 tag : No
Command line compressor : C:\Program Files\Exact Audio Copy 1.0beta3\Flac\flac.exe
Additional command line options : -V -8 -T "Genre=%genre%" -T "Artist=%artist%" -T "Title=%title%" -T "Album=%albumtitle%" -T "Date=%year%" -T "Tracknumber=%tracknr%" -T "Comment=ripped by boccador" %source%


TOC of the extracted CD

Track | Start | Length | Start sector | End sector
––––––––––––––––––––––––––––-
1 | 0:00.00 | 72:04.01 | 0 | 324300


Track 1

Filename D:\torrent\ripped by boccador\01. Constance Demby – Ambrosial Waves - Healing Waters.wav

Pre-gap length 0:00:02.00

Peak level 54.3 %
Extraction speed 4.4 X
Track quality 100.0 %
Test CRC E037B922
Copy CRC E037B922
Track not present in AccurateRip database
Copy OK


None of the tracks are present in the AccurateRip database

No errors occurred

End of status report

–– CUETools DB Plugin V2.1.3

[CTDB TOCID: 3tvc2ynwRKeynECoBpVo2zeq22Q-] found, Submit result: already submitted
[207bc0d3] (1/1) Accurately ripped


==== Log checksum E7204C8862D6D3AE7E333874F3B2D08DF1E0A09D35AAEEE4175D49C5C430D1C7 ====

foobar2000 1.2 / Dynamic Range Meter 1.1.1
log date: 2013-06-22 14:19:16

––––––––––––––––––––––––––––––––––––––––
Statistics for: 01-Ambrosial Waves - Healing Waters
Number of samples: 190688988
Duration: 1:12:04
––––––––––––––––––––––––––––––––––––––––

Left Right

Peak Value: -5.29 dB –- -5.63 dB
Avg RMS: -20.84 dB –- -20.36 dB
DR channel: 12.13 dB –- 11.74 dB
––––––––––––––––––––––––––––––––––––––––

Official DR Value: DR12

Samplerate: 44100 Hz
Channels: 2
Bits per sample: 16
Bitrate: 568 kbps
Codec: FLAC
================================================================================




Constance Demby - Albums Collection 1978-2011 (12CD + DVD5) [Re-Up]

Constance Demby - Live in Tokyo (2008)
DVD5 | NTSC | 4:3 (720x480) | Dolby Digital, 48kHz, 2 ch, 192 Kbps | ~ 4 Gb
Label: Sound Currents | Time: 01:22:00 | Scans included


About Constance Demby:

An internationally acclaimed, Grammy-nominated, award winning performing and recording artist, Constance Demby has been hailed as a 21st century Mozart / Bach / Beethoven, a tall order for anyone to be associated with, but in Constance s case one founded on an extraordinary musical and creative talent that is testimony to her prolific output and the profound healing both listeners and participants experience, alongside critical acclaim that has followed her every step of progress in a career spanning decades. –- A classically trained artist performing since the age of 12, Dembys music has been compared by critics to Bach, Mozart, Mendelssohn, Beethoven, Brahms, Palestrina, Rachmaninoff, Wagner, Puccini, Debussy, Ravel, Copland, Mahler, Vivaldi.

About the Director:

National and International Tours & Events include: 2005 UK Sacred Sites Tour, Live in Tokyo, Egypt-Concert at the Pyramid, Tours to Spain, Brazil, Canary Islands with Paul Horn & Pauline Oliveras. Events with Luminaries: IONS International Conference with Deepak Chopra, Marianne Williamson –- Festival of Sacred Music with His Holiness the Dalai Lama –- The Inner Reaches of Outer Space with Joseph Campbell, George Lucas, & Gene Roddenberry –- Path of the Labyrinth with author & mystic Andrew Harvey –- The Creative Leap, with Jean Houston –- Conference with Terence McKenna, Hawaii –-Double bill with Peter Michael Hamel –- Conferences with Brugh Joy & David Spangler –- Double bill with Todd Rundgren at the Fillmore.
While there are many pretenders to the throne, listeners can be sure that the music of Constance Demby is the real thing. Few artists express the majesty and grandeur of the spiritual realms as eloquently as Constance on her numerous recordings. There are precious few concert DVD's of this genre of music on the market, and even less filmed at this level of sophistication. Highly recommended.

Review by Michael Diamond, New Frontiers

Constance Demby - Albums Collection 1978-2011 (12CD + DVD5) [Re-Up]

Constance Demby - Albums Collection 1978-2011 (12CD + DVD5) [Re-Up]

Constance Demby - Albums Collection 1978-2011 (12CD + DVD5) [Re-Up]


Playlist:

01. Ode to Ancestors
02. Sky Blossoms
03. Deeper Than
04. The Winding Path
05. Mother of the World
06. Tree of Life
07. Dragon's Eye
08. Threshold




All thanks to original releasers: Zimagor for 'Novus Magnificat' & 'Aeterna',
and boccador for all other albums

More interesting music in My Blog