Subcategories
Tags
Language
Tags

Dusty Springfield - Faithful (2015)

Posted By: BlondStyle
Dusty Springfield - Faithful (2015)

Dusty Springfield - Faithful (2015)
Pop/Rock, R&B, AM Pop, Pop-Soul | EAC Rip | FLAC, Img+CUE+LOG+Scans (PNG) | 40:41 | 533,01 Mb
Label: Atlantic/Real Gone Music (USA) | Cat.# RGM-0352 | Released: 2015-04-07 (Recorded: 1971)
Dusty Springfield - Faithful (2015)

"Faithful" is the title of Dusty Springfield's planned 3rd album for Atlantic Records, and 7th recorded studio album overall, recorded in the first half of 1971. Two singles from the planned album, "I Believe In You" (b/w "Someone Who Cares"), and "Haunted" (b/w "Nothing Is Forever", a track not intended for the album) were released in the U.S. in the fall of 1971, but failed to chart nationally. Due to poor response from the two singles, and a rumoured falling out with Atlantic executives, Springfield's contract with the company was not renewed, and the planned album was shelved and never given a catalogue number or title. "Faithful" was a working title, taken from the name of an album track, "I'll Be Faithful", which had possibly been under consideration as a third single. A fire in the mid-seventies at one of Atlantic's storage sites was thought to have destroyed the Faithful session tapes, leaving only the two singles (and possible third single, as a mono mix existed into the nineties) and their b-sides from the sessions intact. However, in the nineties the album's producer, Jeff Barry, was asked about the sessions and revealed he had kept completed stereo mixes of all the tracks. Most were released as bonus tracks on the Rhino/Atlantic deluxe remastered edition of Dusty in Memphis in 1999, though "Someone Who Cares" and "Nothing is Forever" had been released on Springfield's UK-only 1972 album See All Her Faces. In April 2015, "Faithful" was released as a proper album, forty-four years after its planned release was shelved, with an additional bonus track, "Nothing Is Forever", which was the B-side to the aforementioned single "Haunted". Additionally, Faithful marks Springfield's 14th studio album release, chronologically speaking, first in two decades, and first posthumous release. The release of the album as a standalone work, rather than a collection of bonus tracks, leaves only the planned 1974 release Longing as her lone remaining unreleased album. "Faithful" received a limited-edition, orange-colored vinyl release in May 2016, restricted to 1000 copies. Due to technical limitations this reissue does not feature the bonus track, "Nothing Is Forever".
~Wikipedia

Dusty Springfield - Faithful (2015)

Dusty Springfield intended to follow 1970's Gamble/Huff-produced A Brand New Me with an album produced by Jeff Barry, but this, her planned third record for Atlantic, wound up shelved in 1971. Why it was abandoned is unclear. Neither of the singles released from the sessions August's "Haunted"/"Nothing Is Forever, November's "I Believe in You"/"Someone Who Cares" dented the charts, a situation that understandably discouraged Dusty, who then had her manager release her from Atlantic. When she left the label, she left this Barry-produced record behind. Thought to be lost in a warehouse fire in 1978, tracks started to surface as Rhino assembled deluxe reissues of Dusty in Memphis and A Brand New Me, but the entire album didn't appear until Real Gone constructed Faithful in 2015. Produced by Jim Pierson and annotated by Joe Marchese, this release of Faithful certainly does have the feel of a lost classic, a record that exists on a plane between the gritty Southern soul of Dusty in Memphis and the smooth, assured A Brand New Me (known as From Dusty with Love in the U.K.), tempered with a heavy dose of professional studio craft from Barry and his crew of regular songwriters. Among these composers are Bobby Bloom he'd later have a hit with "Montego Bay" and Alex Harvey, who wrote hits for Kenny Rogers & the First Edition, but Barry and Springfield also cherry-picked David Gates' "Make It with You" and Carole King's "You've Got a Friend," giving them a lush, soulful sheen. Most of Faithful simmers on this level, although the bluesy funk of "Natchez Trace" comes as a surprise, as does the spooky strut of "Haunted." This is just enough variety to give spice and momentum to Barry's immaculate constructions, but even these productions are soulful, not stiff: he gets the band cooking, letting them lay a slyly seductive bed for Springfield, who remains at the peak showcased on her two previous Atlantic records. If Faithful isn't as perfect as Dusty in Memphis, it's because few records are. If Faithful is as good as A Brand New Me and it very nearly is it's a testament that sometimes the record business is unfair, even to some of its brightest stars.
~Review by Stephen Thomas Erlewine

Dusty Springfield - Faithful (2015)

Dusty Springfield - Faithful (2015)




Release of the album/CD: 2015, April, 7 [CD Atlantic/Real Gone Music (USA), Cat.# RGM-0352 / UPC: 848064003526]
℗ 2015 Atlantic Recording Corporation.
Produced under licence from Atlantic Recording Corporation.
Manufactured by Rhino Entertainment Company, a Warner Music Group Company.
© 2015 Real Gone Music L.L.C.
Printed/Made in the U.S.A.

Notes: Dusty's Long-Lost Third Album for Atlantic Produced by Jeff Barry. Recorded in 1971 for what was intended to be Dusty's third album (and a non-album single) for Atlantic Records. The album never came out and only four of the tracks were originally released as singles.

Dusty Springfield - Faithful (2015)

Credits:

Liner Notes – Joe Marchese
Producer – Jeff Barry
Reissue Producer – Jim Pierson
Remastered By – Mike Milchner


Tracklist:

01. I'll Be Faithful (03:00)
(Ned W. Albright, Michael F. Soles, Steven Soles)
02. Live Here With You (02:44)
(Gilbert Slavin, Michael F. Soles)
03. Haunted (02:25)
(Jeff Barry, Bobby Bloom)
04. Someone Who Cares (02:55)
(Alex Harvey)
05. Make It With You (03:13)
(David Gates)
06. Love Shine Down (02:21)
(Neil Brian Goldberg, Gilbert Slavin)
07. I Believe In You (03:29)
(Jeff Barry)
08. Have A Good Life (03:09)
(Neil Goldberg)
09. Natchez Trace (02:57)
(Neil Goldberg, Gilbert Slavin)
10. All The King's Horses (03:10)
(Neil Goldberg)
11. You've Got A Friend (05:28)
(Carole King)
12. I Found My Way Through The Darkness (03:16)
(Gilbert Slavin, Michael F. Soles)
Bonus Track:
13. Nothing Is Forever (02:34)
(Jeff Barry, Bobby Bloom)

Exact Audio Copy V1.3 from 2. September 2016

EAC extraction logfile from 20. February 2020, 18:57

Dusty Springfield / Faithful

Used drive : PIONEER BD-RW BDR-208D Adapter: 1 ID: 0

Read mode : Secure
Utilize accurate stream : Yes
Defeat audio cache : Yes
Make use of C2 pointers : No

Read offset correction : 667
Overread into Lead-In and Lead-Out : No
Fill up missing offset samples with silence : Yes
Delete leading and trailing silent blocks : No
Null samples used in CRC calculations : Yes
Used interface : Native Win32 interface for Win NT & 2000

Used output format : Internal WAV Routines
Sample format : 44.100 Hz; 16 Bit; Stereo


TOC of the extracted CD

Track | Start | Length | Start sector | End sector
––––––––––––––––––––––––––––-
1 | 0:00.00 | 2:59.56 | 0 | 13480
2 | 2:59.56 | 2:44.11 | 13481 | 25791
3 | 5:43.67 | 2:24.68 | 25792 | 36659
4 | 8:08.60 | 2:54.41 | 36660 | 49750
5 | 11:03.26 | 3:13.11 | 49751 | 64236
6 | 14:16.37 | 2:21.11 | 64237 | 74822
7 | 16:37.48 | 3:29.20 | 74823 | 90517
8 | 20:06.68 | 3:09.10 | 90518 | 104702
9 | 23:16.03 | 2:57.31 | 104703 | 118008
10 | 26:13.34 | 3:09.72 | 118009 | 132255
11 | 29:23.31 | 5:27.71 | 132256 | 156851
12 | 34:51.27 | 3:16.06 | 156852 | 171557
13 | 38:07.33 | 2:34.32 | 171558 | 183139


Range status and errors

Selected range

Filename D:\BlondStyle\Dusty Springfield - Faithful.wav

Peak level 95.2 %
Extraction speed 6.2 X
Range quality 99.9 %
Test CRC CE883D15
Copy CRC CE883D15
Copy OK

No errors occurred


AccurateRip summary

Track 1 accurately ripped (confidence 13) [CF420915] (AR v2)
Track 2 accurately ripped (confidence 13) [53D0723E] (AR v2)
Track 3 accurately ripped (confidence 13) [1AE816E2] (AR v2)
Track 4 accurately ripped (confidence 13) [C0A3F95F] (AR v2)
Track 5 accurately ripped (confidence 13) [6CA1A1D3] (AR v2)
Track 6 accurately ripped (confidence 13) [3C73AAB2] (AR v2)
Track 7 accurately ripped (confidence 13) [D49BFC56] (AR v2)
Track 8 accurately ripped (confidence 13) [4DE6682D] (AR v2)
Track 9 accurately ripped (confidence 13) [A8A1B8E3] (AR v2)
Track 10 accurately ripped (confidence 13) [F8D153EA] (AR v2)
Track 11 accurately ripped (confidence 13) [7A5D6C31] (AR v2)
Track 12 accurately ripped (confidence 13) [C44A3341] (AR v2)
Track 13 accurately ripped (confidence 13) [041B4954] (AR v2)

All tracks accurately ripped

End of status report

–– CUETools DB Plugin V2.1.6

[CTDB TOCID: JOJGguMlJvb7OKmli4yyPGSUFzc-] found
Submit result: JOJGguMlJvb7OKmli4yyPGSUFzc- has been confirmed
Track | CTDB Status
1 | (19/19) Accurately ripped
2 | (19/19) Accurately ripped
3 | (19/19) Accurately ripped
4 | (19/19) Accurately ripped
5 | (19/19) Accurately ripped
6 | (19/19) Accurately ripped
7 | (19/19) Accurately ripped
8 | (19/19) Accurately ripped
9 | (19/19) Accurately ripped
10 | (19/19) Accurately ripped
11 | (19/19) Accurately ripped
12 | (19/19) Accurately ripped
13 | (19/19) Accurately ripped


==== Log checksum F4CBC52086E7EE21EEFF2528B34BE11041EA726C75BBC5744B1814A4FDC3A637 ====

––––––––––––––––––––––––––––––––––––––––
Analyzed: Dusty Springfield / Faithful
––––––––––––––––––––––––––––––––––––––––

DR Peak RMS Duration Track
––––––––––––––––––––––––––––––––––––––––
DR10 -0.43 dB -12.29 dB 3:00 01-I'll Be Faithful
DR11 -1.48 dB -14.99 dB 2:44 02-Live Here With You
DR9 -0.56 dB -11.92 dB 2:25 03-Haunted
DR10 -0.65 dB -15.76 dB 2:55 04-Someone Who Cares
DR11 -0.78 dB -13.83 dB 3:13 05-Make It With You
DR9 -0.59 dB -12.44 dB 2:21 06-Love Shine Down
DR9 -0.53 dB -11.80 dB 3:29 07-I Believe In You
DR11 -1.26 dB -14.10 dB 3:09 08-Have A Good Life
DR9 -0.43 dB -10.99 dB 2:57 09-Natchez Trace
DR10 -0.50 dB -11.85 dB 3:10 10-All The King's Horses
DR9 -0.59 dB -12.31 dB 5:28 11-You've Got A Friend
DR10 -0.76 dB -12.89 dB 3:16 12-I Found My Way Through The Darkness
DR9 -1.05 dB -12.47 dB 2:34 13-Nothing Is Forever (Bonus Track)
––––––––––––––––––––––––––––––––––––––––

Number of tracks: 13
Official DR value: DR10

Samplerate: 44100 Hz
Channels: 2
Bits per sample: 16
Bitrate: 844 kbps
Codec: FLAC
================================================================================

See also:


♫~Welcome To My Blog~♫

password: BlondStyle