Subcategories

Dusty Springfield - Nothing Has Been Proved [CD-Single] (1989)

Posted By: BlondStyle
Dusty Springfield - Nothing Has Been Proved [CD-Single] (1989)

Dusty Springfield - Nothing Has Been Proved [CD-Single] (1989)
Pop/Rock, Electronic, Synth-pop | EAC Rip | FLAC, Img+CUE+LOG+Scans (PNG) | 17:48 | 152,96 Mb
Label: Parlophone (UK) | Cat.# CDR 6207 (20 3238 2) | Released: 1989-02-13
Dusty Springfield - Nothing Has Been Proved [CD-Single] (1989)

"Nothing Has Been Proved" is a song and a single release by British singer Dusty Springfield, written and produced by Pet Shop Boys. The song was the second collaboration between Springfield and Pet Shop Boys, following their UK #2 and US #2 hit duet "What Have I Done to Deserve This?" in 1987. "Nothing Has Been Proved" prominently features an orchestral arrangement by Angelo Badalamenti and a soprano saxophone solo by Courtney Pine. Marshall Jefferson provided a dance mix which appeared on the 12" and CD singles. "Nothing Has Been Proved" was produced for the 1989 film Scandal, an account of the Profumo affair, a famous British political scandal in 1963 which severely undermined confidence in the ruling Conservative Party government. The song is heard over the end credits of the film. When film producer Stephen Woolley invited Pet Shop Boys to submit a song for the soundtrack, Neil Tennant remembered a song he had written some years earlier, before the formation of the duo. He and Chris Lowe wrote new music for the song, and with Woolley's approval asked Dusty Springfield to sing it. According to Tennant, Woolley liked the idea of having the song performed by someone who was already well-known at the time of the Profumo affair; in 1963, Dusty was lead singer of the popular group the Springfields and was just about to launch her solo career. The lyrics of the song describe in roughly chronological order the actual course of events and mention, by first name only, the main characters involved: Mandy Rice-Davies, Christine Keeler and Stephen Ward, as well as Lucky Gordon, Johnny Edgecombe and Vickie Barrett. The song also references the popular culture of the time with the line "Please Please Me's number one", a reference to The Beatles' debut album which dominated the sales charts for much of the year and was, as described in the song, number one both at the time of Profumo's resignation in May 1963, and the conclusion of Ward's trial at the end of July. "Nothing Has Been Proved" made #16 in the UK and led to further chart success for Springfield. "Nothing Has Been Proved", was later included as a track on Springfield's successful comeback album Reputation, released in 1990. Pet Shop Boys would later accept another commission from Woolley, to produce music for the 1993 film The Crying Game. The original Pet Shop Boys demo recording of "Nothing Has Been Proved", with lead vocals by Neil Tennant, was included on the expanded re-issue of their 1988 album Introspective in 2001.
~Wikipedia

Dusty Springfield - Nothing Has Been Proved [CD-Single] (1989)

Dusty Springfield - Nothing Has Been Proved [CD-Single] (1989)




Release of this CD-Single: 1989, February, 13 [CD Parlophone (UK), Cat.# CDR 6207 (20 3238 2) / UPC: 5099920323820]
℗ MCMLXXXIX Original sound recordings made by EMI Records Ltd.
© MCMLXXXIX EMI Records Ltd.
Made in U.K.

Notes: Cardboard sleeve CD-Single.
Taken from Scandal (Music From The Motion Picture) available on Parlophone Records (PCS 7331).
Palace in association with British Screen Present a Palace Production SCANDAL.
Starring John Hurt, Joanne Whalley, Ian McKellan, Bridget Fonda with Britt Ekland and Jeroen Krabbe.
Directed by Michael Caton-Jones.
Produced by Stephen Woolley.

Credits:

Arranged By [Orchestra], Conductor – Angelo Badalamenti
Co-producer, Mixed By – Julian Mendelsohn
Design – Mark Farrow, Pet Shop Boys
Engineer – Paul Wright
Engineer [Assisted By] – Dave Eden
Photography By – Michael Putland
Programmed By [Fairlight] – Gary Maughan
Saxophone [Solo] – Courtney Pine
Words By, Music By – Tennant / Lowe
Written-By, Producer – Pet Shop Boys


Tracklist:

01. Nothing Has Been Proved (Dance Mix) (05:57)
02. Nothing Has Been Proved (05:56)
03. Nothing Has Been Proved (Instrumental) (05:55)

Exact Audio Copy V1.3 from 2. September 2016

EAC extraction logfile from 14. January 2020, 16:49

Dusty Springfield / Nothing Has Been Proved (UK CD Single)

Used drive : PIONEER BD-RW BDR-208D Adapter: 1 ID: 0

Read mode : Secure
Utilize accurate stream : Yes
Defeat audio cache : Yes
Make use of C2 pointers : No

Read offset correction : 667
Overread into Lead-In and Lead-Out : No
Fill up missing offset samples with silence : Yes
Delete leading and trailing silent blocks : No
Null samples used in CRC calculations : Yes
Used interface : Native Win32 interface for Win NT & 2000

Used output format : Internal WAV Routines
Sample format : 44.100 Hz; 16 Bit; Stereo


TOC of the extracted CD

Track | Start | Length | Start sector | End sector
––––––––––––––––––––––––––––-
1 | 0:00.00 | 5:56.42 | 0 | 26741
2 | 5:56.42 | 5:55.65 | 26742 | 53431
3 | 11:52.32 | 5:55.03 | 53432 | 80059


Range status and errors

Selected range

Filename D:\BlondStyle\Dusty Springfield - Nothing Has Been Proved.wav

Peak level 86.9 %
Extraction speed 3.4 X
Range quality 100.0 %
Test CRC 2235E69E
Copy CRC 2235E69E
Copy OK

No errors occurred


AccurateRip summary

Track 1 accurately ripped (confidence 14) [14741CF9] (AR v2)
Track 2 accurately ripped (confidence 14) [8549E033] (AR v2)
Track 3 accurately ripped (confidence 14) [CCB91ACB] (AR v2)

All tracks accurately ripped

End of status report

–– CUETools DB Plugin V2.1.6

[CTDB TOCID: RPOYk6S4UAXtLU43fkzEkjHepn4-] found
Submit result: RPOYk6S4UAXtLU43fkzEkjHepn4- has been confirmed
Track | CTDB Status
1 | (26/26) Accurately ripped
2 | (26/26) Accurately ripped
3 | (26/26) Accurately ripped


==== Log checksum C489A6197E53D742EC32BD16BC06E3005118B553BF51EA4E0CBB7708C4070CE6 ====

––––––––––––––––––––––––––––––––––––––––
Analyzed: Dusty Springfield / Nothing Has Been Proved (UK CD Single)
––––––––––––––––––––––––––––––––––––––––

DR Peak RMS Duration Track
––––––––––––––––––––––––––––––––––––––––
DR15 -1.28 dB -19.53 dB 5:57 01-Nothing Has Been Proved (Dance Mix)
DR13 -1.22 dB -17.66 dB 5:56 02-Nothing Has Been Proved
DR12 -1.52 dB -16.73 dB 5:55 03-Nothing Has Been Proved (Instrumental)
––––––––––––––––––––––––––––––––––––––––

Number of tracks: 3
Official DR value: DR13

Samplerate: 44100 Hz
Channels: 2
Bits per sample: 16
Bitrate: 870 kbps
Codec: FLAC
================================================================================

See also:


♫~Welcome To My Blog~♫

password: BlondStyle