Subcategories
Tags
Language
Tags

Govi - 8 Studio Albums (1988-2015)

Posted By: gribovar
Govi - 8 Studio Albums (1988-2015)

Govi - 8 Studio Albums (1988-2015)
EAC Rip | FLAC (tracks+.cue+log) - 2,31 GB | MP3 CBR 320 kbps (LAME 3.93) - 922 MB | Covers - 1,02 GB
Genre: New Age, New Flamenco, World Fusion | RAR 3% Rec. | Label: Real Music, Higher Octave Music, Govi Music

This California-based guitarist was actually born in Germany. His inspiration and style are similar to that of another German immigrant, Deuter, who co-produced and performed on Govi's debut album Sky High. Like Deuter, Govi spent a number of years living and studying in India, where he added sitar to his vocabulary of acoustic and electric guitars, mandola, and cello.Govi's music gained in popularity in the 1990s, with the expansion of peoples awareness of world music and a renewed passion for flamenco, spawning new age hit albums like Andalusian Nights and Passion and Grace. His music is a gentle, melodious combination of influences from around the world.

Govi - 8 Studio Albums (1988-2015)

Govi - Sky High (1988)
EAC Rip | FLAC (tracks+.cue+log) - 246 MB | MP3 CBR 320 kbps (LAME 3.93) - 97 MB | Covers - 112 MB
Genre: New Age, New Flamenco, World Fusion | RAR 3% Rec. | Label: Real Music (RM 0783)

Tracklist:
01. Dance with Me
02. Looking into Your Eyes
03. Go Easy
04. Magic Island
05. Just for You
06. Sky High
07. Peaches n' Cream

Total time: 41:25

Exact Audio Copy V1.0 beta 1 from 15. November 2010

EAC extraction logfile from 2. May 2011, 18:25

Govi / Sky High

Used drive : HL-DT-STDVDRAM GH22NS50 Adapter: 13 ID: 0

Read mode : Secure
Utilize accurate stream : Yes
Defeat audio cache : Yes
Make use of C2 pointers : No

Read offset correction : 667
Overread into Lead-In and Lead-Out : No
Fill up missing offset samples with silence : Yes
Delete leading and trailing silent blocks : No
Null samples used in CRC calculations : Yes
Used interface : Native Win32 interface for Win NT & 2000
Gap handling : Appended to previous track

Used output format : User Defined Encoder
Selected bitrate : 128 kBit/s
Quality : High
Add ID3 tag : No
Command line compressor : C:\Program Files\Exact Audio Copy\Flac\flac.exe
Additional command line options : -8 -V -T "ARTIST=%a" -T "TITLE=%t" -T "ALBUM=%g" -T "DATE=%y" -T "TRACKNUMBER=%n" -T "GENRE=%m" -T "COMMENT=ripped by DrStandBy" %s


TOC of the extracted CD

Track | Start | Length | Start sector | End sector
––––––––––––––––––––––––––––-
1 | 0:00.00 | 6:07.50 | 0 | 27574
2 | 6:07.50 | 3:30.72 | 27575 | 43396
3 | 9:38.47 | 7:25.00 | 43397 | 76771
4 | 17:03.47 | 3:14.40 | 76772 | 91361
5 | 20:18.12 | 9:33.43 | 91362 | 134379
6 | 29:51.55 | 5:57.00 | 134380 | 161154
7 | 35:48.55 | 5:36.35 | 161155 | 186389


Track 1

Filename E:\GOVI\1988 - Sky High (RM 0783) (diffrent issue)\01. Govi - Dance with Me.wav

Pre-gap length 0:00:02.00

Peak level 98.8 %
Extraction speed 1.1 X
Track quality 100.0 %
Test CRC 63093859
Copy CRC 63093859
Accurately ripped (confidence 5) [EC57F2D4]
Copy OK

Track 2

Filename E:\GOVI\1988 - Sky High (RM 0783) (diffrent issue)\02. Govi - Looking into Your Eyes.wav

Pre-gap length 0:00:01.43

Peak level 98.8 %
Extraction speed 1.2 X
Track quality 100.0 %
Test CRC A5188311
Copy CRC A5188311
Accurately ripped (confidence 5) [5B8E4956]
Copy OK

Track 3

Filename E:\GOVI\1988 - Sky High (RM 0783) (diffrent issue)\03. Govi - Go Easy.wav

Pre-gap length 0:00:01.25

Peak level 98.8 %
Extraction speed 1.4 X
Track quality 100.0 %
Test CRC 460E4875
Copy CRC 460E4875
Accurately ripped (confidence 5) [E5EF0E65]
Copy OK

Track 4

Filename E:\GOVI\1988 - Sky High (RM 0783) (diffrent issue)\04. Govi - Magic Island.wav

Pre-gap length 0:00:01.37

Peak level 98.8 %
Extraction speed 1.4 X
Track quality 100.0 %
Test CRC 2D36CBC9
Copy CRC 2D36CBC9
Accurately ripped (confidence 5) [0CBB941B]
Copy OK

Track 5

Filename E:\GOVI\1988 - Sky High (RM 0783) (diffrent issue)\05. Govi - Just for You.wav

Pre-gap length 0:00:03.67

Peak level 98.8 %
Extraction speed 1.7 X
Track quality 100.0 %
Test CRC 6DBE06B0
Copy CRC 6DBE06B0
Accurately ripped (confidence 5) [03D3177E]
Copy OK

Track 6

Filename E:\GOVI\1988 - Sky High (RM 0783) (diffrent issue)\06. Govi - Sky High.wav

Pre-gap length 0:00:02.08

Peak level 98.8 %
Extraction speed 1.8 X
Track quality 100.0 %
Test CRC 5BBF9CE4
Copy CRC 5BBF9CE4
Accurately ripped (confidence 5) [0F6FFB0E]
Copy OK

Track 7

Filename E:\GOVI\1988 - Sky High (RM 0783) (diffrent issue)\07. Govi - Peaches 'n Cream.wav

Pre-gap length 0:00:03.43

Peak level 98.8 %
Extraction speed 1.9 X
Track quality 100.0 %
Test CRC 71A31C85
Copy CRC 71A31C85
Accurately ripped (confidence 5) [53792E18]
Copy OK


All tracks accurately ripped

No errors occurred

End of status report

==== Log checksum 17B97E862E2C3F337C2D8A27CABE7B07D88303FEBE1271B5A2C4F8FD83F69C9D ====

[CUETools log; Date: 01.06.2021 10:00:00; Version: 2.1.4]
HDCD: peak extend: none, transient filter: none, gain: none
[CTDB TOCID: wsoOy4iTbP9_HIqdU7QN.JfcULY-] found.
Track | CTDB Status
1 | (11/11) Accurately ripped
2 | (11/11) Accurately ripped
3 | (11/11) Accurately ripped
4 | (11/11) Accurately ripped
5 | (11/11) Accurately ripped
6 | (11/11) Accurately ripped
7 | (10/11) Accurately ripped
[AccurateRip ID: 000b0087-0042c0c5-4a09b507] found.
Track [ CRC | V2 ] Status
01 [ec57f2d4|8290ffa4] (05+03/14) Accurately ripped
02 [5b8e4956|00fcef68] (05+03/14) Accurately ripped
03 [e5ef0e65|e3da8209] (05+03/14) Accurately ripped
04 [0cbb941b|5b8b5c12] (05+03/14) Accurately ripped
05 [03d3177e|133068f0] (05+03/14) Accurately ripped
06 [0f6ffb0e|94bb672a] (05+03/14) Accurately ripped
07 [53792e18|47b12772] (05+03/14) Accurately ripped
Offsetted by -771:
01 [401dce3b] (02/14) Accurately ripped
02 [e9c76783] (02/14) Accurately ripped
03 [4e08c500] (02/14) Accurately ripped
04 [fc3f2135] (02/14) Accurately ripped
05 [3476c99c] (02/14) Accurately ripped
06 [67a587e5] (02/14) Accurately ripped
07 [b4f71f94] (02/14) Accurately ripped

Track Peak [ CRC32 ] [W/O NULL] [ LOG ]
– 98,8 [30A07425] [A67A6372]
01 98,8 [63093859] [1FE43D03] CRC32
02 98,8 [A5188311] [CEDA535B] CRC32
03 98,8 [460E4875] [D67E81DF] CRC32
04 98,8 [2D36CBC9] [69AE65E9] CRC32
05 98,8 [6DBE06B0] [ECE5F7E9] CRC32
06 98,8 [5BBF9CE4] [1988CFEF] CRC32
07 98,8 [71A31C85] [E7E9E6FF] CRC32

Govi - 8 Studio Albums (1988-2015)

Govi - Seventh Heaven (2000)
EAC Rip | FLAC (tracks+.cue+log) - 292 MB | MP3 CBR 320 kbps (LAME 3.93) - 108 MB | Covers - 171 MB
Genre: New Age, New Flamenco, World Fusion | RAR 3% Rec. | Label: Higher Octave Music/Govi Music (HOMCD 49424)

Tracklist:
01. Rising In Love
02. Mediterrano
03. Havana Sunset
04. Walking On Clouds
05. Disappearing Into You
06. Language Of The Heart
07. Gypsy Heaven
08. Jacaranda
09. Garden Of Eden
10. Wings Of Love

Total time: 46:05

Exact Audio Copy V0.99 prebeta 5 from 4. May 2009

EAC extraction logfile from 18. January 2011, 23:39

Govi / Seventh Heaven

Used drive : HL-DT-STDVDRAM GH22NS50 Adapter: 13 ID: 0

Read mode : Secure
Utilize accurate stream : Yes
Defeat audio cache : Yes
Make use of C2 pointers : No

Read offset correction : 667
Overread into Lead-In and Lead-Out : No
Fill up missing offset samples with silence : Yes
Delete leading and trailing silent blocks : No
Null samples used in CRC calculations : Yes
Used interface : Installed external ASPI interface
Gap handling : Appended to previous track

Used output format : User Defined Encoder
Selected bitrate : 128 kBit/s
Quality : Low
Add ID3 tag : No
Command line compressor : C:\Program Files\Exact Audio Copy\Flac\flac.exe
Additional command line options : -8 -V -T "ARTIST=%a" -T "TITLE=%t" -T "ALBUM=%g" -T "DATE=%y" -T "TRACKNUMBER=%n" -T "GENRE=%m" -T "COMMENT=ripped by DrStandBy" %s


TOC of the extracted CD

Track | Start | Length | Start sector | End sector
––––––––––––––––––––––––––––-
1 | 0:00.00 | 4:14.45 | 0 | 19094
2 | 4:14.45 | 4:47.35 | 19095 | 40654
3 | 9:02.05 | 6:51.00 | 40655 | 71479
4 | 15:53.05 | 4:33.00 | 71480 | 91954
5 | 20:26.05 | 4:54.49 | 91955 | 114053
6 | 25:20.54 | 1:42.56 | 114054 | 121759
7 | 27:03.35 | 5:23.57 | 121760 | 146041
8 | 32:27.17 | 5:28.38 | 146042 | 170679
9 | 37:55.55 | 2:56.60 | 170680 | 183939
10 | 40:52.40 | 5:12.47 | 183940 | 207386


Track 1

Filename E:\GOVI\2000 - Seventh Heaven (HOMCD 49424)\01. Govi - Rising In Love.wav

Pre-gap length 0:00:02.00

Peak level 98.8 %
Track quality 100.0 %
Test CRC 85729239
Copy CRC 85729239
Accurately ripped (confidence 22) [8C102DFB]
Copy OK

Track 2

Filename E:\GOVI\2000 - Seventh Heaven (HOMCD 49424)\02. Govi - Mediterrano.wav

Pre-gap length 0:00:01.73

Peak level 98.8 %
Track quality 100.0 %
Test CRC 6E19D9FF
Copy CRC 6E19D9FF
Accurately ripped (confidence 23) [EC2AEE64]
Copy OK

Track 3

Filename E:\GOVI\2000 - Seventh Heaven (HOMCD 49424)\03. Govi - Havana Sunset.wav

Pre-gap length 0:00:02.24

Peak level 98.8 %
Track quality 100.0 %
Test CRC 0EBEE8DE
Copy CRC 0EBEE8DE
Accurately ripped (confidence 21) [A00B29ED]
Copy OK

Track 4

Filename E:\GOVI\2000 - Seventh Heaven (HOMCD 49424)\04. Govi - Walking On Clouds.wav

Pre-gap length 0:00:02.40

Peak level 98.8 %
Track quality 99.9 %
Test CRC 93B47F36
Copy CRC 93B47F36
Accurately ripped (confidence 21) [5CD2EF99]
Copy OK

Track 5

Filename E:\GOVI\2000 - Seventh Heaven (HOMCD 49424)\05. Govi - Disappearing Into You.wav

Pre-gap length 0:00:01.80

Peak level 98.8 %
Track quality 100.0 %
Test CRC CBA9B596
Copy CRC CBA9B596
Accurately ripped (confidence 22) [3A87114A]
Copy OK

Track 6

Filename E:\GOVI\2000 - Seventh Heaven (HOMCD 49424)\06. Govi - Language Of The Heart.wav

Pre-gap length 0:00:01.62

Peak level 98.8 %
Track quality 100.0 %
Test CRC 065B59FF
Copy CRC 065B59FF
Accurately ripped (confidence 22) [E332496B]
Copy OK

Track 7

Filename E:\GOVI\2000 - Seventh Heaven (HOMCD 49424)\07. Govi - Gypsy Heaven.wav

Pre-gap length 0:00:02.26

Peak level 98.8 %
Track quality 99.9 %
Test CRC 4219BD54
Copy CRC 4219BD54
Accurately ripped (confidence 21) [8CCD4E57]
Copy OK

Track 8

Filename E:\GOVI\2000 - Seventh Heaven (HOMCD 49424)\08. Govi - Jacaranda.wav

Pre-gap length 0:00:02.09

Peak level 98.8 %
Track quality 100.0 %
Test CRC 166B85BD
Copy CRC 166B85BD
Accurately ripped (confidence 21) [B23B3076]
Copy OK

Track 9

Filename E:\GOVI\2000 - Seventh Heaven (HOMCD 49424)\09. Govi - Garden Of Eden.wav

Pre-gap length 0:00:02.04

Peak level 92.4 %
Track quality 100.0 %
Test CRC 993BBB15
Copy CRC 993BBB15
Accurately ripped (confidence 22) [5552A3AD]
Copy OK

Track 10

Filename E:\GOVI\2000 - Seventh Heaven (HOMCD 49424)\10. Govi - Wings Of Love.wav

Pre-gap length 0:00:01.00

Peak level 98.8 %
Track quality 100.0 %
Test CRC AFBC1627
Copy CRC AFBC1627
Accurately ripped (confidence 22) [98443FFF]
Copy OK


All tracks accurately ripped

No errors occurred

End of status report

[CUETools log; Date: 01.06.2021 10:00:56; Version: 2.1.4]
HDCD: peak extend: none, transient filter: none, gain: none
[CTDB TOCID: jH6nXU1npEy4Snk2wMB5o9lFJYU-] found.
Track | CTDB Status
1 | (49/53) Accurately ripped
2 | (52/53) Accurately ripped
3 | (53/53) Accurately ripped
4 | (53/53) Accurately ripped
5 | (52/53) Accurately ripped
6 | (52/53) Accurately ripped
7 | (50/53) Accurately ripped
8 | (53/53) Accurately ripped
9 | (51/53) Accurately ripped
10 | (51/53) Accurately ripped
[AccurateRip ID: 0011cec8-008d6998-8c0acd0a] found.
Track [ CRC | V2 ] Status
01 [8c102dfb|584c02d5] (25+31/56) Accurately ripped
02 [ec2aee64|0ace972e] (26+32/58) Accurately ripped
03 [a00b29ed|deede362] (24+33/57) Accurately ripped
04 [5cd2ef99|0017d63b] (24+33/57) Accurately ripped
05 [3a87114a|16418fcc] (25+33/58) Accurately ripped
06 [e332496b|a41249b7] (25+33/58) Accurately ripped
07 [8ccd4e57|d9d63968] (24+32/56) Accurately ripped
08 [b23b3076|5fd6a4ed] (24+33/57) Accurately ripped
09 [5552a3ad|b8e5c9ed] (25+32/57) Accurately ripped
10 [98443fff|8a4767ef] (25+33/58) Accurately ripped

Track Peak [ CRC32 ] [W/O NULL] [ LOG ]
– 98,8 [164AA456] [FEAE17E2]
01 98,8 [85729239] [45DDDB36] CRC32
02 98,8 [6E19D9FF] [A38FCD83] CRC32
03 98,8 [0EBEE8DE] [63A7AC93] CRC32
04 98,8 [93B47F36] [FAB66740] CRC32
05 98,8 [CBA9B596] [4A85EE7F] CRC32
06 98,8 [065B59FF] [0BF0A162] CRC32
07 98,8 [4219BD54] [984BE274] CRC32
08 98,8 [166B85BD] [98AD56A4] CRC32
09 92,4 [993BBB15] [795ED4C5] CRC32
10 98,8 [AFBC1627] [2EAE9F4A] CRC32

Govi - 8 Studio Albums (1988-2015)

Govi - Saffron & Silk (2004)
EAC Rip | FLAC (tracks+.cue+log) - 297 MB | MP3 CBR 320 kbps (LAME 3.93) - 112 MB | Covers - 137 MB
Genre: New Age, New Flamenco, World Fusion | RAR 3% Rec. | Label: Higher Octave Music/Govi Music (72435 95576 2 5)

Tracklist:
01. Call of the East
02. Saffron & Silk
03. Carioca Cat
04. Baile del Corazon
05. Into the Night
06. Neroli
07. Heartstrings
08. Road to Istanbul
09. Marrakesh

Total time: 47:46

Exact Audio Copy V0.99 prebeta 4 from 23. January 2008

EAC extraction logfile from 6. December 2008, 16:52

Govi / Saffron & Silk

Used drive : PLEXTOR DVDR PX-760A Adapter: 0 ID: 0

Read mode : Secure
Utilize accurate stream : Yes
Defeat audio cache : Yes
Make use of C2 pointers : No

Read offset correction : 30
Overread into Lead-In and Lead-Out : No
Fill up missing offset samples with silence : Yes
Delete leading and trailing silent blocks : No
Null samples used in CRC calculations : Yes
Used interface : Installed external ASPI interface
Gap handling : Appended to previous track

Used output format : User Defined Encoder
Selected bitrate : 128 kBit/s
Quality : High
Add ID3 tag : No
Command line compressor : G:\Program Files\FLAC\flac.exe
Additional command line options : -8 -V -T "ARTIST=%a" -T "TITLE=%t" -T "ALBUM=%g" -T "DATE=%y" -T "TRACKNUMBER=%n" -T "GENRE=%m" -T "COMMENT=ripped by DrStandBy" %s


TOC of the extracted CD

Track | Start | Length | Start sector | End sector
––––––––––––––––––––––––––––-
1 | 0:00.00 | 5:31.25 | 0 | 24849
2 | 5:31.25 | 5:51.74 | 24850 | 51248
3 | 11:23.24 | 6:06.49 | 51249 | 78747
4 | 17:29.73 | 5:19.27 | 78748 | 102699
5 | 22:49.25 | 3:55.34 | 102700 | 120358
6 | 26:44.59 | 4:54.17 | 120359 | 142425
7 | 31:39.01 | 6:14.03 | 142426 | 170478
8 | 37:53.04 | 5:06.11 | 170479 | 193439
9 | 42:59.15 | 4:47.08 | 193440 | 214972


Track 1

Filename C:\Lossless\GOVI\2004 - Saffron & Silk (72435 95576 2 5)\01. Govi - Call of the East.wav

Pre-gap length 0:00:02.00

Peak level 98.4 %
Track quality 100.0 %
Test CRC B04339FF
Copy CRC B04339FF
Accurately ripped (confidence 8) [9C401E82]
Copy OK

Track 2

Filename C:\Lossless\GOVI\2004 - Saffron & Silk (72435 95576 2 5)\02. Govi - Saffron & Silk.wav

Pre-gap length 0:00:01.54

Peak level 96.2 %
Track quality 99.9 %
Test CRC 2610DCAF
Copy CRC 2610DCAF
Accurately ripped (confidence 8) [0F0E6E43]
Copy OK

Track 3

Filename C:\Lossless\GOVI\2004 - Saffron & Silk (72435 95576 2 5)\03. Govi - Carioca Cat.wav

Pre-gap length 0:00:01.76

Peak level 96.1 %
Track quality 100.0 %
Test CRC D8C2E50E
Copy CRC D8C2E50E
Accurately ripped (confidence 8) [BD544D54]
Copy OK

Track 4

Filename C:\Lossless\GOVI\2004 - Saffron & Silk (72435 95576 2 5)\04. Govi - Baile del Corazon.wav

Pre-gap length 0:00:02.92

Peak level 98.3 %
Track quality 100.0 %
Test CRC 63A3F970
Copy CRC 63A3F970
Accurately ripped (confidence 8) [2D4C3EAA]
Copy OK

Track 5

Filename C:\Lossless\GOVI\2004 - Saffron & Silk (72435 95576 2 5)\05. Govi - Into the Night.wav

Pre-gap length 0:00:01.94

Peak level 98.8 %
Track quality 99.9 %
Test CRC 98EDD544
Copy CRC 98EDD544
Accurately ripped (confidence 8) [277E31F5]
Copy OK

Track 6

Filename C:\Lossless\GOVI\2004 - Saffron & Silk (72435 95576 2 5)\06. Govi - Neroli.wav

Pre-gap length 0:00:02.02

Peak level 98.8 %
Track quality 100.0 %
Test CRC E1D1BC3B
Copy CRC E1D1BC3B
Accurately ripped (confidence 8) [E5138B1F]
Copy OK

Track 7

Filename C:\Lossless\GOVI\2004 - Saffron & Silk (72435 95576 2 5)\07. Govi - Heartstrings.wav

Pre-gap length 0:00:02.06

Peak level 96.2 %
Track quality 100.0 %
Test CRC 180CE17B
Copy CRC 180CE17B
Accurately ripped (confidence 8) [0E6AD381]
Copy OK

Track 8

Filename C:\Lossless\GOVI\2004 - Saffron & Silk (72435 95576 2 5)\08. Govi - Road to Istanbul.wav

Pre-gap length 0:00:01.65

Peak level 75.5 %
Track quality 99.9 %
Test CRC AEC2C0FA
Copy CRC AEC2C0FA
Accurately ripped (confidence 8) [3A4C8A8A]
Copy OK

Track 9

Filename C:\Lossless\GOVI\2004 - Saffron & Silk (72435 95576 2 5)\09. Govi - Marrakesh.wav

Pre-gap length 0:00:01.56

Peak level 97.0 %
Track quality 100.0 %
Test CRC 60141E1B
Copy CRC 60141E1B
Accurately ripped (confidence 8) [1DD46C30]
Copy OK


All tracks accurately ripped

No errors occurred

End of status report

[CUETools log; Date: 01.06.2021 10:02:58; Version: 2.1.4]
HDCD: peak extend: none, transient filter: none, gain: -4,0dB..0,0dB
[CTDB TOCID: d.LKHjH1qAahdSCkpO4avgYUx8g-] found.
Track | CTDB Status
1 | (41/41) Accurately ripped
2 | (41/41) Accurately ripped
3 | (41/41) Accurately ripped
4 | (41/41) Accurately ripped
5 | (41/41) Accurately ripped
6 | (40/41) Accurately ripped
7 | (40/41) Accurately ripped
8 | (39/41) Accurately ripped
9 | (38/41) Accurately ripped
[AccurateRip ID: 0010c5d8-007a27de-690b3209] found.
Track [ CRC | V2 ] Status
01 [9c401e82|c5387935] (19+17/44) Accurately ripped
02 [0f0e6e43|3511b155] (18+17/44) Accurately ripped
03 [bd544d54|fb6a1d3a] (18+16/43) Accurately ripped
04 [2d4c3eaa|d9816056] (19+16/41) Accurately ripped
05 [277e31f5|1bfbc0f3] (19+17/42) Accurately ripped
06 [e5138b1f|06ce4701] (19+17/44) Accurately ripped
07 [0e6ad381|fd921010] (19+17/44) Accurately ripped
08 [3a4c8a8a|dc604580] (19+17/44) Accurately ripped
09 [1dd46c30|9715c1b8] (18+17/45) Accurately ripped
Offsetted by -664:
01 [f2aada47] (04/44) Accurately ripped
02 [c8154b85] (04/44) Accurately ripped
03 [6434eb56] (04/43) Accurately ripped
04 [e0852504] (04/41) Accurately ripped
05 [9635f55a] (04/42) Accurately ripped
06 [7e5cc144] (04/44) Accurately ripped
07 [f4e418bf] (04/44) Accurately ripped
08 [69656b83] (04/44) Accurately ripped
09 [4c6a08f4] (04/45) Accurately ripped
Offsetted by -676:
01 [f9374dca] (00/44) No match (V2 was not tested)
02 [2ca9c8cf] (00/44) No match (V2 was not tested)
03 [33f6fd64] (00/43) No match (V2 was not tested)
04 [7705169d] (00/41) No match (V2 was not tested)
05 [8ce7c8ee] (00/42) No match (V2 was not tested)
06 [dff77d60] (00/44) No match (V2 was not tested)
07 [fc3bbc2e] (00/44) No match (V2 was not tested)
08 [44dc465b] (00/44) No match (V2 was not tested)
09 [6ae4ed6f] (00/45) No match (V2 was not tested)
Offsetted by -646:
01 [771abcee] (00/44) No match
02 [32be8fd7] (00/44) No match
03 [5aca09c0] (00/43) No match
04 [de65113e] (00/41) No match
05 [337d7fdf] (00/42) No match
06 [91cf1ff6] (00/44) No match
07 [1078a386] (00/44) No match
08 [99e3233d] (00/44) No match
09 [51c1ecf4] (02/45) Accurately ripped

Track Peak [ CRC32 ] [W/O NULL] [ LOG ]
– 98,8 [F629CF57] [B7B34758]
01 98,4 [B04339FF] [1470EED0] CRC32
02 96,2 [2610DCAF] [4DB1535B] CRC32
03 96,1 [D8C2E50E] [98B3751C] CRC32
04 98,3 [63A3F970] [773D178E] CRC32
05 98,8 [98EDD544] [28586F6B] CRC32
06 98,8 [E1D1BC3B] [B1D233AD] CRC32
07 96,2 [180CE17B] [8D4A1A94] CRC32
08 75,5 [AEC2C0FA] [A9AEA3BF] CRC32
09 97,0 [60141E1B] [85087680] CRC32

Govi - 8 Studio Albums (1988-2015)

Govi - Jewel Box (2006)
EAC Rip | FLAC (tracks+.cue+log) - 312 MB | MP3 CBR 320 kbps (LAME 3.93) - 123 MB | Covers - 192 MB
Genre: New Age, New Flamenco, World Fusion | RAR 3% Rec. | Label: Higher Octave Music/Govi Music (09463-44540-2-5)

Tracklist:
01. Ruby Lips
02. Moonstone
03. Medallion
04. Nettie Gem
05. Sapphire Sky
06. Diamond Sutra
07. Gandhi With The Jewels
08. Diamonds In The Dew
09. Emerald Eyes
10. My Precious

Total time: 52:10

Exact Audio Copy V1.0 beta 1 from 15. November 2010

EAC extraction logfile from 28. April 2011, 20:21

Govi / Jewel Box

Used drive : HL-DT-STDVDRAM GH22NS50 Adapter: 13 ID: 0

Read mode : Secure
Utilize accurate stream : Yes
Defeat audio cache : Yes
Make use of C2 pointers : No

Read offset correction : 667
Overread into Lead-In and Lead-Out : No
Fill up missing offset samples with silence : Yes
Delete leading and trailing silent blocks : No
Null samples used in CRC calculations : Yes
Used interface : Native Win32 interface for Win NT & 2000
Gap handling : Appended to previous track

Used output format : User Defined Encoder
Selected bitrate : 128 kBit/s
Quality : High
Add ID3 tag : No
Command line compressor : C:\Program Files\Exact Audio Copy\Flac\flac.exe
Additional command line options : -8 -V -T "ARTIST=%a" -T "TITLE=%t" -T "ALBUM=%g" -T "DATE=%y" -T "TRACKNUMBER=%n" -T "GENRE=%m" -T "COMMENT=ripped by DrStandBy" %s


TOC of the extracted CD

Track | Start | Length | Start sector | End sector
––––––––––––––––––––––––––––-
1 | 0:02.04 | 5:37.05 | 154 | 25433
2 | 5:39.09 | 5:39.03 | 25434 | 50861
3 | 11:18.12 | 5:56.57 | 50862 | 77618
4 | 17:14.69 | 6:33.12 | 77619 | 107105
5 | 23:48.06 | 4:01.12 | 107106 | 125192
6 | 27:49.18 | 4:22.33 | 125193 | 144875
7 | 32:11.51 | 5:24.21 | 144876 | 169196
8 | 37:35.72 | 5:12.11 | 169197 | 192607
9 | 42:48.08 | 5:11.44 | 192608 | 215976
10 | 47:59.52 | 4:12.25 | 215977 | 234901


Track 1

Filename E:\GOVI\2006 - Jewel Box (09463-44540-2-5)\01. Govi - Ruby Lips.wav

Pre-gap length 0:00:04.04

Peak level 95.3 %
Extraction speed 1.2 X
Track quality 100.0 %
Test CRC DDF13F5C
Copy CRC DDF13F5C
Accurately ripped (confidence 2) [87D3A286]
Copy OK

Track 2

Filename E:\GOVI\2006 - Jewel Box (09463-44540-2-5)\02. Govi - Moonstone.wav

Pre-gap length 0:00:02.21

Peak level 98.8 %
Extraction speed 1.3 X
Track quality 99.9 %
Test CRC ED8EDB4A
Copy CRC ED8EDB4A
Accurately ripped (confidence 2) [3E935488]
Copy OK

Track 3

Filename E:\GOVI\2006 - Jewel Box (09463-44540-2-5)\03. Govi - Medallion.wav

Pre-gap length 0:00:02.04

Peak level 98.8 %
Extraction speed 1.4 X
Track quality 99.9 %
Test CRC 89E2E985
Copy CRC 89E2E985
Accurately ripped (confidence 2) [23ECF847]
Copy OK

Track 4

Filename E:\GOVI\2006 - Jewel Box (09463-44540-2-5)\04. Govi - Nettie Gem.wav

Pre-gap length 0:00:01.26

Peak level 98.8 %
Extraction speed 1.6 X
Track quality 99.9 %
Test CRC F84582A7
Copy CRC F84582A7
Accurately ripped (confidence 2) [7F3533C6]
Copy OK

Track 5

Filename E:\GOVI\2006 - Jewel Box (09463-44540-2-5)\05. Govi - Sapphire Sky.wav

Pre-gap length 0:00:01.15

Peak level 98.6 %
Extraction speed 1.7 X
Track quality 100.0 %
Test CRC 06C60646
Copy CRC 06C60646
Accurately ripped (confidence 2) [50C42F57]
Copy OK

Track 6

Filename E:\GOVI\2006 - Jewel Box (09463-44540-2-5)\06. Govi - Diamond Sutra.wav

Pre-gap length 0:00:01.71

Peak level 98.4 %
Extraction speed 1.8 X
Track quality 100.0 %
Test CRC E0305651
Copy CRC E0305651
Accurately ripped (confidence 2) [E4C0224D]
Copy OK

Track 7

Filename E:\GOVI\2006 - Jewel Box (09463-44540-2-5)\07. Govi - Gandhi With The Jewels.wav

Pre-gap length 0:00:02.21

Peak level 95.1 %
Extraction speed 1.9 X
Track quality 100.0 %
Test CRC 1144611F
Copy CRC 1144611F
Accurately ripped (confidence 2) [00563A41]
Copy OK

Track 8

Filename E:\GOVI\2006 - Jewel Box (09463-44540-2-5)\08. Govi - Diamonds In The Dew.wav

Pre-gap length 0:00:01.52

Peak level 98.8 %
Extraction speed 1.8 X
Track quality 99.9 %
Test CRC 746BB96A
Copy CRC 746BB96A
Accurately ripped (confidence 2) [5FB79E57]
Copy OK

Track 9

Filename E:\GOVI\2006 - Jewel Box (09463-44540-2-5)\09. Govi - Emerald Eyes.wav

Peak level 98.8 %
Extraction speed 2.2 X
Track quality 100.0 %
Test CRC ABA87440
Copy CRC ABA87440
Accurately ripped (confidence 2) [D54660F3]
Copy OK

Track 10

Filename E:\GOVI\2006 - Jewel Box (09463-44540-2-5)\10. Govi - My Precious.wav

Pre-gap length 0:00:01.04

Peak level 98.8 %
Extraction speed 1.7 X
Track quality 99.9 %
Test CRC E077B421
Copy CRC E077B421
Accurately ripped (confidence 2) [7A8481F5]
Copy OK


All tracks accurately ripped

No errors occurred

End of status report

==== Log checksum EBE044C04D58AB8F59FEA367253B0A6F54A57C97A23E9CCEE03B5D65EF7FB09A ====

[CUETools log; Date: 01.06.2021 10:04:44; Version: 2.1.4]
Pregap length 00:02:04.
HDCD: peak extend: none, transient filter: none, gain: -4,0dB..0,0dB
[CTDB TOCID: qG2AMtNqgk2Y8Sc2rVV.bFwx0g4-] found.
Track | CTDB Status
1 | (15/15) Accurately ripped
2 | (15/15) Accurately ripped
3 | (15/15) Accurately ripped
4 | (15/15) Accurately ripped
5 | (15/15) Accurately ripped
6 | (15/15) Accurately ripped
7 | (15/15) Accurately ripped
8 | (15/15) Accurately ripped
9 | (15/15) Accurately ripped
10 | (14/15) Accurately ripped
[AccurateRip ID: 001481b8-00a2708c-7c0c3a0a] found.
Track [ CRC | V2 ] Status
01 [87d3a286|5bc4fb67] (02+04/29) Accurately ripped
02 [3e935488|8158c72d] (02+04/29) Accurately ripped
03 [23ecf847|1b431f06] (02+04/29) Accurately ripped
04 [7f3533c6|cbeff7c4] (02+04/29) Accurately ripped
05 [50c42f57|62af54e5] (02+04/29) Accurately ripped
06 [e4c0224d|10e857dc] (02+04/29) Accurately ripped
07 [00563a41|f5e07a13] (02+04/29) Accurately ripped
08 [5fb79e57|b4699af6] (02+04/29) Accurately ripped
09 [d54660f3|f474fd07] (02+04/29) Accurately ripped
10 [7a8481f5|2e6941a3] (02+04/28) Accurately ripped
Offsetted by -12:
01 [86bd076f] (02/29) Accurately ripped
02 [95664b66] (02/29) Accurately ripped
03 [c5978d55] (02/29) Accurately ripped
04 [39ef3c10] (02/29) Accurately ripped
05 [05d110d5] (02/29) Accurately ripped
06 [54438529] (02/29) Accurately ripped
07 [faea9e1f] (02/29) Accurately ripped
08 [7364dab5] (02/29) Accurately ripped
09 [0232eae6] (02/29) Accurately ripped
10 [60aa27cc] (02/28) Accurately ripped
Offsetted by 664:
01 [1a360600] (09/29) Accurately ripped
02 [776fcbcb] (09/29) Accurately ripped
03 [94ac8d8c] (09/29) Accurately ripped
04 [5823cb9a] (09/29) Accurately ripped
05 [22dad1a9] (09/29) Accurately ripped
06 [08db2e9b] (09/29) Accurately ripped
07 [8612c2ed] (09/29) Accurately ripped
08 [b65f21e3] (09/29) Accurately ripped
09 [3ca83125] (09/29) Accurately ripped
10 [360e5cc5] (09/28) Accurately ripped

Track Peak [ CRC32 ] [W/O NULL] [ LOG ]
– 98,8 [4A43476A] [E26CF854]
01 95,3 [DDF13F5C] [EADFBADE] CRC32
02 98,8 [ED8EDB4A] [43FC99E3] CRC32
03 98,8 [89E2E985] [05766C1F] CRC32
04 98,8 [F84582A7] [58CC166E] CRC32
05 98,6 [06C60646] [11EA77D8] CRC32
06 98,4 [E0305651] [B93FA4AF] CRC32
07 95,1 [1144611F] [BD494695] CRC32
08 98,8 [746BB96A] [A088C896] CRC32
09 98,8 [ABA87440] [AD3F799B] CRC32
10 98,8 [E077B421] [9D20D6EF] CRC32

Govi - 8 Studio Albums (1988-2015)

Govi - Touch of Light (2008)
EAC Rip | FLAC (tracks+.cue+log) - 315 MB | MP3 CBR 320 kbps (LAME 3.93) - 125 MB | Covers - 18 MB
Genre: New Age, New Flamenco, World Fusion | RAR 3% Rec. | Label: Govi Music (84418-50246-2-4)

Tracklist:
01. Espresso
02. Valencia
03. Romance Dance
04. Touch of Light
05. Turkish Delight
06. Bitter Sweet
07. Yin Yang
08. Swaying Palms
09. Savanna Rains
10. Passionfruit

Total time: 53:14

Exact Audio Copy V0.99 prebeta 4 from 23. January 2008

EAC extraction logfile from 6. December 2008, 14:08

Govi / Touch of Light

Used drive : PLEXTOR DVDR PX-760A Adapter: 0 ID: 0

Read mode : Secure
Utilize accurate stream : Yes
Defeat audio cache : Yes
Make use of C2 pointers : No

Read offset correction : 30
Overread into Lead-In and Lead-Out : No
Fill up missing offset samples with silence : Yes
Delete leading and trailing silent blocks : No
Null samples used in CRC calculations : Yes
Used interface : Installed external ASPI interface
Gap handling : Appended to previous track

Used output format : User Defined Encoder
Selected bitrate : 128 kBit/s
Quality : High
Add ID3 tag : No
Command line compressor : G:\Program Files\FLAC\flac.exe
Additional command line options : -8 -V -T "ARTIST=%a" -T "TITLE=%t" -T "ALBUM=%g" -T "DATE=%y" -T "TRACKNUMBER=%n" -T "GENRE=%m" -T "COMMENT=ripped by DrStandBy" %s


TOC of the extracted CD

Track | Start | Length | Start sector | End sector
––––––––––––––––––––––––––––-
1 | 0:00.00 | 5:12.69 | 0 | 23468
2 | 5:12.69 | 5:39.28 | 23469 | 48921
3 | 10:52.22 | 4:25.15 | 48922 | 68811
4 | 15:17.37 | 5:57.53 | 68812 | 95639
5 | 21:15.15 | 4:45.34 | 95640 | 117048
6 | 26:00.49 | 5:42.08 | 117049 | 142706
7 | 31:42.57 | 4:52.71 | 142707 | 164677
8 | 36:35.53 | 5:13.24 | 164678 | 188176
9 | 41:49.02 | 6:09.19 | 188177 | 215870
10 | 47:58.21 | 5:15.64 | 215871 | 239559


Track 1

Filename C:\Lossless\GOVI\Govi - 2008 - Touch of Light\01. Govi - Espresso.wav

Pre-gap length 0:00:02.00

Peak level 97.7 %
Track quality 100.0 %
Test CRC 15E3F31B
Copy CRC 15E3F31B
Track not present in AccurateRip database
Copy OK

Track 2

Filename C:\Lossless\GOVI\Govi - 2008 - Touch of Light\02. Govi - Valencia.wav

Pre-gap length 0:00:02.42

Peak level 98.8 %
Track quality 99.9 %
Test CRC 980C2C56
Copy CRC 980C2C56
Track not present in AccurateRip database
Copy OK

Track 3

Filename C:\Lossless\GOVI\Govi - 2008 - Touch of Light\03. Govi - Romance Dance.wav

Pre-gap length 0:00:03.49

Peak level 98.8 %
Track quality 100.0 %
Test CRC 4D3FBEA3
Copy CRC 4D3FBEA3
Track not present in AccurateRip database
Copy OK

Track 4

Filename C:\Lossless\GOVI\Govi - 2008 - Touch of Light\04. Govi - Touch of Light.wav

Pre-gap length 0:00:03.32

Peak level 92.2 %
Track quality 100.0 %
Test CRC ECD35DFF
Copy CRC ECD35DFF
Track not present in AccurateRip database
Copy OK

Track 5

Filename C:\Lossless\GOVI\Govi - 2008 - Touch of Light\05. Govi - Turkish Delight.wav

Pre-gap length 0:00:01.44

Peak level 98.8 %
Track quality 100.0 %
Test CRC 62FB8A3F
Copy CRC 62FB8A3F
Track not present in AccurateRip database
Copy OK

Track 6

Filename C:\Lossless\GOVI\Govi - 2008 - Touch of Light\06. Govi - Bitter Sweet.wav

Pre-gap length 0:00:02.68

Peak level 98.8 %
Track quality 100.0 %
Test CRC DB6D8EED
Copy CRC DB6D8EED
Track not present in AccurateRip database
Copy OK

Track 7

Filename C:\Lossless\GOVI\Govi - 2008 - Touch of Light\07. Govi - Yin Yang.wav

Pre-gap length 0:00:01.37

Peak level 98.8 %
Track quality 100.0 %
Test CRC 55986593
Copy CRC 55986593
Track not present in AccurateRip database
Copy OK

Track 8

Filename C:\Lossless\GOVI\Govi - 2008 - Touch of Light\08. Govi - Swaying Palms.wav

Peak level 97.7 %
Track quality 100.0 %
Test CRC 1F5C949B
Copy CRC 1F5C949B
Track not present in AccurateRip database
Copy OK

Track 9

Filename C:\Lossless\GOVI\Govi - 2008 - Touch of Light\09. Govi - Savanna Rains.wav

Peak level 98.8 %
Track quality 99.9 %
Test CRC FFFCA9B5
Copy CRC FFFCA9B5
Track not present in AccurateRip database
Copy OK

Track 10

Filename C:\Lossless\GOVI\Govi - 2008 - Touch of Light\10. Govi - Passionfruit.wav

Peak level 97.7 %
Track quality 100.0 %
Test CRC BD45AB6D
Copy CRC BD45AB6D
Track not present in AccurateRip database
Copy OK


None of the tracks are present in the AccurateRip database

No errors occurred

End of status report

[CUETools log; Date: 01.06.2021 10:05:16; Version: 2.1.4]
[CTDB TOCID: i6wdK96RLqHl_Fu3cgO6BYeBGT8-] found.
Track | CTDB Status
1 | (12/12) Accurately ripped
2 | (12/12) Accurately ripped
3 | (12/12) Accurately ripped
4 | (12/12) Accurately ripped
5 | (12/12) Accurately ripped
6 | (12/12) Accurately ripped
7 | (12/12) Accurately ripped
8 | (12/12) Accurately ripped
9 | (12/12) Accurately ripped
10 | (12/12) Accurately ripped
[AccurateRip ID: 0013e935-009f8123-870c7a0a] found.
Track [ CRC | V2 ] Status
01 [8d137855|17130960] (03+05/13) Accurately ripped
02 [e225ab61|34dcd555] (03+05/13) Accurately ripped
03 [b2e9acea|8da7693c] (03+05/13) Accurately ripped
04 [3557b266|6a0b10b8] (03+05/13) Accurately ripped
05 [e0cba72b|5ae62cc8] (03+05/13) Accurately ripped
06 [47417013|e268dc69] (03+05/13) Accurately ripped
07 [8dadf82a|5174f582] (03+05/13) Accurately ripped
08 [c4451ecd|eafaf3e9] (03+05/13) Accurately ripped
09 [f445ac4e|bc17153f] (03+05/13) Accurately ripped
10 [ee4e7af8|131f8fd0] (03+05/13) Accurately ripped
Offsetted by -36:
01 [7f205d85] (03/13) Accurately ripped
02 [ecad89dd] (03/13) Accurately ripped
03 [ce9efbea] (03/13) Accurately ripped
04 [35b2ec76] (03/13) Accurately ripped
05 [bfc935b3] (03/13) Accurately ripped
06 [26869847] (03/13) Accurately ripped
07 [7fd2e206] (03/13) Accurately ripped
08 [74105d81] (03/13) Accurately ripped
09 [3409732a] (03/13) Accurately ripped
10 [cd9ac720] (03/13) Accurately ripped

Track Peak [ CRC32 ] [W/O NULL] [ LOG ]
– 98,8 [B8BC2C8F] [A2F817E4]
01 97,7 [15E3F31B] [1A377CEC] CRC32
02 98,8 [980C2C56] [DB44BBF4] CRC32
03 98,8 [4D3FBEA3] [00FF1B6A] CRC32
04 92,2 [ECD35DFF] [726AEED3] CRC32
05 98,8 [62FB8A3F] [BE819DED] CRC32
06 98,8 [DB6D8EED] [9C0D3373] CRC32
07 98,8 [55986593] [36CFDAEF] CRC32
08 97,7 [1F5C949B] [ADAA3C95] CRC32
09 98,8 [FFFCA9B5] [8B7D87CF] CRC32
10 97,7 [BD45AB6D] [D2D19787] CRC32

Govi - 8 Studio Albums (1988-2015)

Govi - Guitarra Mistica (2011)
EAC Rip | FLAC (tracks+.cue+log) - 281 MB | MP3 CBR 320 kbps (LAME 3.93) - 116 MB | Covers - 117 MB
Genre: New Age, New Flamenco, World Fusion | RAR 3% Rec. | Label: Govi Music (84710-80761-2-0)

Tracklist:
01. Samba Delight
02. Guitarra Mistica
03. Voices In The Wind
04. Moorish Nights
05. Birds & Bees
06. Mumbai Express
07. Wildflowers
08. Over The Moon
09. Raindrops In The Sun
10. Danza Del Amor

Total time: 49:27

Exact Audio Copy V1.0 beta 1 from 15. November 2010

EAC extraction logfile from 29. April 2011, 0:06

Govi / Guitarra Mistica

Used drive : HL-DT-STDVDRAM GH22NS50 Adapter: 13 ID: 0

Read mode : Secure
Utilize accurate stream : Yes
Defeat audio cache : Yes
Make use of C2 pointers : No

Read offset correction : 667
Overread into Lead-In and Lead-Out : No
Fill up missing offset samples with silence : Yes
Delete leading and trailing silent blocks : No
Null samples used in CRC calculations : Yes
Used interface : Native Win32 interface for Win NT & 2000
Gap handling : Appended to previous track

Used output format : User Defined Encoder
Selected bitrate : 128 kBit/s
Quality : High
Add ID3 tag : No
Command line compressor : C:\Program Files\Exact Audio Copy\Flac\flac.exe
Additional command line options : -8 -V -T "ARTIST=%a" -T "TITLE=%t" -T "ALBUM=%g" -T "DATE=%y" -T "TRACKNUMBER=%n" -T "GENRE=%m" -T "COMMENT=ripped by DrStandBy" %s


TOC of the extracted CD

Track | Start | Length | Start sector | End sector
––––––––––––––––––––––––––––-
1 | 0:00.00 | 5:44.24 | 0 | 25823
2 | 5:44.24 | 6:16.44 | 25824 | 54067
3 | 12:00.68 | 4:29.01 | 54068 | 74243
4 | 16:29.69 | 5:24.28 | 74244 | 98571
5 | 21:54.22 | 5:43.63 | 98572 | 124359
6 | 27:38.10 | 4:54.28 | 124360 | 146437
7 | 32:32.38 | 4:19.18 | 146438 | 165880
8 | 36:51.56 | 4:03.31 | 165881 | 184136
9 | 40:55.12 | 4:46.37 | 184137 | 205623
10 | 45:41.49 | 3:45.25 | 205624 | 222523


Track 1

Filename E:\GOVI\2011 - Guitarra Mistica (84710-80761-2-0)\01. Govi - Samba Delight.wav

Pre-gap length 0:00:02.00

Peak level 98.6 %
Extraction speed 1.0 X
Track quality 99.9 %
Test CRC 0A85D1FB
Copy CRC 0A85D1FB
Track not present in AccurateRip database
Copy OK

Track 2

Filename E:\GOVI\2011 - Guitarra Mistica (84710-80761-2-0)\02. Govi - Guitarra Mistica.wav

Pre-gap length 0:00:01.64

Peak level 98.4 %
Extraction speed 1.3 X
Track quality 100.0 %
Test CRC 12702952
Copy CRC 12702952
Track not present in AccurateRip database
Copy OK

Track 3

Filename E:\GOVI\2011 - Guitarra Mistica (84710-80761-2-0)\03. Govi - Voices In The Wind.wav

Pre-gap length 0:00:02.18

Peak level 97.2 %
Extraction speed 1.4 X
Track quality 100.0 %
Test CRC 84D3DD10
Copy CRC 84D3DD10
Track not present in AccurateRip database
Copy OK

Track 4

Filename E:\GOVI\2011 - Guitarra Mistica (84710-80761-2-0)\04. Govi - Moorish Nights.wav

Pre-gap length 0:00:02.19

Peak level 98.4 %
Extraction speed 1.5 X
Track quality 100.0 %
Test CRC 6BC30FE7
Copy CRC 6BC30FE7
Track not present in AccurateRip database
Copy OK

Track 5

Filename E:\GOVI\2011 - Guitarra Mistica (84710-80761-2-0)\05. Govi - Birds & Bees.wav

Pre-gap length 0:00:02.40

Peak level 98.4 %
Extraction speed 1.6 X
Track quality 100.0 %
Test CRC 2700FCAD
Copy CRC 2700FCAD
Track not present in AccurateRip database
Copy OK

Track 6

Filename E:\GOVI\2011 - Guitarra Mistica (84710-80761-2-0)\06. Govi - Mumbai Express.wav

Pre-gap length 0:00:02.31

Peak level 98.5 %
Extraction speed 1.7 X
Track quality 100.0 %
Test CRC EBFECD01
Copy CRC EBFECD01
Track not present in AccurateRip database
Copy OK

Track 7

Filename E:\GOVI\2011 - Guitarra Mistica (84710-80761-2-0)\07. Govi - Wildflowers.wav

Pre-gap length 0:00:02.06

Peak level 98.4 %
Extraction speed 1.7 X
Track quality 100.0 %
Test CRC 026506E3
Copy CRC 026506E3
Track not present in AccurateRip database
Copy OK

Track 8

Filename E:\GOVI\2011 - Guitarra Mistica (84710-80761-2-0)\08. Govi - Over The Moon.wav

Pre-gap length 0:00:02.20

Peak level 98.5 %
Extraction speed 1.6 X
Track quality 99.9 %
Test CRC 606A1B33
Copy CRC 606A1B33
Track not present in AccurateRip database
Copy OK

Track 9

Filename E:\GOVI\2011 - Guitarra Mistica (84710-80761-2-0)\09. Govi - Raindrops In The Sun.wav

Pre-gap length 0:00:02.45

Peak level 98.4 %
Extraction speed 1.9 X
Track quality 100.0 %
Test CRC EBB28FE4
Copy CRC EBB28FE4
Track not present in AccurateRip database
Copy OK

Track 10

Filename E:\GOVI\2011 - Guitarra Mistica (84710-80761-2-0)\10. Govi - Danza Del Amor.wav

Pre-gap length 0:00:02.65

Peak level 98.4 %
Extraction speed 2.0 X
Track quality 100.0 %
Test CRC 98B83863
Copy CRC 98B83863
Track not present in AccurateRip database
Copy OK


None of the tracks are present in the AccurateRip database

No errors occurred

End of status report

==== Log checksum 3A8D3F97C54E66D56F54EC172A12E6671E62C96CC639797588D375E4FD7D6A38 ====

[CUETools log; Date: 01.06.2021 10:06:12; Version: 2.1.4]
[CTDB TOCID: eJqReN2n9BZO43IVxfu8vXPgnPw-] found.
Track | CTDB Status
1 | (9/9) Accurately ripped
2 | (9/9) Accurately ripped
3 | (9/9) Accurately ripped
4 | (9/9) Accurately ripped
5 | (9/9) Accurately ripped
6 | (9/9) Accurately ripped
7 | (9/9) Accurately ripped
8 | (9/9) Accurately ripped
9 | (9/9) Accurately ripped
10 | (9/9) Accurately ripped
[AccurateRip ID: 0013dca8-009c9aa0-820b960a] found.
Track [ CRC | V2 ] Status
01 [1082619c|359583d1] (0+5/5) Accurately ripped
02 [990a6043|f6d8d46c] (0+5/5) Accurately ripped
03 [d079d3e0|e67e324e] (0+5/5) Accurately ripped
04 [24ca9a35|d401217d] (0+5/5) Accurately ripped
05 [dcd03f82|a3b57374] (0+5/5) Accurately ripped
06 [90dd4396|8ee2b0a2] (0+5/5) Accurately ripped
07 [66912ecd|c04d731b] (0+5/5) Accurately ripped
08 [61c7474d|40f7a4a9] (0+5/5) Accurately ripped
09 [8139a9a1|18cbb564] (0+5/5) Accurately ripped
10 [4ec7f88d|71fcb432] (0+5/5) Accurately ripped

Track Peak [ CRC32 ] [W/O NULL] [ LOG ]
– 98,6 [267F9EB9] [C5A41267]
01 98,6 [0A85D1FB] [BA12800C] CRC32
02 98,4 [12702952] [F87EFDD4] CRC32
03 97,2 [84D3DD10] [917A2CFC] CRC32
04 98,4 [6BC30FE7] [8C93E70E] CRC32
05 98,4 [2700FCAD] [14FF8F64] CRC32
06 98,5 [EBFECD01] [F398EB43] CRC32
07 98,4 [026506E3] [76B3CA2E] CRC32
08 98,5 [606A1B33] [5B395278] CRC32
09 98,4 [EBB28FE4] [466F863D] CRC32
10 98,4 [98B83863] [E65F5D97] CRC32

Govi - 8 Studio Albums (1988-2015)

Govi - Pure At Heart (2013)
EAC Rip | FLAC (tracks+.cue+log) - 271 MB | MP3 CBR 320 kbps (LAME 3.93) - 119 MB | Covers - 86 MB
Genre: New Age, New Flamenco, World Fusion | RAR 3% Rec. | Label: Govi Music (08485-42664-4-7)

Tracklist:
01. Thief Of Hearts
02. Samba Corazon
03. Smooth Glider
04. State Of Grace
05. Anjuna Sunset
06. Danza De Luna
07. The Thought Of You
08. Sway And Play
09. Ginger Blossoms
10. Kon Tiki

Total time: 50:44

Exact Audio Copy V1.0 beta 3 from 29. August 2011

EAC extraction logfile from 25. July 2013, 22:59

Govi / Pure At Heart

Used drive : PLEXTOR DVDR PX-760A Adapter: 0 ID: 1

Read mode : Secure
Utilize accurate stream : Yes
Defeat audio cache : Yes
Make use of C2 pointers : No

Read offset correction : 30
Overread into Lead-In and Lead-Out : Yes
Fill up missing offset samples with silence : Yes
Delete leading and trailing silent blocks : No
Null samples used in CRC calculations : Yes
Used interface : Installed external ASPI interface
Gap handling : Appended to previous track

Used output format : User Defined Encoder
Selected bitrate : 1024 kBit/s
Quality : High
Add ID3 tag : No
Command line compressor : C:\Program Files (x86)\Exact Audio Copy\Flac\flac.exe
Additional command line options : -8 -V -T "ARTIST=%artist%" -T "TITLE=%title%" -T "ALBUM=%albumtitle%" -T "DATE=%year%" -T "TRACKNUMBER=%tracknr%" -T "GENRE=%genre%" -T "COMMENT=ripped by DrStandBy" %source%


TOC of the extracted CD

Track | Start | Length | Start sector | End sector
––––––––––––––––––––––––––––-
1 | 0:00.00 | 4:39.03 | 0 | 20927
2 | 4:39.03 | 5:19.18 | 20928 | 44870
3 | 9:58.21 | 5:30.00 | 44871 | 69620
4 | 15:28.21 | 5:31.52 | 69621 | 94497
5 | 20:59.73 | 5:26.62 | 94498 | 119009
6 | 26:26.60 | 5:01.40 | 119010 | 141624
7 | 31:28.25 | 4:38.03 | 141625 | 162477
8 | 36:06.28 | 4:09.27 | 162478 | 181179
9 | 40:15.55 | 5:22.74 | 181180 | 205403
10 | 45:38.54 | 5:05.21 | 205404 | 228299


Track 1

Filename E:\New Age\GOVI\2013 - Pure At Heart (08485-42664-4-7)\01. Govi - Thief Of Hearts.wav

Pre-gap length 0:00:02.00

Peak level 99.1 %
Extraction speed 2.2 X
Track quality 100.0 %
Test CRC 65F51640
Copy CRC 65F51640
Track not present in AccurateRip database
Copy OK

Track 2

Filename E:\New Age\GOVI\2013 - Pure At Heart (08485-42664-4-7)\02. Govi - Samba Corazon.wav

Pre-gap length 0:00:01.41

Peak level 98.9 %
Extraction speed 2.2 X
Track quality 100.0 %
Test CRC B677BB59
Copy CRC B677BB59
Track not present in AccurateRip database
Copy OK

Track 3

Filename E:\New Age\GOVI\2013 - Pure At Heart (08485-42664-4-7)\03. Govi - Smooth Glider.wav

Pre-gap length 0:00:01.42

Peak level 97.2 %
Extraction speed 1.7 X
Track quality 99.9 %
Test CRC 14B42ECF
Copy CRC 14B42ECF
Track not present in AccurateRip database
Copy OK

Track 4

Filename E:\New Age\GOVI\2013 - Pure At Heart (08485-42664-4-7)\04. Govi - State Of Grace.wav

Pre-gap length 0:00:01.29

Peak level 98.9 %
Extraction speed 1.7 X
Track quality 99.9 %
Test CRC 980D8589
Copy CRC 980D8589
Track not present in AccurateRip database
Copy OK

Track 5

Filename E:\New Age\GOVI\2013 - Pure At Heart (08485-42664-4-7)\05. Govi - Anjuna Sunset.wav

Peak level 98.9 %
Extraction speed 2.2 X
Track quality 100.0 %
Test CRC E2F78609
Copy CRC E2F78609
Track not present in AccurateRip database
Copy OK

Track 6

Filename E:\New Age\GOVI\2013 - Pure At Heart (08485-42664-4-7)\06. Govi - Danza De Luna.wav

Pre-gap length 0:00:01.38

Peak level 98.9 %
Extraction speed 2.2 X
Track quality 100.0 %
Test CRC 954EDD8F
Copy CRC 954EDD8F
Track not present in AccurateRip database
Copy OK

Track 7

Filename E:\New Age\GOVI\2013 - Pure At Heart (08485-42664-4-7)\07. Govi - The Thought Of You.wav

Pre-gap length 0:00:01.03

Peak level 98.9 %
Extraction speed 2.2 X
Track quality 100.0 %
Test CRC 7103E925
Copy CRC 7103E925
Track not present in AccurateRip database
Copy OK

Track 8

Filename E:\New Age\GOVI\2013 - Pure At Heart (08485-42664-4-7)\08. Govi - Sway And Play.wav

Pre-gap length 0:00:01.44

Peak level 98.8 %
Extraction speed 2.1 X
Track quality 100.0 %
Test CRC 60596AA8
Copy CRC 60596AA8
Track not present in AccurateRip database
Copy OK

Track 9

Filename E:\New Age\GOVI\2013 - Pure At Heart (08485-42664-4-7)\09. Govi - Ginger Blossoms.wav

Pre-gap length 0:00:01.56

Peak level 99.2 %
Extraction speed 2.2 X
Track quality 100.0 %
Test CRC B8945615
Copy CRC B8945615
Track not present in AccurateRip database
Copy OK

Track 10

Filename E:\New Age\GOVI\2013 - Pure At Heart (08485-42664-4-7)\10. Govi - Kon Tiki.wav

Pre-gap length 0:00:01.07

Peak level 98.9 %
Extraction speed 2.4 X
Track quality 100.0 %
Test CRC 2D9E9EEF
Copy CRC 2D9E9EEF
Track not present in AccurateRip database
Copy OK


None of the tracks are present in the AccurateRip database

No errors occurred

End of status report

–– CUETools DB Plugin V2.1.4

[CTDB TOCID: Ykc2wzf0x3rpJiz3v1_Gw7_NSDY-] disk not present in database
Submit result: Ykc2wzf0x3rpJiz3v1_Gw7_NSDY- has been uploaded


==== Log checksum EC7DB47C6C44E4244028E73DD63F380C0335448B01EE5EE23FA5A824B36586CB ====

[CUETools log; Date: 01.06.2021 10:06:40; Version: 2.1.4]
[CTDB TOCID: Ykc2wzf0x3rpJiz3v1_Gw7_NSDY-] found.
Track | CTDB Status
1 | (7/7) Accurately ripped
2 | (7/7) Accurately ripped
3 | (7/7) Accurately ripped
4 | (7/7) Accurately ripped
5 | (7/7) Accurately ripped
6 | (7/7) Accurately ripped
7 | (7/7) Accurately ripped
8 | (7/7) Accurately ripped
9 | (7/7) Accurately ripped
10 | (7/7) Accurately ripped
[AccurateRip ID: 001358cb-009a8d17-7d0be40a] found.
Track [ CRC | V2 ] Status
01 [f3c8a3a1|f548bbea] (0+5/5) Accurately ripped
02 [735ea1dc|ab9501d1] (0+5/5) Accurately ripped
03 [4a687e77|297bd2d0] (0+5/5) Accurately ripped
04 [128f8526|bce28cb6] (0+5/5) Accurately ripped
05 [739aa045|78999a3a] (0+5/5) Accurately ripped
06 [15c36aab|98100c07] (0+5/5) Accurately ripped
07 [14ad3deb|164a5823] (0+5/5) Accurately ripped
08 [974b756f|2eeb8fde] (0+5/5) Accurately ripped
09 [6ef3d75a|9953d2bf] (0+5/5) Accurately ripped
10 [ff8c3140|1a7c3f9f] (0+5/5) Accurately ripped

Track Peak [ CRC32 ] [W/O NULL] [ LOG ]
– 99,2 [0DFF3601] [E9CA7B1E]
01 99,1 [65F51640] [F1FAE9C2] CRC32
02 98,9 [B677BB59] [F9F4640C] CRC32
03 97,2 [14B42ECF] [00156CB1] CRC32
04 98,9 [980D8589] [B36AD0B3] CRC32
05 98,9 [E2F78609] [C1125747] CRC32
06 98,9 [954EDD8F] [D94A0A51] CRC32
07 98,9 [7103E925] [3A22F901] CRC32
08 98,8 [60596AA8] [16DA0D0D] CRC32
09 99,2 [B8945615] [59DDD544] CRC32
10 98,9 [2D9E9EEF] [CB8A8775] CRC32

Govi - 8 Studio Albums (1988-2015)

Govi - The High Road (2015)
EAC Rip | FLAC (tracks+.cue+log) - 300 MB | MP3 CBR 320 kbps (LAME 3.93) - 122 MB | Covers - 183 MB
Genre: New Age, New Flamenco, World Fusion | RAR 3% Rec. | Label: Govi Music (88883-18737-1-6)

Tracklist:
01. Passage to Paradise
02. The High Road
03. Almeria
04. Cabriolet
05. Jugalbandi
06. Ever Blue Sky
07. Strat Your Stuff
08. Kites in the Sky
09. Glowing Embers
10. Peruvian Joy

Total time: 51:59

Exact Audio Copy V1.0 beta 3 from 29. August 2011

EAC extraction logfile from 7. August 2015, 20:20

Govi / The High Road

Used drive : ASUS DRW-24F1ST a Adapter: 2 ID: 0

Read mode : Secure
Utilize accurate stream : Yes
Defeat audio cache : Yes
Make use of C2 pointers : No

Read offset correction : 6
Overread into Lead-In and Lead-Out : No
Fill up missing offset samples with silence : Yes
Delete leading and trailing silent blocks : No
Null samples used in CRC calculations : Yes
Used interface : Native Win32 interface for Win NT & 2000
Gap handling : Appended to previous track

Used output format : User Defined Encoder
Selected bitrate : 1024 kBit/s
Quality : High
Add ID3 tag : No
Command line compressor : C:\Program Files (x86)\Exact Audio Copy\Flac\flac.exe
Additional command line options : -8 -V -T "COMMENT=ripped by DrStandBy special for new-team.org" -T "ARTIST=%artist%" -T "TITLE=%title%" -T "ALBUM=%albumtitle%" -T "DATE=%year%" -T "TRACKNUMBER=%tracknr%" -T "GENRE=%genre%" %source%


TOC of the extracted CD

Track | Start | Length | Start sector | End sector
––––––––––––––––––––––––––––-
1 | 0:00.00 | 5:56.43 | 0 | 26742
2 | 5:56.43 | 4:35.33 | 26743 | 47400
3 | 10:32.01 | 5:37.29 | 47401 | 72704
4 | 16:09.30 | 5:19.73 | 72705 | 96702
5 | 21:29.28 | 5:33.19 | 96703 | 121696
6 | 27:02.47 | 4:44.38 | 121697 | 143034
7 | 31:47.10 | 4:17.40 | 143035 | 162349
8 | 36:04.50 | 4:38.06 | 162350 | 183205
9 | 40:42.56 | 6:14.01 | 183206 | 211256
10 | 46:56.57 | 5:02.55 | 211257 | 233961


Track 1

Filename I:\Govi\2015 - The High Road (88883-18737-1-6)\01. Govi - Passage to Paradise.wav

Pre-gap length 0:00:02.00

Peak level 99.9 %
Extraction speed 1.8 X
Track quality 99.9 %
Test CRC ED6D940E
Copy CRC ED6D940E
Track not present in AccurateRip database
Copy OK

Track 2

Filename I:\Govi\2015 - The High Road (88883-18737-1-6)\02. Govi - The High Road.wav

Peak level 99.7 %
Extraction speed 2.2 X
Track quality 100.0 %
Test CRC 7E4E55A8
Copy CRC 7E4E55A8
Track not present in AccurateRip database
Copy OK

Track 3

Filename I:\Govi\2015 - The High Road (88883-18737-1-6)\03. Govi - Almeria.wav

Peak level 100.0 %
Extraction speed 2.4 X
Track quality 100.0 %
Test CRC 39E23132
Copy CRC 39E23132
Track not present in AccurateRip database
Copy OK

Track 4

Filename I:\Govi\2015 - The High Road (88883-18737-1-6)\04. Govi - Cabriolet.wav

Peak level 99.5 %
Extraction speed 2.6 X
Track quality 100.0 %
Test CRC D112FA92
Copy CRC D112FA92
Track not present in AccurateRip database
Copy OK

Track 5

Filename I:\Govi\2015 - The High Road (88883-18737-1-6)\05. Govi - Jugalbandi.wav

Peak level 99.9 %
Extraction speed 2.8 X
Track quality 100.0 %
Test CRC 4DC73714
Copy CRC 4DC73714
Track not present in AccurateRip database
Copy OK

Track 6

Filename I:\Govi\2015 - The High Road (88883-18737-1-6)\06. Govi - Ever Blue Sky.wav

Peak level 100.0 %
Extraction speed 2.4 X
Track quality 99.9 %
Test CRC 264F5A14
Copy CRC 264F5A14
Track not present in AccurateRip database
Copy OK

Track 7

Filename I:\Govi\2015 - The High Road (88883-18737-1-6)\07. Govi - Strat Your Stuff.wav

Peak level 99.3 %
Extraction speed 3.1 X
Track quality 100.0 %
Test CRC 52FD6F36
Copy CRC 52FD6F36
Track not present in AccurateRip database
Copy OK

Track 8

Filename I:\Govi\2015 - The High Road (88883-18737-1-6)\08. Govi - Kites in the Sky.wav

Peak level 99.9 %
Extraction speed 3.2 X
Track quality 100.0 %
Test CRC 92567DCF
Copy CRC 92567DCF
Track not present in AccurateRip database
Copy OK

Track 9

Filename I:\Govi\2015 - The High Road (88883-18737-1-6)\09. Govi - Glowing Embers.wav

Peak level 99.2 %
Extraction speed 3.5 X
Track quality 100.0 %
Test CRC 25C5A58E
Copy CRC 25C5A58E
Track not present in AccurateRip database
Copy OK

Track 10

Filename I:\Govi\2015 - The High Road (88883-18737-1-6)\10. Govi - Peruvian Joy.wav

Peak level 99.5 %
Extraction speed 3.5 X
Track quality 100.0 %
Test CRC 3F58EB35
Copy CRC 3F58EB35
Track not present in AccurateRip database
Copy OK


None of the tracks are present in the AccurateRip database

No errors occurred

End of status report

–– CUETools DB Plugin V2.1.6

[CTDB TOCID: 2U9jb.1JxgcdaJp8XrqWK99hMh8-] found
Submit result: 2U9jb.1JxgcdaJp8XrqWK99hMh8- has been confirmed
Track | CTDB Status
1 | (1/1) Accurately ripped
2 | (1/1) Accurately ripped
3 | (1/1) Accurately ripped
4 | (1/1) Accurately ripped
5 | (1/1) Accurately ripped
6 | (1/1) Accurately ripped
7 | (1/1) Accurately ripped
8 | (1/1) Accurately ripped
9 | (1/1) Accurately ripped
10 | (1/1) Accurately ripped


==== Log checksum DCA1CB96C303D4EEF17ACEAC895879336957AC9CE46F169DF9E1464926FED9C5 ====

[CUETools log; Date: 01.06.2021 10:07:18; Version: 2.1.4]
[CTDB TOCID: 2U9jb.1JxgcdaJp8XrqWK99hMh8-] found.
Track | CTDB Status
1 | (7/7) Accurately ripped
2 | (7/7) Accurately ripped
3 | (7/7) Accurately ripped
4 | (7/7) Accurately ripped
5 | (7/7) Accurately ripped
6 | (7/7) Accurately ripped
7 | (7/7) Accurately ripped
8 | (7/7) Accurately ripped
9 | (7/7) Accurately ripped
10 | (7/7) Accurately ripped
[AccurateRip ID: 0013d273-009db41a-8d0c2f0a] found.
Track [ CRC | V2 ] Status
01 [1133034f|7829f4d6] (0+4/4) Accurately ripped
02 [cd179cda|81748043] (0+4/4) Accurately ripped
03 [21bf9f66|29ab8f6e] (0+4/4) Accurately ripped
04 [4bd36adc|eae17aea] (0+4/4) Accurately ripped
05 [9d5a0228|95fdccac] (0+4/4) Accurately ripped
06 [1c086a31|2206a66a] (0+4/4) Accurately ripped
07 [cf9d0237|6cb1f30d] (0+4/4) Accurately ripped
08 [821cb217|5b717c5c] (0+4/4) Accurately ripped
09 [9037066f|ef8ecfbc] (0+4/4) Accurately ripped
10 [4b64c2be|9ae78e02] (0+4/4) Accurately ripped

Track Peak [ CRC32 ] [W/O NULL] [ LOG ]
– 100,0 [3D4AFB12] [5F1B1B47]
01 99,9 [ED6D940E] [24CE0CD5] CRC32
02 99,7 [7E4E55A8] [C004E635] CRC32
03 100,0 [39E23132] [6D150D23] CRC32
04 99,5 [D112FA92] [0044A19E] CRC32
05 99,9 [4DC73714] [984A8B22] CRC32
06 100,0 [264F5A14] [F8483B8B] CRC32
07 99,2 [52FD6F36] [0E7E2695] CRC32
08 99,9 [92567DCF] [61D7B7D5] CRC32
09 99,2 [25C5A58E] [6E479C2E] CRC32
10 99,5 [3F58EB35] [438C5921] CRC32

Thanks to DrStandBy