Tags
Language
Tags

Joe Henry - The Gospel According To Water (2019)

Posted By: popsakov
Joe Henry - The Gospel According To Water (2019)

Joe Henry - The Gospel According To Water (2019)
EAC Rip | FLAC (Tracks) + Cue + m3u8 + Log ~ 309 Mb | MP3 CBR320 ~ 130 Mb
Full Scans ~ 132 Mb | 00:53:54 | RAR 5% Recovery
Folk Rock / Alternative Rock / Indie Rock / Alternative Country / Americana / Singer-Songwriter
Worksong / Ear Music / Edel Family Member #0214432EMU

Art is often informed by the life experiences of the artist, and what happens to them can impact their work in any number of ways. In November 2018, the singer and songwriter Joe Henry was diagnosed with prostate cancer, and as he wrestled with the prospect of mortality and the physically and emotionally taxing process of treatment, he practiced his own form of self-care – he wrote songs, a bunch of them, and then set about recording them at the home studio of a friend and collaborator, recording engineer S. Husky Höskulds. The product of these sessions, 2019's The Gospel According to Water, in many respects sounds like an ordinary Joe Henry album, with his rich voice and smartly crafted lyrics front and center, but the feel is decidedly different. Henry is nearly as well known as a producer as he is as a performer, and in the studio he strikes a fair balance between inspiration and technique. The Gospel According to Water, however, is slightly rough around the edges, the performances sounding committed yet enough in the moment that the occasional flubs are part of the presentation. There's a grain in Levon Henry's reeds that is powerfully effective but also doesn't sound the way a professional session player might. This is music that's languid and thoughtful, yet also possessed of a certain urgency; cut in just two days, these are songs from a man who has learned a bit about the value of time, and while that hasn't made him rush the work, he clearly wants to say his piece while he is able. Henry doesn't obsess over death and dying in these songs, but they wrestle with notions of love and faith with a gravity that's unforced but clearly audible. Initially Henry recorded the material on The Gospel According to Water as demos, wanting to get them down on tape in some form while they were still fresh in his mind, and he was absolutely right to release them in this form rather than giving them a more polished reworking. Though this isn't the cleanest and tidiest album of his career, the emotional honesty of this material is striking, and this is some of the boldest and most inspiring work of Joe Henry's career. Henry was in remission by the time The Gospel According to Water was released, but one can only hope the lessons he learned will continue to be reflected in his future work.

~ Mark Deming, All Music

***************

Track List:

01. Famine Walk [4:58]
02. The Gospel According to Water [6:10]
03. Mule [3:44]
04. Orson Welles [5:44]
05. Green of the Afternoon [4:18]
06. In Time for Tomorrow [3:42]
07. The Fact of Love [4:31]
08. Book of Common Prayer [3:30]
09. Bloom [3:38]
10. Gates of Prayer Cemetery # 2 [2:50]
11. Salt and Sugar [4:47]
12. General Tzu Names the Planets for His Children [3:13]
13. Choir Boy [2:49]

Personnel:
Joe Henry - vocals, acoustic and electric guitar
Levon Henry - tenor saxophone and B-flat clarinet
John Smith - acoustic guitar
Patrick Warren - upright piano and additional keys

Special Guests:
David Piltch - electric bass on “Book of Common Prayer”
Allison Russell and JT Nero (Birds of Chicago) - backing vocals on “In Time for Tomorrow” and “The Fact of Love”

Exact Audio Copy V1.3 from 2. September 2016

EAC extraction logfile from 24. November 2019, 1:32

Joe Henry / The Gospel According to Water

Used drive : ASUS BW-12D1S-U Adapter: 1 ID: 1

Read mode : Secure
Utilize accurate stream : Yes
Defeat audio cache : Yes
Make use of C2 pointers : No

Read offset correction : 667
Overread into Lead-In and Lead-Out : No
Fill up missing offset samples with silence : Yes
Delete leading and trailing silent blocks : No
Null samples used in CRC calculations : Yes
Used interface : Native Win32 interface for Win NT & 2000
Gap handling : Appended to previous track

Used output format : User Defined Encoder
Selected bitrate : 1024 kBit/s
Quality : High
Add ID3 tag : No
Command line compressor : C:\Program Files (x86)\Exact Audio Copy\FLAC\FLAC.EXE
Additional command line options : -V -8 -T "Genre=%genre%" -T "Artist=%artist%" -T "Title=%title%" -T "Album=%albumtitle%" -T "Date=%year%" -T "Tracknumber=%tracknr%" -T "Comment=%comment%" %source%


TOC of the extracted CD

Track | Start | Length | Start sector | End sector
––––––––––––––––––––––––––––-
1 | 0:00.00 | 4:58.24 | 0 | 22373
2 | 4:58.24 | 6:10.29 | 22374 | 50152
3 | 11:08.53 | 3:43.54 | 50153 | 66931
4 | 14:52.32 | 5:43.57 | 66932 | 92713
5 | 20:36.14 | 4:17.72 | 92714 | 112060
6 | 24:54.11 | 3:41.51 | 112061 | 128686
7 | 28:35.62 | 4:30.49 | 128687 | 148985
8 | 33:06.36 | 3:30.14 | 148986 | 164749
9 | 36:36.50 | 3:38.34 | 164750 | 181133
10 | 40:15.09 | 2:50.05 | 181134 | 193888
11 | 43:05.14 | 4:47.07 | 193889 | 215420
12 | 47:52.21 | 3:12.57 | 215421 | 229877
13 | 51:05.03 | 2:48.68 | 229878 | 242545


Track 1

Filename F:\Torrents of Autumn\Henry, Joe [2019] The Gospel According to Water\01. Famine Walk.wav

Pre-gap length 0:00:02.00

Peak level 90.0 %
Extraction speed 4.7 X
Track quality 100.0 %
Test CRC 136E2A68
Copy CRC 136E2A68
Track not present in AccurateRip database
Copy OK

Track 2

Filename F:\Torrents of Autumn\Henry, Joe [2019] The Gospel According to Water\02. The Gospel According to Water.wav

Peak level 90.0 %
Extraction speed 5.5 X
Track quality 100.0 %
Test CRC C2A7C2B5
Copy CRC C2A7C2B5
Track not present in AccurateRip database
Copy OK

Track 3

Filename F:\Torrents of Autumn\Henry, Joe [2019] The Gospel According to Water\03. Mule.wav

Peak level 90.0 %
Extraction speed 5.6 X
Track quality 100.0 %
Test CRC 9DEAD0C9
Copy CRC 9DEAD0C9
Track not present in AccurateRip database
Copy OK

Track 4

Filename F:\Torrents of Autumn\Henry, Joe [2019] The Gospel According to Water\04. Orson Welles.wav

Peak level 90.0 %
Extraction speed 6.3 X
Track quality 100.0 %
Test CRC 72045060
Copy CRC 72045060
Track not present in AccurateRip database
Copy OK

Track 5

Filename F:\Torrents of Autumn\Henry, Joe [2019] The Gospel According to Water\05. Green of the Afternoon.wav

Peak level 90.0 %
Extraction speed 5.8 X
Track quality 99.9 %
Test CRC 29997125
Copy CRC 29997125
Track not present in AccurateRip database
Copy OK

Track 6

Filename F:\Torrents of Autumn\Henry, Joe [2019] The Gospel According to Water\06. In Time for Tomorrow.wav

Peak level 90.0 %
Extraction speed 6.6 X
Track quality 100.0 %
Test CRC 0F1420C4
Copy CRC 0F1420C4
Track not present in AccurateRip database
Copy OK

Track 7

Filename F:\Torrents of Autumn\Henry, Joe [2019] The Gospel According to Water\07. The Fact of Love.wav

Peak level 90.0 %
Extraction speed 7.1 X
Track quality 100.0 %
Test CRC EF07F3ED
Copy CRC EF07F3ED
Track not present in AccurateRip database
Copy OK

Track 8

Filename F:\Torrents of Autumn\Henry, Joe [2019] The Gospel According to Water\08. Book of Common Prayer.wav

Peak level 90.0 %
Extraction speed 7.1 X
Track quality 100.0 %
Test CRC D8ACCEA3
Copy CRC D8ACCEA3
Track not present in AccurateRip database
Copy OK

Track 9

Filename F:\Torrents of Autumn\Henry, Joe [2019] The Gospel According to Water\09. Bloom.wav

Peak level 90.0 %
Extraction speed 6.5 X
Track quality 99.9 %
Test CRC 3C1BAD9A
Copy CRC 3C1BAD9A
Track not present in AccurateRip database
Copy OK

Track 10

Filename F:\Torrents of Autumn\Henry, Joe [2019] The Gospel According to Water\10. Gates of Prayer Cemetery # 2.wav

Peak level 90.0 %
Extraction speed 7.1 X
Track quality 100.0 %
Test CRC F60745AD
Copy CRC F60745AD
Track not present in AccurateRip database
Copy OK

Track 11

Filename F:\Torrents of Autumn\Henry, Joe [2019] The Gospel According to Water\11. Salt and Sugar.wav

Peak level 90.0 %
Extraction speed 7.9 X
Track quality 100.0 %
Test CRC 013ECB2C
Copy CRC 013ECB2C
Track not present in AccurateRip database
Copy OK

Track 12

Filename F:\Torrents of Autumn\Henry, Joe [2019] The Gospel According to Water\12. General Tzu Names the Planets for His Children.wav

Peak level 90.0 %
Extraction speed 7.7 X
Track quality 100.0 %
Test CRC 2153918B
Copy CRC 2153918B
Track not present in AccurateRip database
Copy OK

Track 13

Filename F:\Torrents of Autumn\Henry, Joe [2019] The Gospel According to Water\13. Choir Boy.wav

Peak level 90.0 %
Extraction speed 7.6 X
Track quality 100.0 %
Test CRC 9BDD3E67
Copy CRC 9BDD3E67
Track not present in AccurateRip database
Copy OK


None of the tracks are present in the AccurateRip database

No errors occurred

End of status report

–– CUETools DB Plugin V2.1.6

[CTDB TOCID: xP9B5voo6a_3VwnFqTH_OpwLAi0-] disk not present in database
Submit result: xP9B5voo6a_3VwnFqTH_OpwLAi0- has been uploaded


==== Log checksum 1B38EFE8608863397CF8E5932BA707B6C1E34072DF8BACC52E2DC069B7BCE336 ====

All thanks go to DoobieBro

>>> My Blog <<<

DOWNLOAD: