Tags
Language
Tags

KISS - Destroyer (1976) [Japan (mini LP) 2006] Repost

Posted By: Andi_Deris
KISS - Destroyer (1976) [Japan (mini LP) 2006] Repost

KISS - Destroyer (1976) [Japan (mini LP) 2006]
EAC Rip | FLAC: Image+Cue+Log | MP3 CBR 320 kbps | Scans
231 Mb | 79 Mb | 25 Mb | Time: 34:30
Mercury/Universal Music K.K. | UICY-93095
Hard Rock, Heavy Metal, Glam

Destroyer is the fourth studio album by American rock band Kiss, released on March 15, 1976 by Casablanca Records in the US. It was the third successive Kiss album to reach the top 40 in the US, as well as the first to chart in Germany and New Zealand. The album was certified gold by the RIAA on April 22, 1976, and platinum on November 11 of the same year, the first Kiss album to achieve platinum. The album marked a departure from the raw sound of the band's first three albums.

KISS - Destroyer (1976) [Japan (mini LP) 2006] Repost




Track Listing

01. Detroit Rock City (05:18)
02. King Of The Night Time World (03:21)
03. God Of Thunder (04:17)
04. Great Expectations (04:25)
05. Flaming Youth (03:01)
06. Sweet Pain (03:22)
07. Shout It Out Loud (02:51)
08. Beth (02:50)
09. Do You Love Me? (03:41)
10. Rock And Roll Party (instrumental) (01:25)

Produced by Bob Ezrin

The Band

• Paul Stanley - vocals, rhythm guitar
• Gene Simmons - vocals, bass
• Ace Frehley - lead guitar, vocals
• Peter Criss - drums, percussion, vocals

*****
• Dick Wagner - guitar solo on "Sweet Pain" and "Flaming Youth", acoustic guitar on "Beth" and "Great Expectations"
• Brooklyn Boys Chorus - additional vocals on "Great Expectations"
• David and Josh Ezrin - voices on "God of Thunder"
• New York Philharmonic - Orchestra on "Beth"
• Bob Ezrin - orchestration, keyboards, piano on "Beth"

Notes

℗ 1976 The Island Def Jam Group
© 1976 Kiss Catalogue, Ltd.

Limited Edition, Reissue, Remastered, Papersleeve
Contains a replica inner sleeve replicating that of the original LP issue

"Rock and Roll Party" appears as a hidden track on the original vinyl pressing. It appears a few seconds after "Do You Love Me?".


Exact Audio Copy V1.1 from 23. June 2015

EAC extraction logfile from 6. November 2015, 22:19

Kiss / Destroyer (UICY-93095)

Used drive : PLEXTOR DVDR PX-891SA Adapter: 1 ID: 0

Read mode : Secure
Utilize accurate stream : Yes
Defeat audio cache : Yes
Make use of C2 pointers : No

Read offset correction : 6
Overread into Lead-In and Lead-Out : No
Fill up missing offset samples with silence : Yes
Delete leading and trailing silent blocks : No
Null samples used in CRC calculations : Yes
Used interface : Native Win32 interface for Win NT & 2000

Used output format : User Defined Encoder
Selected bitrate : 128 kBit/s
Quality : High
Add ID3 tag : No
Command line compressor : C:\Program Files (x86)\Exact Audio Copy\Flac\flac.exe
Additional command line options : -V -8 -T "Genre=%genre%" -T "Artist=%artist%" -T "Title=%title%" -T "Album=%albumtitle%" -T "Date=%year%" -T "Tracknumber=%tracknr%" -T "Comment=%comment%" %source%


TOC of the extracted CD

Track | Start | Length | Start sector | End sector
––––––––––––––––––––––––––––-
1 | 0:00.00 | 5:18.12 | 0 | 23861
2 | 5:18.12 | 3:21.03 | 23862 | 38939
3 | 8:39.15 | 4:17.15 | 38940 | 58229
4 | 12:56.30 | 4:24.37 | 58230 | 78066
5 | 17:20.67 | 3:00.45 | 78067 | 91611
6 | 20:21.37 | 3:21.38 | 91612 | 106724
7 | 23:43.00 | 2:50.67 | 106725 | 119541
8 | 26:33.67 | 2:49.45 | 119542 | 132261
9 | 29:23.37 | 3:40.35 | 132262 | 148796
10 | 33:03.72 | 1:25.25 | 148797 | 155196


Range status and errors

Selected range

Filename H:\dafnaplus\Kiss\1976 - Destroyer\Kiss - Destroyer (UICY-93095).wav

Peak level 100.0 %
Extraction speed 2.7 X
Range quality 100.0 %
Test CRC D78949B4
Copy CRC D78949B4
Copy OK

No errors occurred


AccurateRip summary

Track 1 accurately ripped (confidence 9) [8387199D] (AR v2)
Track 2 accurately ripped (confidence 8) [048096AE] (AR v2)
Track 3 accurately ripped (confidence 9) [3167EF01] (AR v2)
Track 4 accurately ripped (confidence 8) [DB51FEA5] (AR v2)
Track 5 accurately ripped (confidence 9) [52E8C5B4] (AR v2)
Track 6 accurately ripped (confidence 8) [23C530D5] (AR v2)
Track 7 accurately ripped (confidence 9) [B84B3329] (AR v2)
Track 8 accurately ripped (confidence 9) [071B9966] (AR v2)
Track 9 accurately ripped (confidence 9) [D416E8D9] (AR v2)
Track 10 accurately ripped (confidence 6) [178A07CC] (AR v2)

All tracks accurately ripped

End of status report

–– CUETools DB Plugin V2.1.6

[CTDB TOCID: jUThsY7Yf_ZFc90GBdhukrkogcg-] found
Submit result: jUThsY7Yf_ZFc90GBdhukrkogcg- has been confirmed
Track | CTDB Status
1 | (4/6) Accurately ripped
2 | (4/6) Accurately ripped
3 | (4/6) Accurately ripped
4 | (4/6) Accurately ripped
5 | (4/6) Accurately ripped
6 | (4/6) Accurately ripped
7 | (4/6) Accurately ripped
8 | (4/6) Accurately ripped
9 | (4/6) Accurately ripped
10 | (4/6) Accurately ripped


==== Log checksum 0BE5E88D0E99D99E36CE166A3159E0FF5E08A672D4C36269C57F287367518199 ====


Many thanks to the original uploader: dafnaplus





Password: pass