Tags
Language
Tags

Michael Kamen, Eric Clapton and David Sanborn - Lethal Weapon: Soundtrack Collection 1987-1998 (2013) 8CD Box Set

Posted By: Efgrapha
Michael Kamen, Eric Clapton and David Sanborn - Lethal Weapon: Soundtrack Collection 1987-1998 (2013) 8CD Box Set

Lethal Weapon: Soundtrack Collection 1987-1998 (2013) 8CD Limited Edition Box Set
Music by Michael Kamen, Eric Clapton and David Sanborn

EAC | FLAC (Image) + cue.+log ~ 2.42 Gb | Mp3, CBR320 kbps ~ 1 Gb | Scans ~ 43 Mb
Label: La-La-Land Records | # LLLCD 1287 | Time: 07:51:18
Soundtrack, Score, Orchestral, Rock, Jazz, Blues

La-La Land Records, Warner Bros. and WEA celebrate Warner Bros.' 90th Anniversary, with the LETHAL WEAPON SOUNDTRACK COLLECTION - an 8-CD BOX SET featuring Michael Kamen, Eric Clapton, and David Sanborn's iconic film scores from all four LETHAL WEAPON films. Each LETHAL WEAPON score is contained in its own 2-CD jewel case, and all four scores, along with a 40-Page booklet, are housed in an attractive slip case.

Finally, some of the greatest action film music ever composed — from the most celebrated cop-action saga of all time — is presented here in a deluxe presentation worthy of their legacy. The scores to LETHAL WEAPON 1-3 have been greatly expanded beyond their original soundtrack album presentations (the original soundtrack assemblies are remastered and presented as well.) and the score from LETHAL WEAPON 4 makes its world premiere with this set. A bounty of previously unreleased score music is featured here, literally hours worth, along with bonus score tracks and knockout songs from the likes of Sting, Elton John, George Harrison, The Beach Boys and more — not to mention the Bobby Helms rendition of "Jingle Bell Rock," which opens the original LETHAL WEAPON!

Produced by Neil S. Bulk and MV Gerhard and mastered by James Nelson from WB vault materials, this amazing release, limited to 3000 Units, features a 40 Page booklet with exclusive liners by film music writer Jeff Bond, with new comments from director Richard Donner, and explosive art design by Jim Titus. Once you dig into this sensational set, we know you'll agree with us when it comes to Michael Kamen and LETHAL WEAPON, you'll never get "too old for this sh#*!"

Michael Kamen, Eric Clapton and David Sanborn - Lethal Weapon: Soundtrack Collection 1987-1998 (2013) 8CD Box Set

Michael Kamen, Eric Clapton and David Sanborn - Lethal Weapon: Soundtrack Collection 1987-1998 (2013) 8CD Box Set


Michael Kamen:

Biography > Wikipedia > Website

Eric Clapton:

Biography > Wikipedia > Website

David Sanborn

Biography > Wikipedia > Website





Michael Kamen, Eric Clapton and David Sanborn - Lethal Weapon: Soundtrack Collection 1987-1998 (2013) 8CD Box Set

Lethal Weapon: Original Motion Picture Soundtrack (1987) 2CD Limited Edition 2013
Music by Michael Kamen and Eric Clapton

EAC | FLAC | Image (Cue&Log) ~ 641 Mb | Mp3 (CBR320) ~ 278 Mb
Label: La-La-Land | # LLLCD 1287 | Time: 01:58:36 | Scans included


Michael Kamen, Eric Clapton and David Sanborn - Lethal Weapon: Soundtrack Collection 1987-1998 (2013) 8CD Box Set


Tracklist:

CD1:

01. Bobby Helms - Jingle Bell Rock (02:04)
02. Amanda (03:46)
03. Meeting Martin Riggs / Roger's Daughter (01:22)
04. She Just Dove (01:04)
05. Coke Deal (02:00)
06. Suicide (02:27)
07. Meet Your New Partner (02:37)
08. Burning Joshua (00:53)
09. The Jumper (04:52)
10. Rog And Riggs Confront (01:34)
11. Drive To Dealer's House (02:44)
12. Dealer's House / Swimming Pool (03:04)
13. Took A Lot Of Guts / Riggs' Soliloquy (01:38)
14. Porno Tape (01:21)
15. Firing Range (01:34)
16. Dixie's House / Alfred (02:12)
17. The Hunsacker Story (03:05)
18. Helicopter / Riggs Walks To Tart (01:48)
19. Riggs Gets Shot (01:02)
20. They've Got My Daughter / Is Riggs Dead? Or What? (02:33)
21. The Desert (08:58)
22. Hummingbird Treatment / Riggs Escapes (04:51)
23. We're Leaving (04:13)
24. General's Car (01:43)
25. S.O.B. Knows Where I Live (01:19)
26. Yard Fight / Graveside (05:56)

CD2:

01. Honeymoon Suite - Lethal Weapon (02:41)
02. Amanda (03:07)
03. Meet Martin Riggs (05:22)
04. Roger (04:00)
05. Coke Deal (04:15)
06. Mr. Joshua (04:05)
07. They've Got My Daughter (01:02)
08. The Desert (07:43)
09. Nightclub (03:38)
10. The Weapon (04:30)
11. Suicide (Original) (01:40)
12. Suicide (Alternate) (02:35)
13. Helicopter (Alternate) (01:41)
14. S.O.B. Knows Where I Live (Orchestra Only) (01:17)


Exact Audio Copy V1.0 beta 3 from 29. August 2011

EAC extraction logfile from 26. January 2014, 10:30

Michael Kamen & Eric Clapton / Lethal Weapon (Disc 1)

Used drive : TSSTcorpCDDVDW SH-S202H Adapter: 0 ID: 0

Read mode : Secure
Utilize accurate stream : Yes
Defeat audio cache : Yes
Make use of C2 pointers : No

Read offset correction : 6
Overread into Lead-In and Lead-Out : No
Fill up missing offset samples with silence : Yes
Delete leading and trailing silent blocks : No
Null samples used in CRC calculations : Yes
Used interface : Native Win32 interface for Win NT & 2000

Used output format : Internal WAV Routines
Sample format : 44.100 Hz; 16 Bit; Stereo


TOC of the extracted CD

Track | Start | Length | Start sector | End sector
––––––––––––––––––––––––––––-
1 | 0:00.00 | 2:04.60 | 0 | 9359
2 | 2:04.60 | 3:46.14 | 9360 | 26323
3 | 5:50.74 | 1:22.26 | 26324 | 32499
4 | 7:13.25 | 1:04.66 | 32500 | 37365
5 | 8:18.16 | 2:00.53 | 37366 | 46418
6 | 10:18.69 | 2:27.64 | 46419 | 57507
7 | 12:46.58 | 2:37.30 | 57508 | 69312
8 | 15:24.13 | 0:53.35 | 69313 | 73322
9 | 16:17.48 | 4:52.68 | 73323 | 95290
10 | 21:10.41 | 1:34.71 | 95291 | 102411
11 | 22:45.37 | 2:44.50 | 102412 | 114761
12 | 25:30.12 | 3:04.51 | 114762 | 128612
13 | 28:34.63 | 1:38.12 | 128613 | 135974
14 | 30:13.00 | 1:21.48 | 135975 | 142097
15 | 31:34.48 | 1:34.63 | 142098 | 149210
16 | 33:09.36 | 2:12.03 | 149211 | 159113
17 | 35:21.39 | 3:05.18 | 159114 | 173006
18 | 38:26.57 | 1:48.53 | 173007 | 181159
19 | 40:15.35 | 1:02.18 | 181160 | 185827
20 | 41:17.53 | 2:33.29 | 185828 | 197331
21 | 43:51.07 | 8:58.29 | 197332 | 237710
22 | 52:49.36 | 4:51.05 | 237711 | 259540
23 | 57:40.41 | 4:13.35 | 259541 | 278550
24 | 61:54.01 | 1:43.59 | 278551 | 286334
25 | 63:37.60 | 1:19.30 | 286335 | 292289
26 | 64:57.15 | 5:56.51 | 292290 | 319040


Range status and errors

Selected range

Filename D:\Michael Kamen & Eric Clapton - Lethal Weapon\Michael Kamen & Eric Clapton - Lethal Weapon (Disc 1).wav

Peak level 99.9 %
Extraction speed 3.3 X
Range quality 100.0 %
Test CRC D5EC19D9
Copy CRC D5EC19D9
Copy OK

No errors occurred


AccurateRip summary

Track 1 accurately ripped (confidence 1) [FE08B8CC] (AR v2)
Track 2 accurately ripped (confidence 1) [200CB08D] (AR v2)
Track 3 accurately ripped (confidence 1) [4CD4C3BA] (AR v2)
Track 4 accurately ripped (confidence 1) [79E5FEEA] (AR v2)
Track 5 accurately ripped (confidence 1) [9F7BE568] (AR v2)
Track 6 accurately ripped (confidence 1) [A7B4C0C0] (AR v2)
Track 7 accurately ripped (confidence 1) [42BDC62A] (AR v2)
Track 8 accurately ripped (confidence 1) [84B0A539] (AR v2)
Track 9 accurately ripped (confidence 1) [02EEE713] (AR v2)
Track 10 accurately ripped (confidence 1) [935C2043] (AR v2)
Track 11 accurately ripped (confidence 1) [8EE9040D] (AR v2)
Track 12 accurately ripped (confidence 1) [BDB51DD2] (AR v2)
Track 13 accurately ripped (confidence 1) [E285F35D] (AR v2)
Track 14 accurately ripped (confidence 1) [04E45F9A] (AR v2)
Track 15 accurately ripped (confidence 1) [5CD48185] (AR v2)
Track 16 accurately ripped (confidence 1) [2445F7DB] (AR v2)
Track 17 accurately ripped (confidence 1) [536CFF77] (AR v2)
Track 18 accurately ripped (confidence 1) [0180A88B] (AR v2)
Track 19 accurately ripped (confidence 1) [E195BFE8] (AR v2)
Track 20 accurately ripped (confidence 1) [5B68133B] (AR v2)
Track 21 accurately ripped (confidence 1) [9A5ECD93] (AR v2)
Track 22 not present in database
Track 23 not present in database
Track 24 accurately ripped (confidence 1) [B486970C] (AR v2)
Track 25 accurately ripped (confidence 1) [E565B212] (AR v2)
Track 26 accurately ripped (confidence 1) [A523EEAF] (AR v2)

24 трек(и) скопированы точно
2 трек(и) не содержатся в базе AccurateRip

Some tracks could not be verified as accurate

End of status report

==== Log checksum 09AE94377D4AECCFBAA7E37A5D16B87C47FECC59BE0014D53FA1AF855204332D ====

foobar2000 1.2 / Dynamic Range Meter 1.1.1
log date: 2014-12-22 19:44:08

––––––––––––––––––––––––––––––––––––––––
Analyzed: Bobby Helms / Lethal Weapon (Disc 1) (1)
Michael Kamen & Eric Clapton / Lethal Weapon (Disc 1) (2-26)
––––––––––––––––––––––––––––––––––––––––

DR Peak RMS Duration Track
––––––––––––––––––––––––––––––––––––––––
DR12 -3.19 dB -17.97 dB 2:05 01-Jingle Bell Rock
DR10 -0.04 dB -16.23 dB 3:46 02-Amanda
DR12 -0.92 dB -19.06 dB 1:22 03-Meeting Martin Riggs / Roger's Daughter
DR10 -6.86 dB -23.80 dB 1:05 04-She Just Dove
DR12 -1.52 dB -18.27 dB 2:01 05-Coke Deal
DR11 -1.37 dB -17.99 dB 2:28 06-Suicide
DR14 -0.22 dB -21.54 dB 2:37 07-Meet Your New Partner
DR11 -4.84 dB -22.03 dB 0:53 08-Burning Joshua
DR13 -0.37 dB -18.56 dB 4:53 09-The Jumper
DR11 -2.12 dB -18.63 dB 1:35 10-Rog And Riggs Confront
DR14 -0.66 dB -17.63 dB 2:45 11-Drive To Dealer's House
DR11 -0.03 dB -16.08 dB 3:05 12-Dealer's House / Swimming Pool
DR12 -5.66 dB -24.37 dB 1:38 13-Took A Lot Of Guts / Riggs' Soliloquy
DR11 -1.36 dB -18.89 dB 1:22 14-Porno Tape
DR16 -1.06 dB -22.18 dB 1:35 15-Firing Range
DR12 -0.20 dB -18.54 dB 2:12 16-Dixie's House / Alfred
DR14 -6.90 dB -27.62 dB 3:05 17-The Hunsacker Story
DR10 -0.96 dB -14.55 dB 1:49 18-Helicopter / Riggs Walks To Tart
DR11 -0.01 dB -16.43 dB 1:02 19-Riggs Gets Shot
DR11 -2.74 dB -19.02 dB 2:33 20-They've Got My Daughter / Is Riggs Dead? Or What?
DR12 -0.01 dB -15.98 dB 8:58 21-The Desert
DR14 -0.03 dB -20.06 dB 4:51 22-Hummingbird Treatment / Riggs Escapes
DR12 -0.01 dB -14.84 dB 4:13 23-We're Leaving
DR14 -0.17 dB -19.78 dB 1:44 24-General's Car
DR13 -0.34 dB -16.71 dB 1:19 25-S.O.B. Knows Where I Live
DR12 -0.02 dB -16.33 dB 5:57 26-Yard Fight / Graveside
––––––––––––––––––––––––––––––––––––––––

Number of tracks: 26
Official DR value: DR12

Samplerate: 44100 Hz
Channels: 2
Bits per sample: 16
Bitrate: 729 kbps
Codec: FLAC
================================================================================


Exact Audio Copy V1.0 beta 3 from 29. August 2011

EAC extraction logfile from 26. January 2014, 11:06

Michael Kamen & Eric Clapton / Lethal Weapon (Disc 2)

Used drive : TSSTcorpCDDVDW SH-S202H Adapter: 0 ID: 0

Read mode : Secure
Utilize accurate stream : Yes
Defeat audio cache : Yes
Make use of C2 pointers : No

Read offset correction : 6
Overread into Lead-In and Lead-Out : No
Fill up missing offset samples with silence : Yes
Delete leading and trailing silent blocks : No
Null samples used in CRC calculations : Yes
Used interface : Native Win32 interface for Win NT & 2000

Used output format : Internal WAV Routines
Sample format : 44.100 Hz; 16 Bit; Stereo


TOC of the extracted CD

Track | Start | Length | Start sector | End sector
––––––––––––––––––––––––––––-
1 | 0:00.00 | 2:41.20 | 0 | 12094
2 | 2:41.20 | 3:07.20 | 12095 | 26139
3 | 5:48.40 | 5:22.01 | 26140 | 50290
4 | 11:10.41 | 4:00.45 | 50291 | 68335
5 | 15:11.11 | 4:15.61 | 68336 | 87521
6 | 19:26.72 | 4:05.59 | 87522 | 105955
7 | 23:32.56 | 1:02.74 | 105956 | 110679
8 | 24:35.55 | 7:43.44 | 110680 | 145448
9 | 32:19.24 | 3:38.48 | 145449 | 161846
10 | 35:57.72 | 4:30.67 | 161847 | 182163
11 | 40:28.64 | 1:40.02 | 182164 | 189665
12 | 42:08.66 | 2:35.47 | 189666 | 201337
13 | 44:44.38 | 1:41.01 | 201338 | 208913
14 | 46:25.39 | 1:17.30 | 208914 | 214718


Range status and errors

Selected range

Filename D:\Michael Kamen & Eric Clapton - Lethal Weapon\Michael Kamen & Eric Clapton - Lethal Weapon (Disc 2).wav

Peak level 99.9 %
Extraction speed 3.1 X
Range quality 100.0 %
Test CRC 9462FC0D
Copy CRC 9462FC0D
Copy OK

No errors occurred


AccurateRip summary

Track 1 accurately ripped (confidence 1) [7CC3BEAB] (AR v2)
Track 2 accurately ripped (confidence 1) [A7875839] (AR v2)
Track 3 accurately ripped (confidence 1) [C4E67D79] (AR v2)
Track 4 accurately ripped (confidence 1) [A1212867] (AR v2)
Track 5 accurately ripped (confidence 1) [8D78F0DA] (AR v2)
Track 6 accurately ripped (confidence 1) [DE63665B] (AR v2)
Track 7 accurately ripped (confidence 1) [006C9606] (AR v2)
Track 8 accurately ripped (confidence 1) [CE9D2F0E] (AR v2)
Track 9 accurately ripped (confidence 1) [BE2240B2] (AR v2)
Track 10 accurately ripped (confidence 1) [A85BAB6A] (AR v2)
Track 11 accurately ripped (confidence 1) [2FA7919C] (AR v2)
Track 12 accurately ripped (confidence 1) [70BA4F81] (AR v2)
Track 13 accurately ripped (confidence 1) [1F1EF4A0] (AR v2)
Track 14 accurately ripped (confidence 1) [624430A8] (AR v2)

All tracks accurately ripped

End of status report

==== Log checksum BAB86229ADB41345431379E6785605EE71096BCABA7EA7D211066B3B5078E42E ====

foobar2000 1.2 / Dynamic Range Meter 1.1.1
log date: 2014-12-22 19:45:07

––––––––––––––––––––––––––––––––––––––––
Analyzed: Honeymoon Suite / Lethal Weapon (Disc 2) (1)
Michael Kamen & Eric Clapton / Lethal Weapon (Disc 2) (2-14)
––––––––––––––––––––––––––––––––––––––––

DR Peak RMS Duration Track
––––––––––––––––––––––––––––––––––––––––
DR12 -0.77 dB -15.04 dB 2:41 01-Lethal Weapon
DR10 -4.06 dB -19.31 dB 3:07 02-Amanda
DR13 -3.04 dB -21.59 dB 5:22 03-Meet Martin Riggs
DR13 -3.15 dB -21.49 dB 4:01 04-Roger
DR13 -0.74 dB -18.22 dB 4:16 05-Coke Deal
DR14 -0.01 dB -18.13 dB 4:06 06-Mr. Joshua
DR10 -3.25 dB -18.58 dB 1:03 07-They've Got My Daughter
DR12 -0.22 dB -16.34 dB 7:44 08-The Desert
DR12 -1.55 dB -15.89 dB 3:39 09-Nightclub
DR12 -0.75 dB -16.44 dB 4:31 10-The Weapon
DR11 -0.31 dB -18.32 dB 1:40 11-Suicide (Original)
DR11 -1.97 dB -20.57 dB 2:36 12-Suicide (Alternate)
DR10 -1.62 dB -15.49 dB 1:41 13-Helicopter (Alternate)
DR11 -0.29 dB -16.17 dB 1:17 14-S.O.B. Knows Where I Live (Orchestra Only)
––––––––––––––––––––––––––––––––––––––––

Number of tracks: 14
Official DR value: DR12

Samplerate: 44100 Hz
Channels: 2
Bits per sample: 16
Bitrate: 773 kbps
Codec: FLAC
================================================================================




Michael Kamen, Eric Clapton and David Sanborn - Lethal Weapon: Soundtrack Collection 1987-1998 (2013) 8CD Box Set

Lethal Weapon 2: Original Motion Picture Soundtrack (1989) 2CD Limited Edition 2013
Music by Michael Kamen, Eric Clapton, David Sanborn

EAC | FLAC | Image (Cue&Log) ~ 679 Mb | Mp3 (CBR320) ~ 293 Mb
Label: La-La-Land | # LLLCD 1287 | Time: 02:05:29 | Scans included


Michael Kamen, Eric Clapton and David Sanborn - Lethal Weapon: Soundtrack Collection 1987-1998 (2013) 8CD Box Set


Tracklist:

CD1:

01. Main Title / Chase The Red BMW / Krugerrand (07:10)
02. Riggs' Shoulder (02:53)
03. Pieter Shoots Hans / The Gold Pen / Rog Is Taped / Hotel - Meeting Leo / Pool… (07:32)
04. You're Black, I'm Mad / Drive To Stilt House / Stilt House Fight (03:41)
05. Mulholland Chase (02:52)
06. Meeting Rudd / Bust (03:26)
07. Rubber Tree / Good Night Mr. Rudd (02:15)
08. Haunting Rudd (02:12)
09. Finding Roger On The Toilet / Bomb Reveal / Bomb Squad Arrives (02:58)
10. Riggs & Murtaugh In Toilet / After The Toilet Bomb (02:58)
11. Sneaking Into The Embassy / So Long And Thanks For The Fish / Leo Loses Door (06:19)
12. Wyler Is Shot (01:45)
13. Card House Explosion / Rika Lerve / The Alba Varden / Nail Gun Fight (05:32)
14. Helicopters Approach / Helicopter Attack (05:32)
15. You Can Stay With Me / Riggs Captured / Riggs Fights Back (04:53)
16. Carrying Rika On The Beach (03:10)

CD2:

01. Stilt House Falls (02:44)
02. Drive To Shipyard (01:55)
03. Locked Into A Container / Out Of Container / Ship Fight (03:10)
04. Ballet Fight / Riggs Is Shot (03:37)
05. Knockin' On Heaven's Door / Riggs Dying (02:23)
06. George Harrison - Cheer Down (04:07)
07. The Beach Boys - Still Cruisin' (After All These Years) (03:35)
08. Randy Crawford - Knockin' On Heaven's Door (04:57)
09. Riggs (05:16)
10. The Embassy (05:36)
11. Riggs And Roger (05:52)
12. Leo (03:43)
13. Goodnight Rika (04:04)
14. The Stilt House (04:20)
15. The Shipyard (04:46)


Exact Audio Copy V1.0 beta 3 from 29. August 2011

EAC extraction logfile from 26. January 2014, 13:20

Michael Kamen, Eric Clapton & David Sanborn / Lethal Weapon 2 (Disc 1)

Used drive : TSSTcorpCDDVDW SH-S202H Adapter: 0 ID: 0

Read mode : Secure
Utilize accurate stream : Yes
Defeat audio cache : Yes
Make use of C2 pointers : No

Read offset correction : 6
Overread into Lead-In and Lead-Out : No
Fill up missing offset samples with silence : Yes
Delete leading and trailing silent blocks : No
Null samples used in CRC calculations : Yes
Used interface : Native Win32 interface for Win NT & 2000

Used output format : Internal WAV Routines
Sample format : 44.100 Hz; 16 Bit; Stereo


TOC of the extracted CD

Track | Start | Length | Start sector | End sector
––––––––––––––––––––––––––––-
1 | 0:00.00 | 7:10.13 | 0 | 32262
2 | 7:10.13 | 2:53.72 | 32263 | 45309
3 | 10:04.10 | 7:32.72 | 45310 | 79281
4 | 17:37.07 | 3:41.66 | 79282 | 95922
5 | 21:18.73 | 2:52.47 | 95923 | 108869
6 | 24:11.45 | 3:26.36 | 108870 | 124355
7 | 27:38.06 | 2:15.11 | 124356 | 134491
8 | 29:53.17 | 2:12.69 | 134492 | 144460
9 | 32:06.11 | 2:59.00 | 144461 | 157885
10 | 35:05.11 | 2:58.29 | 157886 | 171264
11 | 38:03.40 | 6:19.56 | 171265 | 199745
12 | 44:23.21 | 1:45.10 | 199746 | 207630
13 | 46:08.31 | 5:32.13 | 207631 | 232543
14 | 51:40.44 | 5:32.11 | 232544 | 257454
15 | 57:12.55 | 4:53.32 | 257455 | 279461
16 | 62:06.12 | 3:10.50 | 279462 | 293761


Range status and errors

Selected range

Filename D:\Michael Kamen, Eric Clapton & David Sanborn - Lethal Weapon 2\Michael Kamen, Eric Clapton & David Sanborn - Lethal Weapon 2 (Disc 1).wav

Peak level 99.9 %
Extraction speed 7.9 X
Range quality 100.0 %
Test CRC B4A17EA7
Copy CRC B4A17EA7
Copy OK

No errors occurred


AccurateRip summary

Track 1 accurately ripped (confidence 1) [0A2EBF8D] (AR v2)
Track 2 accurately ripped (confidence 1) [D5D5409A] (AR v2)
Track 3 accurately ripped (confidence 1) [EAA3BE96] (AR v2)
Track 4 accurately ripped (confidence 1) [9735AD23] (AR v2)
Track 5 accurately ripped (confidence 1) [39CC284E] (AR v2)
Track 6 accurately ripped (confidence 1) [A1F8794B] (AR v2)
Track 7 accurately ripped (confidence 1) [6BBF89CE] (AR v2)
Track 8 accurately ripped (confidence 1) [B2886B30] (AR v2)
Track 9 accurately ripped (confidence 1) [24325845] (AR v2)
Track 10 accurately ripped (confidence 1) [29FCBA4B] (AR v2)
Track 11 accurately ripped (confidence 1) [ED94C07D] (AR v2)
Track 12 accurately ripped (confidence 1) [63C33927] (AR v2)
Track 13 accurately ripped (confidence 1) [56AC27BD] (AR v2)
Track 14 accurately ripped (confidence 1) [640EF998] (AR v2)
Track 15 accurately ripped (confidence 1) [12EF313C] (AR v2)
Track 16 accurately ripped (confidence 1) [CB08A547] (AR v2)

All tracks accurately ripped

End of status report

==== Log checksum BA6D6862DC66598B041EF4885A21B368E7CDB2415C721F60BC3C38A006D9DE08 ====

foobar2000 1.2 / Dynamic Range Meter 1.1.1
log date: 2014-12-22 19:44:27

––––––––––––––––––––––––––––––––––––––––
Analyzed: Michael Kamen, Eric Clapton & David Sanborn / Lethal Weapon 2 (Disc 1)
––––––––––––––––––––––––––––––––––––––––

DR Peak RMS Duration Track
––––––––––––––––––––––––––––––––––––––––
DR13 -0.01 dB -15.90 dB 7:10 01-Main Title / Chase The Red BMW / Krugerrand
DR13 -0.60 dB -16.45 dB 2:54 02-Riggs' Shoulder
DR14 -0.09 dB -19.17 dB 7:33 03-Pieter Shoots Hans / The Gold Pen / Rog Is Taped / Hotel - Meeting Leo / Pool…
DR15 -0.01 dB -19.28 dB 3:42 04-You're Black, I'm Mad / Drive To Stilt House / Stilt House Fight
DR11 0.00 dB -13.25 dB 2:53 05-Mulholland Chase
DR12 -7.16 dB -25.17 dB 3:26 06-Meeting Rudd / Bust
DR14 -4.20 dB -23.33 dB 2:15 07-Rubber Tree / Good Night Mr. Rudd
DR14 -2.14 dB -19.62 dB 2:13 08-Haunting Rudd
DR13 -0.09 dB -19.32 dB 2:59 09-Finding Roger On The Toilet / Bomb Reveal / Bomb Squad Arrives
DR16 -0.33 dB -21.36 dB 2:58 10-Riggs & Murtaugh In Toilet / After The Toilet Bomb
DR15 -0.01 dB -19.88 dB 6:20 11-Sneaking Into The Embassy / So Long And Thanks For The Fish / Leo Loses Door
DR12 -2.49 dB -20.67 dB 1:45 12-Wyler Is Shot
DR12 -0.08 dB -18.03 dB 5:32 13-Card House Explosion / Rika Lerve / The Alba Varden / Nail Gun Fight
DR12 -0.06 dB -16.53 dB 5:32 14-Helicopters Approach / Helicopter Attack
DR12 0.00 dB -18.25 dB 4:53 15-You Can Stay With Me / Riggs Captured / Riggs Fights Back
DR11 -0.56 dB -18.73 dB 3:11 16-Carrying Rika On The Beach
––––––––––––––––––––––––––––––––––––––––

Number of tracks: 16
Official DR value: DR13

Samplerate: 44100 Hz
Channels: 2
Bits per sample: 16
Bitrate: 700 kbps
Codec: FLAC
================================================================================


Exact Audio Copy V1.0 beta 3 from 29. August 2011

EAC extraction logfile from 26. January 2014, 13:38

Michael Kamen, Eric Clapton & David Sanborn / Lethal Weapon 2 (Disc 2)

Used drive : TSSTcorpCDDVDW SH-S202H Adapter: 0 ID: 0

Read mode : Secure
Utilize accurate stream : Yes
Defeat audio cache : Yes
Make use of C2 pointers : No

Read offset correction : 6
Overread into Lead-In and Lead-Out : No
Fill up missing offset samples with silence : Yes
Delete leading and trailing silent blocks : No
Null samples used in CRC calculations : Yes
Used interface : Native Win32 interface for Win NT & 2000

Used output format : Internal WAV Routines
Sample format : 44.100 Hz; 16 Bit; Stereo


TOC of the extracted CD

Track | Start | Length | Start sector | End sector
––––––––––––––––––––––––––––-
1 | 0:00.00 | 2:44.00 | 0 | 12299
2 | 2:44.00 | 1:55.10 | 12300 | 20934
3 | 4:39.10 | 3:10.15 | 20935 | 35199
4 | 7:49.25 | 3:37.62 | 35200 | 51536
5 | 11:27.12 | 2:23.71 | 51537 | 62332
6 | 13:51.08 | 4:07.53 | 62333 | 80910
7 | 17:58.61 | 3:35.39 | 80911 | 97074
8 | 21:34.25 | 4:57.41 | 97075 | 119390
9 | 26:31.66 | 5:16.33 | 119391 | 143123
10 | 31:48.24 | 5:36.42 | 143124 | 168365
11 | 37:24.66 | 5:52.63 | 168366 | 194828
12 | 43:17.54 | 3:43.07 | 194829 | 211560
13 | 47:00.61 | 4:04.49 | 211561 | 229909
14 | 51:05.35 | 4:20.71 | 229910 | 249480
15 | 55:26.31 | 4:46.35 | 249481 | 270965


Range status and errors

Selected range

Filename D:\Michael Kamen, Eric Clapton & David Sanborn - Lethal Weapon 2\Michael Kamen, Eric Clapton & David Sanborn - Lethal Weapon 2 (Disc 2).wav

Peak level 99.9 %
Extraction speed 7.7 X
Range quality 100.0 %
Test CRC DDC5566F
Copy CRC DDC5566F
Copy OK

No errors occurred


AccurateRip summary

Track 1 accurately ripped (confidence 1) [E2114BCA] (AR v2)
Track 2 accurately ripped (confidence 1) [8B9751AB] (AR v2)
Track 3 accurately ripped (confidence 1) [FCB32AB5] (AR v2)
Track 4 accurately ripped (confidence 1) [E1F77161] (AR v2)
Track 5 accurately ripped (confidence 1) [4B5E57FA] (AR v2)
Track 6 accurately ripped (confidence 1) [FBD362D2] (AR v2)
Track 7 accurately ripped (confidence 1) [4DE79AF8] (AR v2)
Track 8 accurately ripped (confidence 1) [E5108A8F] (AR v2)
Track 9 accurately ripped (confidence 1) [183D3060] (AR v2)
Track 10 not present in database
Track 11 not present in database
Track 12 not present in database
Track 13 not present in database
Track 14 not present in database
Track 15 not present in database

9 трек(и) скопированы точно
6 трек(и) не содержатся в базе AccurateRip

Some tracks could not be verified as accurate

End of status report

==== Log checksum 31ADA35A8279586049B3C427768B2AC5BC3BF9FD1FC042C367FBC9E7584585BC ====

foobar2000 1.2 / Dynamic Range Meter 1.1.1
log date: 2014-12-22 19:45:22

––––––––––––––––––––––––––––––––––––––––
Analyzed: Michael Kamen, Eric Clapton & David Sanborn / Lethal Weapon 2 (Disc 2)
––––––––––––––––––––––––––––––––––––––––

DR Peak RMS Duration Track
––––––––––––––––––––––––––––––––––––––––
DR12 -0.03 dB -16.13 dB 2:44 01-Stilt House Falls
DR12 -1.79 dB -19.02 dB 1:55 02-Drive To Shipyard
DR12 -0.02 dB -16.72 dB 3:10 03-Locked Into A Container / Out Of Container / Ship Fight
DR12 -0.08 dB -16.68 dB 3:38 04-Ballet Fight / Riggs Is Shot
DR12 -1.38 dB -19.04 dB 2:24 05-Knockin' On Heaven's Door / Riggs Dying
DR12 -0.83 dB -15.99 dB 5:16 09-Riggs
DR12 -0.01 dB -16.35 dB 5:37 10-The Embassy
DR14 -0.01 dB -20.07 dB 5:53 11-Riggs And Roger
DR15 -0.23 dB -17.32 dB 3:43 12-Leo
DR11 -0.23 dB -17.82 dB 4:05 13-Goodnight Rika
DR15 -0.14 dB -16.46 dB 4:21 14-The Stilt House
DR12 -0.34 dB -16.29 dB 4:46 15-The Shipyard
––––––––––––––––––––––––––––––––––––––––

Number of tracks: 12
Official DR value: DR13

Samplerate: 44100 Hz
Channels: 2
Bits per sample: 16
Bitrate: 804 kbps
Codec: FLAC
================================================================================

foobar2000 1.2 / Dynamic Range Meter 1.1.1
log date: 2014-12-22 19:44:50

––––––––––––––––––––––––––––––––––––––––
Statistics for: 06-Cheer Down
Number of samples: 10923864
Duration: 4:08
––––––––––––––––––––––––––––––––––––––––

Left Right

Peak Value: -0.72 dB –- -1.82 dB
Avg RMS: -13.87 dB –- -13.37 dB
DR channel: 11.46 dB –- 10.66 dB
––––––––––––––––––––––––––––––––––––––––

Official DR Value: DR11

Samplerate: 44100 Hz
Channels: 2
Bits per sample: 16
Bitrate: 804 kbps
Codec: FLAC
================================================================================
foobar2000 1.2 / Dynamic Range Meter 1.1.1
log date: 2014-12-22 19:45:57

––––––––––––––––––––––––––––––––––––––––
Statistics for: 07-Still Cruisin' (After All These Years)
Number of samples: 9504432
Duration: 3:36
––––––––––––––––––––––––––––––––––––––––

Left Right

Peak Value: -1.84 dB –- -1.81 dB
Avg RMS: -15.95 dB –- -15.27 dB
DR channel: 12.17 dB –- 11.49 dB
––––––––––––––––––––––––––––––––––––––––

Official DR Value: DR12

Samplerate: 44100 Hz
Channels: 2
Bits per sample: 16
Bitrate: 804 kbps
Codec: FLAC
================================================================================
foobar2000 1.2 / Dynamic Range Meter 1.1.1
log date: 2014-12-22 19:45:53

––––––––––––––––––––––––––––––––––––––––
Statistics for: 08-Knockin' On Heaven's Door
Number of samples: 13121808
Duration: 4:58
––––––––––––––––––––––––––––––––––––––––

Left Right

Peak Value: -1.95 dB –- -1.68 dB
Avg RMS: -15.75 dB –- -14.91 dB
DR channel: 11.35 dB –- 10.79 dB
––––––––––––––––––––––––––––––––––––––––

Official DR Value: DR11

Samplerate: 44100 Hz
Channels: 2
Bits per sample: 16
Bitrate: 804 kbps
Codec: FLAC
================================================================================




Michael Kamen, Eric Clapton and David Sanborn - Lethal Weapon: Soundtrack Collection 1987-1998 (2013) 8CD Box Set

Lethal Weapon 3: Original Motion Picture Soundtrack (1992) 2CD Limited Edition 2013
Music by Michael Kamen, Eric Clapton, David Sanborn

EAC | FLAC | Image (Cue&Log) ~ 649 Mb | Mp3 (CBR320) ~ 295 Mb
Label: La-La-Land | # LLLCD 1287 | Time: 02:06:51 | Scans included


Michael Kamen, Eric Clapton and David Sanborn - Lethal Weapon: Soundtrack Collection 1987-1998 (2013) 8CD Box Set


Tracklist:

CD1:

01. Trust Me (03:35)
02. Afterglow (00:59)
03. Jaywalker (02:02)
04. Armoured Car Chase (04:35)
05. Leo Getz (03:22)
06. Concrete Death (02:00)
07. Rianne's Big Break (02:17)
08. Locker Room (00:45)
09. Firing Range (01:00)
10. Jack Kills Billy (03:16)
11. Hockey Game (00:59)
12. Dum-Dum Wound (01:09)
13. Shooting Darryl, Part 1 (03:13)
14. Shooting Darryl, Part 2 / Step Into My Office (02:18)
15. Man's Best Friend / Lorna's First Fight (06:43)
16. Scars / Love Scene (03:46)
17. Roger's Boat (05:30)
18. Shaving (01:19)
19. Gun Montage / Lorna's Second Fight (03:35)
20. Captain Abducted / Captain And Travis (01:36)
21. Unauthorized Access (01:58)
22. Gun Battle (03:49)
23. Riggs Falls (02:12)
24. Drive To Housing Development / On Three (03:35)
25. Fire / Fire Battle / A Quiet Evening By The Fire (07:00)

CD2:

01. Sting & Eric Clapton - It's Probably Me (06:24)
02. Elton John & Eric Clapton - Runaway Train (05:26)
03. Grab The Cat (01:35)
04. Leo Getz Goes To The Hockey Game (02:59)
05. Darryl Dies (04:55)
06. Riggs And Rog (02:55)
07. Roger's Boat (05:02)
08. Armour Piercing Bullets (04:34)
09. God Judges Us By Our Scars (01:59)
10. Lorna - A Quiet Evening By The Fire (03:42)
11. Leo Getz (Alternate) (02:39)
12. Armoured Car Chase (No Choir) (04:35)
13. Gun Battle (Alternate) (05:28)
14. I Can't Retire (01:46)


Exact Audio Copy V1.0 beta 3 from 29. August 2011

EAC extraction logfile from 26. January 2014, 13:58

Michael Kamen, Eric Clapton & David Sanborn / Lethal Weapon 3 (Disc 1)

Used drive : TSSTcorpCDDVDW SH-S202H Adapter: 0 ID: 0

Read mode : Secure
Utilize accurate stream : Yes
Defeat audio cache : Yes
Make use of C2 pointers : No

Read offset correction : 6
Overread into Lead-In and Lead-Out : No
Fill up missing offset samples with silence : Yes
Delete leading and trailing silent blocks : No
Null samples used in CRC calculations : Yes
Used interface : Native Win32 interface for Win NT & 2000

Used output format : Internal WAV Routines
Sample format : 44.100 Hz; 16 Bit; Stereo


TOC of the extracted CD

Track | Start | Length | Start sector | End sector
––––––––––––––––––––––––––––-
1 | 0:00.00 | 3:35.70 | 0 | 16194
2 | 3:35.70 | 0:59.19 | 16195 | 20638
3 | 4:35.14 | 2:02.59 | 20639 | 29847
4 | 6:37.73 | 4:35.20 | 29848 | 50492
5 | 11:13.18 | 3:22.29 | 50493 | 65671
6 | 14:35.47 | 2:00.52 | 65672 | 74723
7 | 16:36.24 | 2:17.58 | 74724 | 85056
8 | 18:54.07 | 0:45.17 | 85057 | 88448
9 | 19:39.24 | 1:00.55 | 88449 | 93003
10 | 20:40.04 | 3:16.46 | 93004 | 107749
11 | 23:56.50 | 0:59.46 | 107750 | 112220
12 | 24:56.21 | 1:09.24 | 112221 | 117419
13 | 26:05.45 | 3:13.69 | 117420 | 131963
14 | 29:19.39 | 2:18.68 | 131964 | 142381
15 | 31:38.32 | 6:43.09 | 142382 | 172615
16 | 38:21.41 | 3:46.50 | 172616 | 189615
17 | 42:08.16 | 5:30.08 | 189616 | 214373
18 | 47:38.24 | 1:19.29 | 214374 | 220327
19 | 48:57.53 | 3:35.20 | 220328 | 236472
20 | 52:32.73 | 1:36.21 | 236473 | 243693
21 | 54:09.19 | 1:58.50 | 243694 | 252593
22 | 56:07.69 | 3:49.11 | 252594 | 269779
23 | 59:57.05 | 2:12.49 | 269780 | 279728
24 | 62:09.54 | 3:35.48 | 279729 | 295901
25 | 65:45.27 | 7:00.52 | 295902 | 327453


Range status and errors

Selected range

Filename D:\Michael Kamen, Eric Clapton & David Sanborn - Lethal Weapon 3\Michael Kamen, Eric Clapton & David Sanborn - Lethal Weapon 3 (Disc 1).wav

Peak level 99.9 %
Extraction speed 8.4 X
Range quality 100.0 %
Test CRC EAB90FDC
Copy CRC EAB90FDC
Copy OK

No errors occurred


AccurateRip summary

Track 1 accurately ripped (confidence 1) [437E129B] (AR v2)
Track 2 accurately ripped (confidence 1) [D043B389] (AR v2)
Track 3 accurately ripped (confidence 1) [59B72892] (AR v2)
Track 4 accurately ripped (confidence 1) [36092595] (AR v2)
Track 5 accurately ripped (confidence 1) [B1ED14B7] (AR v2)
Track 6 accurately ripped (confidence 1) [F57C65C0] (AR v2)
Track 7 accurately ripped (confidence 1) [E01F338F] (AR v2)
Track 8 accurately ripped (confidence 1) [8C65CC4F] (AR v2)
Track 9 accurately ripped (confidence 1) [D76808C4] (AR v2)
Track 10 accurately ripped (confidence 1) [B03C67EF] (AR v2)
Track 11 accurately ripped (confidence 1) [593406C1] (AR v2)
Track 12 accurately ripped (confidence 1) [127B4B14] (AR v2)
Track 13 accurately ripped (confidence 1) [C2A3F463] (AR v2)
Track 14 accurately ripped (confidence 1) [E27AB4EB] (AR v2)
Track 15 accurately ripped (confidence 1) [B0637D9C] (AR v2)
Track 16 accurately ripped (confidence 1) [1EF44337] (AR v2)
Track 17 accurately ripped (confidence 1) [E0E49B67] (AR v2)
Track 18 accurately ripped (confidence 1) [2D9385B3] (AR v2)
Track 19 accurately ripped (confidence 1) [A4E4A8A5] (AR v2)
Track 20 accurately ripped (confidence 1) [6BF99ED5] (AR v2)
Track 21 accurately ripped (confidence 1) [9790E88E] (AR v2)
Track 22 accurately ripped (confidence 1) [700075AF] (AR v2)
Track 23 accurately ripped (confidence 1) [DBE201D7] (AR v2)
Track 24 accurately ripped (confidence 1) [F0DCD189] (AR v2)
Track 25 accurately ripped (confidence 1) [6CEDA6E8] (AR v2)

All tracks accurately ripped

End of status report

==== Log checksum 9C17985BA6C41E441783263BCB58F66447BDC09773DCFBB5A82F24B483549B59 ====

foobar2000 1.2 / Dynamic Range Meter 1.1.1
log date: 2014-12-22 19:48:43

––––––––––––––––––––––––––––––––––––––––
Analyzed: Michael Kamen, Eric Clapton & David Sanborn / Lethal Weapon 3 (Disc 1)
––––––––––––––––––––––––––––––––––––––––

DR Peak RMS Duration Track
––––––––––––––––––––––––––––––––––––––––
DR18 -0.05 dB -24.58 dB 3:36 01-Trust Me
DR12 -1.28 dB -22.69 dB 0:59 02-Afterglow
DR15 -0.21 dB -20.38 dB 2:03 03-Jaywalker
DR12 -0.01 dB -14.61 dB 4:35 04-Armoured Car Chase
DR16 -0.53 dB -22.45 dB 3:22 05-Leo Getz
DR15 -0.04 dB -23.01 dB 2:01 06-Concrete Death
DR13 -0.07 dB -19.47 dB 2:18 07-Rianne's Big Break
DR14 -1.61 dB -21.43 dB 0:45 08-Locker Room
DR11 -3.88 dB -22.03 dB 1:01 09-Firing Range
DR14 -0.80 dB -22.25 dB 3:17 10-Jack Kills Billy
DR11 -1.04 dB -20.16 dB 1:00 11-Hockey Game
DR14 -2.73 dB -23.23 dB 1:09 12-Dum-Dum Wound
DR13 -0.35 dB -18.71 dB 3:14 13-Shooting Darryl, Part 1
DR12 -3.81 dB -21.32 dB 2:19 14-Shooting Darryl, Part 2 / Step Into My Office
DR13 -0.30 dB -18.80 dB 6:43 15-Man's Best Friend / Lorna's First Fight
DR15 -6.58 dB -27.44 dB 3:47 16-Scars / Love Scene
DR15 -0.30 dB -22.24 dB 5:30 17-Roger's Boat
DR11 -5.48 dB -23.83 dB 1:19 18-Shaving
DR13 -0.02 dB -18.44 dB 3:35 19-Gun Montage / Lorna's Second Fight
DR18 -0.02 dB -24.18 dB 1:36 20-Captain Abducted / Captain And Travis
DR14 -5.39 dB -23.69 dB 1:59 21-Unauthorized Access
DR12 0.00 dB -14.78 dB 3:49 22-Gun Battle
DR14 -0.02 dB -19.59 dB 2:13 23-Riggs Falls
DR14 -0.01 dB -18.43 dB 3:36 24-Drive To Housing Development / On Three
DR13 0.00 dB -15.98 dB 7:01 25-Fire / Fire Battle / A Quiet Evening By The Fire
––––––––––––––––––––––––––––––––––––––––

Number of tracks: 25
Official DR value: DR14

Samplerate: 44100 Hz
Channels: 2
Bits per sample: 16
Bitrate: 686 kbps
Codec: FLAC
================================================================================


Exact Audio Copy V1.0 beta 3 from 29. August 2011

EAC extraction logfile from 26. January 2014, 14:14

Michael Kamen, Eric Clapton & David Sanborn / Lethal Weapon 3 (Disc 2)

Used drive : TSSTcorpCDDVDW SH-S202H Adapter: 0 ID: 0

Read mode : Secure
Utilize accurate stream : Yes
Defeat audio cache : Yes
Make use of C2 pointers : No

Read offset correction : 6
Overread into Lead-In and Lead-Out : No
Fill up missing offset samples with silence : Yes
Delete leading and trailing silent blocks : No
Null samples used in CRC calculations : Yes
Used interface : Native Win32 interface for Win NT & 2000

Used output format : Internal WAV Routines
Sample format : 44.100 Hz; 16 Bit; Stereo


TOC of the extracted CD

Track | Start | Length | Start sector | End sector
––––––––––––––––––––––––––––-
1 | 0:00.00 | 6:24.31 | 0 | 28830
2 | 6:24.31 | 5:26.06 | 28831 | 53286
3 | 11:50.37 | 1:35.40 | 53287 | 60451
4 | 13:26.02 | 2:59.40 | 60452 | 73916
5 | 16:25.42 | 4:55.44 | 73917 | 96085
6 | 21:21.11 | 2:55.11 | 96086 | 109221
7 | 24:16.22 | 5:02.16 | 109222 | 131887
8 | 29:18.38 | 4:34.60 | 131888 | 152497
9 | 33:53.23 | 1:59.25 | 152498 | 161447
10 | 35:52.48 | 3:42.55 | 161448 | 178152
11 | 39:35.28 | 2:39.70 | 178153 | 190147
12 | 42:15.23 | 4:35.38 | 190148 | 210810
13 | 46:50.61 | 5:28.37 | 210811 | 235447
14 | 52:19.23 | 1:46.08 | 235448 | 243405


Range status and errors

Selected range

Filename D:\Michael Kamen, Eric Clapton & David Sanborn - Lethal Weapon 3\Michael Kamen, Eric Clapton & David Sanborn - Lethal Weapon 3 (Disc 2).wav

Peak level 99.9 %
Extraction speed 7.6 X
Range quality 100.0 %
Test CRC AABD9895
Copy CRC AABD9895
Copy OK

No errors occurred


AccurateRip summary

Track 1 accurately ripped (confidence 1) [328B8CAC] (AR v2)
Track 2 accurately ripped (confidence 1) [20CE9BD7] (AR v2)
Track 3 not present in database
Track 4 not present in database
Track 5 not present in database
Track 6 not present in database
Track 7 not present in database
Track 8 not present in database
Track 9 not present in database
Track 10 not present in database
Track 11 not present in database
Track 12 not present in database
Track 13 not present in database
Track 14 not present in database

2 трек(и) скопированы точно
12 трек(и) не содержатся в базе AccurateRip

Some tracks could not be verified as accurate

End of status report

==== Log checksum 0C11CC0903CFF4C6F57226F42B8C917CD2B90E10397B86712123CD43B5583E6A ====

foobar2000 1.2 / Dynamic Range Meter 1.1.1
log date: 2014-12-22 19:45:36

––––––––––––––––––––––––––––––––––––––––
Analyzed: Michael Kamen, Eric Clapton & David Sanborn / Lethal Weapon 3 (Disc 2)
––––––––––––––––––––––––––––––––––––––––

DR Peak RMS Duration Track
––––––––––––––––––––––––––––––––––––––––
DR14 -0.03 dB -20.61 dB 1:36 03-Grab The Cat
DR16 -0.39 dB -22.03 dB 3:00 04-Leo Getz Goes To The Hockey Game
DR12 -0.04 dB -16.82 dB 4:56 05-Darryl Dies
DR14 -1.17 dB -17.92 dB 2:55 06-Riggs And Rog
DR14 -1.72 dB -21.32 dB 5:02 07-Roger's Boat
DR12 -0.02 dB -15.05 dB 4:35 08-Armour Piercing Bullets
DR15 -3.70 dB -24.51 dB 1:59 09-God Judges Us By Our Scars
DR15 -1.39 dB -23.18 dB 3:43 10-Lorna - A Quiet Evening By The Fire
DR17 -0.78 dB -24.23 dB 2:40 11-Leo Getz (Alternate)
DR14 -0.01 dB -16.28 dB 4:36 12-Armoured Car Chase (No Choir)
DR14 -0.02 dB -16.52 dB 5:28 13-Gun Battle (Alternate)
DR13 -0.74 dB -20.55 dB 1:46 14-I Can't Retire
––––––––––––––––––––––––––––––––––––––––

Number of tracks: 12
Official DR value: DR14

Samplerate: 44100 Hz
Channels: 2
Bits per sample: 16
Bitrate: 739 kbps
Codec: FLAC
================================================================================
foobar2000 1.2 / Dynamic Range Meter 1.1.1
log date: 2014-12-22 19:45:55

––––––––––––––––––––––––––––––––––––––––
Statistics for: 01-It's Probably Me
Number of samples: 16952628
Duration: 6:24
––––––––––––––––––––––––––––––––––––––––

Left Right

Peak Value: -0.33 dB –- -0.97 dB
Avg RMS: -17.19 dB –- -16.97 dB
DR channel: 14.67 dB –- 13.95 dB
––––––––––––––––––––––––––––––––––––––––

Official DR Value: DR14

Samplerate: 44100 Hz
Channels: 2
Bits per sample: 16
Bitrate: 739 kbps
Codec: FLAC
================================================================================
foobar2000 1.2 / Dynamic Range Meter 1.1.1
log date: 2014-12-22 19:44:48

––––––––––––––––––––––––––––––––––––––––
Statistics for: 02-Runaway Train
Number of samples: 14380128
Duration: 5:26
––––––––––––––––––––––––––––––––––––––––

Left Right

Peak Value: -0.14 dB –- -0.40 dB
Avg RMS: -13.01 dB –- -13.47 dB
DR channel: 11.32 dB –- 11.82 dB
––––––––––––––––––––––––––––––––––––––––

Official DR Value: DR12

Samplerate: 44100 Hz
Channels: 2
Bits per sample: 16
Bitrate: 739 kbps
Codec: FLAC
================================================================================




Michael Kamen, Eric Clapton and David Sanborn - Lethal Weapon: Soundtrack Collection 1987-1998 (2013) 8CD Box Set

Lethal Weapon 4: Original Motion Picture Soundtrack (1998) 2CD Limited Edition 2013
Music by Michael Kamen, Eric Clapton, David Sanborn

EAC | FLAC | Image (Cue&Log) ~ 508 Mb | Mp3 (CBR320) ~ 236 Mb
Label: La-La-Land | # LLLCD 1287 | Time: 01:40:20 | Scans included


Michael Kamen, Eric Clapton and David Sanborn - Lethal Weapon: Soundtrack Collection 1987-1998 (2013) 8CD Box Set


Tracklist:

CD1:

01. Don't Turn / Cute Shorts (03:11)
02. Leo's Shark / Boys On Boat (03:26)
03. Freighter (05:59)
04. The Payoff (01:15)
05. Slaves (01:16)
06. Butters' Intro (02:07)
07. Lifeboat (01:14)
08. Marriage Talk (03:32)
09. Chinese Food (02:22)
10. Freeing Slaves (02:40)
11. Birdman News / Butters Likes Me (02:12)
12. Drive To Uncle Benny's / Leo Gets Arrested (01:42)
13. Uncle Benny's Restaurant (01:17)
14. Chinatown Chase (03:29)
15. Riggs Falls (01:27)
16. Tequila (02:10)
17. Chinese Prison (01:23)
18. Locker Room (02:17)
19. Cell Phone (02:51)
20. House Fight (02:42)
21. Ku Attacks (03:10)

CD2:

01. Freeway Chase (04:52)
02. Riggs On Table (04:05)
03. Four Fathers (02:35)
04. Holiday Talk (01:16)
05. Hong With Money / Money Montage (03:33)
06. Baby Train (04:52)
07. Warehouse Fight / Showdown (04:59)
08. Underwater Fight (03:44)
09. Underwater Fight Concludes (01:45)
10. Murtaugh To The Rescue (02:54)
11. Cemetery (03:37)
12. Hospital / Babies (02:52)
13. Butters' Intro (Alternate) (01:46)
14. Chinatown Chase (Alternate) (03:26)
15. Wild Takes (02:06)


Exact Audio Copy V1.0 beta 3 from 29. August 2011

EAC extraction logfile from 26. January 2014, 14:31

Michael Kamen, Eric Clapton & David Sanborn / Lethal Weapon 4 (Disc 1)

Used drive : TSSTcorpCDDVDW SH-S202H Adapter: 0 ID: 0

Read mode : Secure
Utilize accurate stream : Yes
Defeat audio cache : Yes
Make use of C2 pointers : No

Read offset correction : 6
Overread into Lead-In and Lead-Out : No
Fill up missing offset samples with silence : Yes
Delete leading and trailing silent blocks : No
Null samples used in CRC calculations : Yes
Used interface : Native Win32 interface for Win NT & 2000

Used output format : Internal WAV Routines
Sample format : 44.100 Hz; 16 Bit; Stereo


TOC of the extracted CD

Track | Start | Length | Start sector | End sector
––––––––––––––––––––––––––––-
1 | 0:00.00 | 3:11.55 | 0 | 14379
2 | 3:11.55 | 3:26.15 | 14380 | 29844
3 | 6:37.70 | 5:59.18 | 29845 | 56787
4 | 12:37.13 | 1:15.69 | 56788 | 62481
5 | 13:53.07 | 1:16.02 | 62482 | 68183
6 | 15:09.09 | 2:07.56 | 68184 | 77764
7 | 17:16.65 | 1:14.18 | 77765 | 83332
8 | 18:31.08 | 3:32.11 | 83333 | 99243
9 | 22:03.19 | 2:22.11 | 99244 | 109904
10 | 24:25.30 | 2:40.25 | 109905 | 121929
11 | 27:05.55 | 2:12.32 | 121930 | 131861
12 | 29:18.12 | 1:42.15 | 131862 | 139526
13 | 31:00.27 | 1:17.10 | 139527 | 145311
14 | 32:17.37 | 3:29.26 | 145312 | 161012
15 | 35:46.63 | 1:27.30 | 161013 | 167567
16 | 37:14.18 | 2:10.36 | 167568 | 177353
17 | 39:24.54 | 1:23.33 | 177354 | 183611
18 | 40:48.12 | 2:17.29 | 183612 | 193915
19 | 43:05.41 | 2:51.15 | 193916 | 206755
20 | 45:56.56 | 2:42.49 | 206756 | 218954
21 | 48:39.30 | 3:10.52 | 218955 | 233256


Range status and errors

Selected range

Filename D:\Michael Kamen, Eric Clapton & David Sanborn - Lethal Weapon 4\Michael Kamen, Eric Clapton & David Sanborn - Lethal Weapon 4 (Disc 1).wav

Peak level 99.3 %
Extraction speed 7.4 X
Range quality 100.0 %
Test CRC 122AD9DC
Copy CRC 122AD9DC
Copy OK

No errors occurred


AccurateRip summary

Track 1 accurately ripped (confidence 2) [DEFB63A2] (AR v2)
Track 2 accurately ripped (confidence 1) [2D7101EA] (AR v2)
Track 3 accurately ripped (confidence 1) [DF4AEBB1] (AR v2)
Track 4 accurately ripped (confidence 1) [56A2A2B6] (AR v2)
Track 5 accurately ripped (confidence 1) [E471E45D] (AR v2)
Track 6 accurately ripped (confidence 1) [E0556F79] (AR v2)
Track 7 accurately ripped (confidence 1) [CF6739CC] (AR v2)
Track 8 accurately ripped (confidence 1) [95043D15] (AR v2)
Track 9 accurately ripped (confidence 1) [54FE19E4] (AR v2)
Track 10 accurately ripped (confidence 1) [2FA2C72F] (AR v2)
Track 11 accurately ripped (confidence 1) [2F0EC4F3] (AR v2)
Track 12 accurately ripped (confidence 1) [1CFA027D] (AR v2)
Track 13 accurately ripped (confidence 1) [4F5F9B62] (AR v2)
Track 14 accurately ripped (confidence 1) [4291A073] (AR v2)
Track 15 accurately ripped (confidence 1) [35ABD3DE] (AR v2)
Track 16 accurately ripped (confidence 1) [96D9E833] (AR v2)
Track 17 accurately ripped (confidence 1) [4F2921AA] (AR v2)
Track 18 accurately ripped (confidence 1) [F6BB5764] (AR v2)
Track 19 accurately ripped (confidence 1) [27AEBC95] (AR v2)
Track 20 accurately ripped (confidence 1) [AE5F46FE] (AR v2)
Track 21 accurately ripped (confidence 1) [E09A111B] (AR v2)

All tracks accurately ripped

End of status report

==== Log checksum F4A92180C0D812204703A22F32D4656CDF44B1D738F66E315438FC0C94989A8B ====

foobar2000 1.2 / Dynamic Range Meter 1.1.1
log date: 2014-12-22 19:44:45

––––––––––––––––––––––––––––––––––––––––
Analyzed: Michael Kamen, Eric Clapton & David Sanborn / Lethal Weapon 4 (Disc 1)
––––––––––––––––––––––––––––––––––––––––

DR Peak RMS Duration Track
––––––––––––––––––––––––––––––––––––––––
DR16 -0.81 dB -21.64 dB 3:12 01-Don't Turn / Cute Shorts
DR15 -2.74 dB -22.69 dB 3:26 02-Leo's Shark / Boys On Boat
DR13 -0.06 dB -16.75 dB 5:59 03-Freighter
DR13 -1.06 dB -21.50 dB 1:16 04-The Payoff
DR11 -4.43 dB -20.68 dB 1:16 05-Slaves
DR15 -3.10 dB -24.45 dB 2:08 06-Butters' Intro
DR10 -9.83 dB -24.66 dB 1:14 07-Lifeboat
DR12 -8.36 dB -24.40 dB 3:32 08-Marriage Talk
DR13 -5.03 dB -22.91 dB 2:22 09-Chinese Food
DR12 -6.62 dB -24.72 dB 2:40 10-Freeing Slaves
DR13 -4.79 dB -24.15 dB 2:12 11-Birdman News / Butters Likes Me
DR13 -4.74 dB -23.86 dB 1:42 12-Drive To Uncle Benny's / Leo Gets Arrested
DR12 -3.26 dB -22.63 dB 1:17 13-Uncle Benny's Restaurant
DR12 -0.20 dB -16.21 dB 3:29 14-Chinatown Chase
DR14 -1.18 dB -21.28 dB 1:27 15-Riggs Falls
DR12 -2.82 dB -20.28 dB 2:10 16-Tequila
DR12 -1.91 dB -17.60 dB 1:23 17-Chinese Prison
DR13 -2.47 dB -22.03 dB 2:17 18-Locker Room
DR15 -1.97 dB -21.58 dB 2:51 19-Cell Phone
DR12 -0.81 dB -18.67 dB 2:43 20-House Fight
DR13 -0.08 dB -16.87 dB 3:11 21-Ku Attacks
––––––––––––––––––––––––––––––––––––––––

Number of tracks: 21
Official DR value: DR13

Samplerate: 44100 Hz
Channels: 2
Bits per sample: 16
Bitrate: 660 kbps
Codec: FLAC
================================================================================


Exact Audio Copy V1.0 beta 3 from 29. August 2011

EAC extraction logfile from 26. January 2014, 14:47

Michael Kamen, Eric Clapton & David Sanborn / Lethal Weapon 4 (Disc 2)

Used drive : TSSTcorpCDDVDW SH-S202H Adapter: 0 ID: 0

Read mode : Secure
Utilize accurate stream : Yes
Defeat audio cache : Yes
Make use of C2 pointers : No

Read offset correction : 6
Overread into Lead-In and Lead-Out : No
Fill up missing offset samples with silence : Yes
Delete leading and trailing silent blocks : No
Null samples used in CRC calculations : Yes
Used interface : Native Win32 interface for Win NT & 2000

Used output format : Internal WAV Routines
Sample format : 44.100 Hz; 16 Bit; Stereo


TOC of the extracted CD

Track | Start | Length | Start sector | End sector
––––––––––––––––––––––––––––-
1 | 0:00.00 | 4:52.66 | 0 | 21965
2 | 4:52.66 | 4:05.16 | 21966 | 40356
3 | 8:58.07 | 2:35.00 | 40357 | 51981
4 | 11:33.07 | 1:16.34 | 51982 | 57715
5 | 12:49.41 | 3:33.35 | 57716 | 73725
6 | 16:23.01 | 4:52.18 | 73726 | 95643
7 | 21:15.19 | 4:59.65 | 95644 | 118133
8 | 26:15.09 | 3:44.61 | 118134 | 134994
9 | 29:59.70 | 1:45.35 | 134995 | 142904
10 | 31:45.30 | 2:54.06 | 142905 | 155960
11 | 34:39.36 | 3:37.69 | 155961 | 172304
12 | 38:17.30 | 2:52.24 | 172305 | 185228
13 | 41:09.54 | 1:46.61 | 185229 | 193239
14 | 42:56.40 | 3:26.49 | 193240 | 208738
15 | 46:23.14 | 2:06.74 | 208739 | 218262


Range status and errors

Selected range

Filename D:\Michael Kamen, Eric Clapton & David Sanborn - Lethal Weapon 4\Michael Kamen, Eric Clapton & David Sanborn - Lethal Weapon 4 (Disc 2).wav

Peak level 99.9 %
Extraction speed 7.3 X
Range quality 100.0 %
Test CRC CDA9C462
Copy CRC CDA9C462
Copy OK

No errors occurred


AccurateRip summary

Track 1 accurately ripped (confidence 1) [55FF4AD5] (AR v2)
Track 2 accurately ripped (confidence 1) [F6359648] (AR v2)
Track 3 accurately ripped (confidence 1) [6689D65E] (AR v2)
Track 4 accurately ripped (confidence 1) [89FA6D58] (AR v2)
Track 5 accurately ripped (confidence 1) [998A6F19] (AR v2)
Track 6 accurately ripped (confidence 1) [0B775546] (AR v2)
Track 7 accurately ripped (confidence 1) [A02175AC] (AR v2)
Track 8 accurately ripped (confidence 1) [9C9CB1BB] (AR v2)
Track 9 accurately ripped (confidence 1) [94AB057B] (AR v2)
Track 10 accurately ripped (confidence 1) [93BA3D0B] (AR v2)
Track 11 accurately ripped (confidence 1) [F5A2CD07] (AR v2)
Track 12 accurately ripped (confidence 1) [27EE4ED1] (AR v2)
Track 13 accurately ripped (confidence 1) [E4C5BD82] (AR v2)
Track 14 accurately ripped (confidence 1) [88BC9B79] (AR v2)
Track 15 accurately ripped (confidence 1) [1AA216EF] (AR v2)

All tracks accurately ripped

End of status report

==== Log checksum 55F4CAFFC39B9453A74AF45FB909242E60A9C221DB5D8060B9E1E104335D73E4 ====

foobar2000 1.2 / Dynamic Range Meter 1.1.1
log date: 2014-12-22 19:45:51

––––––––––––––––––––––––––––––––––––––––
Analyzed: Michael Kamen, Eric Clapton & David Sanborn / Lethal Weapon 4 (Disc 2)
––––––––––––––––––––––––––––––––––––––––

DR Peak RMS Duration Track
––––––––––––––––––––––––––––––––––––––––
DR13 0.00 dB -15.56 dB 4:53 01-Freeway Chase
DR12 -0.29 dB -15.81 dB 4:05 02-Riggs On Table
DR10 -4.91 dB -19.41 dB 2:35 03-Four Fathers
DR13 -4.33 dB -23.32 dB 1:16 04-Holiday Talk
DR13 -0.12 dB -18.11 dB 3:33 05-Hong With Money / Money Montage
DR14 -0.26 dB -19.54 dB 4:52 06-Baby Train
DR12 -0.06 dB -15.44 dB 5:00 07-Warehouse Fight / Showdown
DR13 -0.02 dB -16.08 dB 3:45 08-Underwater Fight
DR10 -0.07 dB -13.62 dB 1:45 09-Underwater Fight Concludes
DR11 -0.28 dB -16.80 dB 2:54 10-Murtaugh To The Rescue
DR14 -2.30 dB -21.05 dB 3:38 11-Cemetery
DR14 -0.71 dB -19.91 dB 2:52 12-Hospital / Babies
DR14 -3.27 dB -24.15 dB 1:47 13-Butters' Intro (Alternate)
DR12 -0.78 dB -15.05 dB 3:27 14-Chinatown Chase (Alternate)
DR12 -0.01 dB -16.63 dB 2:07 15-Wild Takes
––––––––––––––––––––––––––––––––––––––––

Number of tracks: 15
Official DR value: DR12

Samplerate: 44100 Hz
Channels: 2
Bits per sample: 16
Bitrate: 739 kbps
Codec: FLAC
================================================================================




All thanks to original uploader - Composer's fan

More Movies & Soundtracks in Efgrapha Blog