Subcategories

Ryuichi Sakamoto & Kazumi Watanabe - Tokyo Joe (1982) Reissue 1991

Posted By: Designol
Ryuichi Sakamoto & Kazumi Watanabe - Tokyo Joe (1982) Reissue 1991

Ryuichi Sakamoto & Kazumi Watanabe - Tokyo Joe (1982) Reissue 1991
EAC | FLAC | Tracks (Cue&Log) ~ 325 Mb | Mp3 (CBR320) ~ 128 Mb | Scans included
Genre: Electronic, Fusion, Synthpop | Label: Denon | # DC-8586 | Time: 00:51:06

Ryuichi Sakamoto and Kazumi Watanabe early session works. Compilation of tracks from the albums "Thousand Knives" (1978), "Kylyn" (1979), "Kylyn Live" (1979) and the track "Tokyo Joe" which appeared on a various artists anthology "Tokyo-Paris-London-New York, Dancing Night" (1982, track recorded 1979).

Largely instrumental, this ~1980 album highlights the dual virtuosic wizardry of the fusion guitarist Kazumi Watanabe and the keyboardist/composer Ryuichi Sakamoto.

Energetic guitar/keyboard workouts are the norm for most of the record, but Sakamoto's then-wife Akiko Yano–an artist whose solo output as a singer-songwriter bests the combined work of both Sakamoto and Watanabe–graces a couple of the tracks with her singing, most notably the funky, disco-inflected "I'll Be There." (She also contributes Fender Rhodes parts to much of the album.)

"Alaska Moon" is gorgeous. The album overall is inessential but good, wholesome fun and highly recommended to fans of any of those mentioned above.

Review by Michael Mikesell, Amazon.com

Ryuichi Sakamoto & Kazumi Watanabe - Tokyo Joe (1982) Reissue 1991





Tracklist:

01. Tokyo Joe (04:10)
02. The end of Asia (06:25)
03. Zai guang dong shoo nian (07:15)
04. I'll be there (06:48)
05. E-Day project (05:56)
06. Thousand knives (09:40)
07. The river must flow (06:16)
08. Akasaka moon (04:33)


Exact Audio Copy V0.99 prebeta 5 from 4. May 2009

EAC extraction logfile from 31. October 2009, 16:40

Ryuichi Sakamoto & Kazumi Watanabe / Tokyo Joe

Used drive : ASUS DRW-2014L1 Adapter: 0 ID: 0

Read mode : Secure
Utilize accurate stream : Yes
Defeat audio cache : Yes
Make use of C2 pointers : No

Read offset correction : 6
Overread into Lead-In and Lead-Out : No
Fill up missing offset samples with silence : Yes
Delete leading and trailing silent blocks : No
Null samples used in CRC calculations : Yes
Used interface : Native Win32 interface for Win NT & 2000
Gap handling : Appended to previous track

Used output format : User Defined Encoder
Selected bitrate : 1024 kBit/s
Quality : High
Add ID3 tag : No
Command line compressor : C:\Program Files\Exact Audio Copy\FLAC\FLAC.EXE
Additional command line options : -8 -V -T "ARTIST=%a" -T "TITLE=%t" -T "ALBUM=%g" -T "DATE=%y" -T "TRACKNUMBER=%n" -T "GENRE=%m" -T "COMMENT=EAC FLAC -8" %s


TOC of the extracted CD

Track | Start | Length | Start sector | End sector
––––––––––––––––––––––––––––-
1 | 0:00.00 | 4:10.40 | 0 | 18789
2 | 4:10.40 | 6:25.45 | 18790 | 47709
3 | 10:36.10 | 7:15.20 | 47710 | 80354
4 | 17:51.30 | 6:48.05 | 80355 | 110959
5 | 24:39.35 | 5:56.57 | 110960 | 137716
6 | 30:36.17 | 9:40.35 | 137717 | 181251
7 | 40:16.52 | 6:16.08 | 181252 | 209459
8 | 46:32.60 | 4:33.55 | 209460 | 229989


Track 1

Filename C:\Ryuichi Sakamoto & Kazumi Watanabe - Tokyo Joe (1991) [FLAC] {Denon Records DC-8586}\01 - Tokyo Joe.wav

Pre-gap length 0:00:02.00

Peak level 78.0 %
Track quality 100.0 %
Test CRC EE9D31AF
Copy CRC EE9D31AF
Track not present in AccurateRip database
Copy OK

Track 2

Filename C:\Ryuichi Sakamoto & Kazumi Watanabe - Tokyo Joe (1991) [FLAC] {Denon Records DC-8586}\02 - The end of Asia.wav

Pre-gap length 0:00:04.50

Peak level 65.4 %
Track quality 100.0 %
Test CRC 8062BC1A
Copy CRC 8062BC1A
Track not present in AccurateRip database
Copy OK

Track 3

Filename C:\Ryuichi Sakamoto & Kazumi Watanabe - Tokyo Joe (1991) [FLAC] {Denon Records DC-8586}\03 - Zai guang dong shoo nian.wav

Pre-gap length 0:00:04.25

Peak level 87.7 %
Track quality 100.0 %
Test CRC 12DB91BB
Copy CRC 12DB91BB
Track not present in AccurateRip database
Copy OK

Track 4

Filename C:\Ryuichi Sakamoto & Kazumi Watanabe - Tokyo Joe (1991) [FLAC] {Denon Records DC-8586}\04 - I'll be there.wav

Pre-gap length 0:00:04.30

Peak level 97.8 %
Track quality 100.0 %
Test CRC 62C25D5A
Copy CRC 62C25D5A
Track not present in AccurateRip database
Copy OK

Track 5

Filename C:\Ryuichi Sakamoto & Kazumi Watanabe - Tokyo Joe (1991) [FLAC] {Denon Records DC-8586}\05 - E-Day project.wav

Pre-gap length 0:00:03.70

Peak level 69.6 %
Track quality 100.0 %
Test CRC 12473754
Copy CRC 12473754
Track not present in AccurateRip database
Copy OK

Track 6

Filename C:\Ryuichi Sakamoto & Kazumi Watanabe - Tokyo Joe (1991) [FLAC] {Denon Records DC-8586}\06 - Thousand knives.wav

Pre-gap length 0:00:04.00

Peak level 92.1 %
Track quality 100.0 %
Test CRC E87F5DFF
Copy CRC E87F5DFF
Track not present in AccurateRip database
Copy OK

Track 7

Filename C:\Ryuichi Sakamoto & Kazumi Watanabe - Tokyo Joe (1991) [FLAC] {Denon Records DC-8586}\07 - The river must flow.wav

Pre-gap length 0:00:04.20

Peak level 65.5 %
Track quality 100.0 %
Test CRC 0B839D02
Copy CRC 0B839D02
Track not present in AccurateRip database
Copy OK

Track 8

Filename C:\Ryuichi Sakamoto & Kazumi Watanabe - Tokyo Joe (1991) [FLAC] {Denon Records DC-8586}\08 - Akasaka moon.wav

Pre-gap length 0:00:04.05

Peak level 50.8 %
Track quality 100.0 %
Test CRC D5DDF3FF
Copy CRC D5DDF3FF
Track not present in AccurateRip database
Copy OK


None of the tracks are present in the AccurateRip database

No errors occurred

End of status report

foobar2000 1.2 / Dynamic Range Meter 1.1.1
log date: 2016-04-16 14:29:56

––––––––––––––––––––––––––––––––––––––––
Analyzed: Ryuichi Sakamoto & Kazumi Watanabe / Tokyo Joe
––––––––––––––––––––––––––––––––––––––––

DR Peak RMS Duration Track
––––––––––––––––––––––––––––––––––––––––
DR15 -2.15 dB -19.20 dB 4:11 01-Tokyo Joe
DR12 -3.68 dB -18.77 dB 6:26 02-The end of Asia
DR14 -1.13 dB -18.22 dB 7:15 03-Zai guang dong shoo nian
DR17 -0.19 dB -20.16 dB 6:48 04-I'll be there
DR15 -3.14 dB -20.78 dB 5:57 05-E-Day project
DR14 -0.71 dB -16.89 dB 9:40 06-Thousand knives
DR15 -3.67 dB -22.98 dB 6:16 07-The river must flow
DR14 -5.87 dB -25.41 dB 4:34 08-Akasaka moon
––––––––––––––––––––––––––––––––––––––––

Number of tracks: 8
Official DR value: DR14

Samplerate: 44100 Hz
Channels: 2
Bits per sample: 16
Bitrate: 718 kbps
Codec: FLAC
================================================================================

Ryuichi Sakamoto & Kazumi Watanabe - Tokyo Joe (1982) Reissue 1991

All thanks to original releaser - dkmusik

More interesting music in My Blog