Subcategories
Tags
Language
Tags

Soft Machine - Original Album Classics (2010) 5CD Box Set [Re-Up]

Posted By: Designol
Soft Machine - Original Album Classics (2010) 5CD Box Set [Re-Up]

Soft Machine - Original Album Classics (2010) 5CD Box Set
EAC | FLAC | Image (Cue&Log) ~ 1.46 Gb | Mp3 (CBR320) ~ 637 Mb | Scans ~ 69 Mb
Label: Sony Music | # 88697781442 | Time: 04:28:31
Canterbury Scene, Jazz Fusion, Prog-Rock, Art Rock, Psychedelic Rock

2010 five CD box set containing a quintet of albums from the British Art-Rockers. Box includes Soft Machine Third, Fourth, Fifth, Six & Seven.

Soft Machine were never a commercial enterprise and indeed still remain unknown even to many listeners who came of age during the late '60s and early ‘70s, when the group was at its peak. In their own way, however, they were one of the more influential bands of their era, and certainly one of the most influential underground ones. One of the original British psychedelic groups, they were also instrumental in the birth of both progressive rock and jazz-rock. They were also the central foundation of the family tree of the "Canterbury Scene" of British progressive rock acts, a movement that also included Caravan, Gong, Matching Mole, Hatfield and the North, and National Health, not to mention the distinguished pop music careers of founding members Robert Wyatt and Kevin Ayers and the jazz and jazz-rock explorations of saxophonist Elton Dean and bassist Hugh Hopper.

Considering their well-known experimental and avant-garde leanings, the roots of Soft Machine were in some respects surprisingly conventional. In the mid-'60s, Wyatt sang and drummed with the Wilde Flowers, a Canterbury group that played more or less conventional pop and soul covers of the day. Future Soft Machine members Ayers and Hopper would also pass through the Wilde Flowers, whose original material began to reflect an odd sensibility, cultivated by their highly educated backgrounds and a passion for improvised jazz. In 1966, Wyatt teamed up with bassist/singer Ayers, keyboardist Mike Ratledge, and Australian guitarist Daevid Allen to form the first lineup of Soft Machine.

This incarnation of the group, along with Pink Floyd and Tomorrow, were the very first underground psychedelic bands in Britain, and quickly became well loved in the burgeoning London psychedelic underground. Their first recordings (many of which only surfaced years later on compilations of 1967 demos) were by far their most pop-oriented, which doesn't mean they weren't exciting or devoid of experimental elements. Surreal wordplay and unusually (for rock) complex instrumental interplay gave an innovative edge to their ebullient early psychedelic outings. They only managed to cut one (very good) single, though, which flopped. Allen, the weirdest of a colorful group of characters, had to leave the band when he was refused reentry into the U.K. after a stint in France, due to the expiration of his visa.

The remaining trio recorded its first proper album, Soft Machine [Volume One], for ABC/Probe in 1968. The considerable melodic elements and vocal harmonies of their 1967 recordings were now giving way to more challenging, artier postures that sought – sometimes successfully, sometimes not – to meld the energy of psychedelic rock with the improvisational pulse of jazz. The Softs were taken on by Jimi Hendrix's management, leading to grueling stints supporting the Jimi Hendrix Experience on their 1968 American tours. Because of this, the group at this point was probably more well-known in the U.S. than in its homeland. In fact, the debut LP was only issued, oddly, in the States. For a couple of months in 1968, strangely enough, Soft Machine became a quartet again with the addition of future Police guitarist Andy Summers, although that didn't work out, and they soon reverted to a trio. The punishing tours took their toll on the group, and Ayers had left by the end of 1968, to be replaced by Wyatt's old chum Hugh Hopper.

Their second ABC/Probe album, Volume Two (1969), further submerged the band's pop elements in favor of extended jazzy compositions, with an increasingly lesser reliance on lyrics and vocals. Ratledge's buzzy organ, Hopper’s fuzz bass, and Wyatt's pummeling, imaginative drumming and scat vocals paced the band on material that became increasingly whimsical and surrealistic, if increasingly inaccessible to the pop/rock audience. For the 1970 double-LP opus Third, their first album for Columbia, they went even further in these directions, expanding to a seven-piece by adding a horn section. This record virtually dispensed with vocals – aside from Wyatt’s side-long “Moon in June” – and conventional rock songs entirely, and is considered a landmark by both progressive rock and jazz-rock aficionados (upon its release, the album was hailed as a popular music milestone by The Village Voice), though it was too oblique for some rock listeners. Notably, Third marked the first appearance on a Softs disc by saxophonist Elton Dean, whose contributions on alto and saxello would, along with Ratledge’s fuzz organ and Hopper’s fuzz bass, become key elements of the band’s signature instrumental sound.
Soft Machine couldn't afford to continue to support a seven-member lineup, and scaled back to what was later deemed by some listeners to be “the classic quartet” – Ratledge, Wyatt, Hopper, and Dean – for 1971’s Fourth (also on Columbia), although the group was augmented by a number of guest musicians, including bassist Roy Babbington, who would become a permanent bandmember later. Wyatt left by the end of 1971, briefly leading the similar Matching Mole, and then establishing a long-running solo career. In doing so he was following the path of Kevin Ayers, who already had several solo albums to his credit by the early '70s; Daevid Allen, for his part, had become a principal of Gong, one of the most prominent and enigmatic '70s progressive rock bands (which continued in various incarnations into the 21st century).

Meanwhile, as of 1972 saxophonist Dean was pulling the band in a free jazz, more fully improvised direction, which led to the brief appearance of Phil Howard as drummer on the first side of that year’s Fifth (the third Soft Machine album on Columbia). However, Ratledge and Hopper prevailed in favor of John Marshall as a replacement for Howard, and Marshall appears as drummer on the second side of Fifth and all the Soft Machine albums to follow. Dean also left by 1973’s Columbia double LP Six (one disc live, and one recorded in the studio), replaced by keyboardist/reedman/composer Karl Jenkins. Hopper would be next to leave, with Babbington taking his place on bass, and by then (the release of 1973’s Seven, Soft Machine's final Columbia album before signing with Harvest) Ratledge was the last original member in the band. (In fact, since Marshall, Jenkins, and Babbington were all former members of Nucleus, the group had evolved into a curious mix of three-fourths Nucleus and one-fourth Soft Machine.)

By now, Ratledge himself was beginning to lose interest during the band’s so-called fusion years, and as Jenkins began focusing more exclusively on keyboards and dropping his reeds during the mid-'70s, Ratledge's retreat became all the more inevitable. The soloing spotlight shifted to a new recruit, guitarist Allan Holdsworth, on the group’s 1975 Harvest debut, Bundles, and then guitarist John Etheridge (who replaced Holdsworth in April 1975) on the following year’s Harvest follow-up, Softs – on which Ratledge was relegated to "guest" status after departing the group in early 1976 when that album's recording sessions were underway. The band now known as Soft Machine – but with no original members whatsoever – still managed a decent fusion-oriented album with the 1978 Harvest-issued Alive and Well: Recorded in Paris, but lackluster efforts like 1981’s Land of Cockayne (featuring Jack Bruce on bass!) and 1994’s Rubber Riff (actually a ‘70s-era album of Jenkins library music rebranded as Soft Machine) were truly Soft Machine in name only.

The following decades would see Elton Dean and Hugh Hopper particularly willing to continue Soft Machine-related journeys in groups like Soft Heap, Soft Works, and Soft Machine Legacy, although their deaths in the 2000s – Dean in 2006 and Hopper in 2009 – seemed to put a final end to the group’s jazz-rock thread. Nevertheless, as of 2010 drummer Marshall, guitarist Etheridge, and bassist Babbington (all of whom appeared on Softs in 1976) could be heard along with former Gong reedman Theo Travis on the Soft Machine Legacy album Live Adventures, released by the MoonJune label and featuring an abbreviated version of Hopper’s “Facelift,” the album-opening track from The Softs’ heralded 1970 Columbia double LP Third. And thanks to labels such as Cuneiform and Voiceprint, many archival recordings of the various incarnations of Soft Machine continued to be released into the 21st century.

Biography by Dave Lynch, Allmusic.com

Soft Machine - Original Album Classics (2010) 5CD Box Set [Re-Up]

Soft Machine: Elton Dean, Mike Ratledge, Robert Wyatt, Hugh Hopper

The Soft Machine at Wiki




Soft Machine - Original Album Classics (2010) 5CD Box Set [Re-Up]

Soft Machine - Original Album Classics (2010) 5CD Box Set [Re-Up]

CD1: Third (1970)
EAC | FLAC | Image (Cue&Log) ~ 393 Mb | Mp3 (CBR320) ~ 172 Mb | Time: 01:15:14

The Soft Machine plunged deeper into jazz and contemporary electronic music on this pivotal release, which incited the Village Voice to call it a milestone achievement when it was released. It's a double album of stunning music, with each side devoted to one composition – two by Mike Ratledge, and one each by Hopper and Wyatt, with substantial help from a number of backup musicians, including Canterbury mainstays Elton Dean and Jimmy Hastings. The Ratledge songs come closest to fusion jazz, although this is fusion laced with tape loop effects and hypnotic, repetitive keyboard patterns. Hugh Hopper's "Facelift" recalls "21st Century Schizoid Man" by King Crimson, although it's more complex, with several quite dissimilar sections. The pulsing rhythms, chaotic horn and keyboard sounds, and dark drones on "Facelift" predate some of what Hopper did as a solo artist later (this song was actually culled from two live performances in 1970). Robert Wyatt draws on musical ideas from early 1967 demos done with producer Giorgio Gomelsky, on his capricious composition "Moon in June." Lyrically, it's a satirical alternative to the pretension displayed by a lot of rock writing of the era, and combined with the Softs' exotic instrumentation, it makes for quite a listen (the collection Triple Echo includes a BBC broadcast recording of this song, with different albeit equally fanciful lyrics). Not exactly rock, Third nonetheless pushed the boundaries of rock into areas previously unexplored, and it managed to do so without sounding self-indulgent. A better introduction to the group is either of the first two records, but once introduced, this is the place to go.

Review by Peter Kurtz, Allmusic.com

Tracklist:

01. Facelift (18:48)
02. Slightly All The Time (18:14)
03. Moon In June (19:08)
04. Out-Bloody-Rageous (19:12)


Exact Audio Copy V1.0 beta 3 from 29. August 2011

EAC extraction logfile from 29. July 2012, 23:25

Soft Machine / Third (CD1: The Original Album)

Used drive : PIONEER DVD-RW DVR-218L Adapter: 1 ID: 0

Read mode : Secure
Utilize accurate stream : Yes
Defeat audio cache : Yes
Make use of C2 pointers : No

Read offset correction : 6
Overread into Lead-In and Lead-Out : No
Fill up missing offset samples with silence : Yes
Delete leading and trailing silent blocks : No
Null samples used in CRC calculations : Yes
Used interface : Native Win32 interface for Win NT & 2000

Used output format : User Defined Encoder
Selected bitrate : 896 kBit/s
Quality : High
Add ID3 tag : No
Command line compressor : C:\Program Files\Exact Audio Copy\wavpack\wavpack.exe
Additional command line options : -hlmx2 %source% %dest%


TOC of the extracted CD

Track | Start | Length | Start sector | End sector
––––––––––––––––––––––––––––-
1 | 0:00.00 | 18:48.28 | 0 | 84627
2 | 18:48.28 | 18:13.43 | 84628 | 166645
3 | 37:01.71 | 19:07.74 | 166646 | 252744
4 | 56:09.70 | 19:11.62 | 252745 | 339131


Range status and errors

Selected range

Filename C:\Documents and Settings\empireisky\Мои документы\Моя музыка\Soft Machine - The Original Album (5CD)\CD1 - Third\Soft Machine - Third (CD1- The Original Album).wav

Peak level 98.8 %
Extraction speed 1.6 X
Range quality 100.0 %
Test CRC 4B28D8BD
Copy CRC 4B28D8BD
Copy OK

No errors occurred


AccurateRip summary

Track 1 accurately ripped (confidence 4) [DABE6435] (AR v2)
Track 2 accurately ripped (confidence 4) [55A821B9] (AR v2)
Track 3 accurately ripped (confidence 4) [5A16B1CA] (AR v2)
Track 4 accurately ripped (confidence 4) [BE76187A] (AR v2)

All tracks accurately ripped

End of status report

–– CUETools DB Plugin V2.1.3

[CTDB TOCID: JSTfhm873IgC.9RD._zdS3xROsc-] found, Submit result: JSTfhm873IgC.9RD._zdS3xROsc- has been confirmed
[c46e6da0] (74/74) Accurately ripped


==== Log checksum FFD82FC269B871C7A3DDEAC81D6FB3916B34F3486127E547249CE3D6F954E15F ====

[CUETools log; Date: 23.08.2012 11:09:08; Version: 2.1.4]
[CTDB TOCID: JSTfhm873IgC.9RD._zdS3xROsc-] found.
Track | CTDB Status
1 | (13/13) Accurately ripped
2 | (13/13) Accurately ripped
3 | (13/13) Accurately ripped
4 | (13/13) Accurately ripped
[AccurateRip ID: 000cdd8f-003382db-1e11a904] found.
Track [ CRC | V2 ] Status
01 [188f0d3f|dabe6435] (05+05/74) Accurately ripped
02 [29a48c53|55a821b9] (05+05/75) Accurately ripped
03 [7a6bcede|5a16b1ca] (05+05/76) Accurately ripped
04 [01fc8f8f|be76187a] (05+05/76) Accurately ripped
Offsetted by -48:
01 [dd6bac37] (55/74) Accurately ripped
02 [8583ed4b] (56/75) Accurately ripped
03 [d3d3acce] (57/76) Accurately ripped
04 [ccc2c38f] (58/76) Accurately ripped
Offsetted by -36:
01 [6d0c83a1] (05/74) Accurately ripped
02 [2db415e5] (05/75) Accurately ripped
03 [7d79b552] (05/76) Accurately ripped
04 [1a11368f] (05/76) Accurately ripped

Track Peak [ CRC32 ] [W/O NULL] [ LOG ]
– 98,8 [4B28D8BD] [F78EF8C6] CRC32
01 98,8 [DA64D6C5] [0C808AAA]
02 98,8 [F301B848] [5BE4398E]
03 98,8 [F1FFC722] [B387E627]
04 98,8 [C036B622] [5F0CAAB2]

foobar2000 1.1.1 / Dynamic Range Meter 1.1.1

log date: 2012-08-23 10:15:01



––––––––––––––––––––––––––––––––––––––––

Analyzed: Soft Machine / Third (CD1: The Original Album)

––––––––––––––––––––––––––––––––––––––––



DR Peak RMS Duration Track

––––––––––––––––––––––––––––––––––––––––

DR9 -0.10 dB -12.49 dB 18:48 01-Facelift (Live)

DR7 -0.10 dB -8.62 dB 18:14 02-Slightly All The Time

DR8 -0.10 dB -9.87 dB 19:08 03-Moon In June

DR9 -0.10 dB -10.52 dB 19:12 04-Out-Bloody-Rageous

––––––––––––––––––––––––––––––––––––––––



Number of tracks: 4

Official DR value: DR8



Samplerate: 44100 Hz

Channels: 2

Bits per sample: 16

Bitrate: 730 kbps

Codec: FLAC

================================================================================




Soft Machine - Original Album Classics (2010) 5CD Box Set [Re-Up]

Soft Machine - Original Album Classics (2010) 5CD Box Set [Re-Up]

CD2: Fourth (1971)
EAC | FLAC | Image (Cue&Log) ~ 213 Mb | Mp3 (CBR320) ~ 89 Mb | Time: 00:39:10

The Soft Machine's collective skill is hyper-complex and refined, as they are extremely literate in all fields of musical study. Fourth is the band's free purging of all of that knowledge, woven into noisy, smoky structures of sound. Their arcane rhythms have a stop-and-go mentality of their own that sounds incredibly fresh even though it is sonically steeped in soft and warm tones. Obviously there is a lot of skillful playing going on, as the mix of free jazz, straight-ahead jazz, and Gong-like psychedelia coalesces into a skronky plateau. Robert Wyatt's drumming is impeccable – so perfect that it at times becomes an unnoticeable map upon which the band takes their instinctive direction. Mike Ratledge's keys are warm throughout, maintaining an earthy quality that keeps its eye on the space between the ground and the heavens that the Soft Machine attempt to inhabit. Elton Dean's saxophone work screams out the most inventive cadence, and since it's hardly rhythmic, it takes front and center, spitting out a crazy language. Certainly the band is the preface to a good portion of Chicago's post-rock output, as they undoubtedly give a nod to Miles Davis' Bitches Brew experiments, which were going on in the U.S. at the same time.

Review by Ken Taylor, Allmusic.com

Tracklist:

01. Teeth (9:16)
02. Kings And Queens (5:01)
03. Fletcher's Blemish (4:38)
04. Virtually Part 1 (5:16)
05. Virtually Part 2 (7:06)
06. Virtually Part 3 (4:33)
07. Virtually Part 4 (3:23)


Exact Audio Copy V1.0 beta 3 from 29. August 2011

EAC extraction logfile from 30. July 2012, 0:41

Soft Machine / Fourth (CD2 - The Original Album)

Used drive : PIONEER DVD-RW DVR-218L Adapter: 1 ID: 0

Read mode : Secure
Utilize accurate stream : Yes
Defeat audio cache : Yes
Make use of C2 pointers : No

Read offset correction : 6
Overread into Lead-In and Lead-Out : No
Fill up missing offset samples with silence : Yes
Delete leading and trailing silent blocks : No
Null samples used in CRC calculations : Yes
Used interface : Native Win32 interface for Win NT & 2000

Used output format : User Defined Encoder
Selected bitrate : 896 kBit/s
Quality : High
Add ID3 tag : No
Command line compressor : C:\Program Files\Exact Audio Copy\wavpack\wavpack.exe
Additional command line options : -hlmx2 %source% %dest%


TOC of the extracted CD

Track | Start | Length | Start sector | End sector
––––––––––––––––––––––––––––-
1 | 0:00.00 | 9:15.51 | 0 | 41675
2 | 9:15.51 | 5:01.36 | 41676 | 64286
3 | 14:17.12 | 4:38.22 | 64287 | 85158
4 | 18:55.34 | 5:16.09 | 85159 | 108867
5 | 24:11.43 | 7:06.26 | 108868 | 140843
6 | 31:17.69 | 4:33.32 | 140844 | 161350
7 | 35:51.26 | 3:22.72 | 161351 | 176572


Range status and errors

Selected range

Filename C:\Documents and Settings\empireisky\Мои документы\Моя музыка\Soft Machine - The Original Album (5CD)\CD2\Soft Machine - Fourth (CD2 - The Original Album).wav

Peak level 98.8 %
Extraction speed 1.1 X
Range quality 100.0 %
Test CRC 8FA67D70
Copy CRC 8FA67D70
Copy OK

No errors occurred


AccurateRip summary

Track 1 accurately ripped (confidence 5) [CA471CEA] (AR v2)
Track 2 accurately ripped (confidence 5) [CA2BEEB4] (AR v2)
Track 3 accurately ripped (confidence 5) [8913C649] (AR v2)
Track 4 accurately ripped (confidence 5) [D4D131C1] (AR v2)
Track 5 accurately ripped (confidence 5) [334F53AC] (AR v2)
Track 6 accurately ripped (confidence 5) [B282B894] (AR v2)
Track 7 accurately ripped (confidence 5) [30E0002D] (AR v2)

All tracks accurately ripped

End of status report

–– CUETools DB Plugin V2.1.3

[CTDB TOCID: PJU_3cCTDyCdQ2rfT_EsMDZn8c0-] found, Submit result: PJU_3cCTDyCdQ2rfT_EsMDZn8c0- has been confirmed
[f7b5286f] (15/15) Accurately ripped


==== Log checksum 8041D314B2120FEA9DD04CED7DCF859AC5A50B0E9F77BB60F48E19CC807C0734 ====

[CUETools log; Date: 23.08.2012 11:09:23; Version: 2.1.4]
[CTDB TOCID: PJU_3cCTDyCdQ2rfT_EsMDZn8c0-] found.
Track | CTDB Status
1 | (10/10) Accurately ripped
2 | (10/10) Accurately ripped
3 | (10/10) Accurately ripped
4 | (10/10) Accurately ripped
5 | (10/10) Accurately ripped
6 | (10/10) Accurately ripped
7 | (10/10) Accurately ripped
[AccurateRip ID: 000be206-004566c7-66093207] found.
Track [ CRC | V2 ] Status
01 [55045ae8|ca471cea] (07+06/29) Accurately ripped
02 [cfe52e9b|ca2beeb4] (07+06/29) Accurately ripped
03 [b224b59e|8913c649] (07+06/29) Accurately ripped
04 [c0b52a38|d4d131c1] (07+06/29) Accurately ripped
05 [8c39477a|334f53ac] (07+06/28) Accurately ripped
06 [85735393|b282b894] (07+06/28) Accurately ripped
07 [075866b3|30e0002d] (07+06/27) Accurately ripped
Offsetted by -12:
01 [45534780] (16/29) Accurately ripped
02 [a1501d69] (16/29) Accurately ripped
03 [24207564] (16/29) Accurately ripped
04 [84200310] (16/29) Accurately ripped
05 [edcb0e21] (15/28) Accurately ripped
06 [4f7ea1c0] (15/28) Accurately ripped
07 [e47ada37] (14/27) Accurately ripped

Track Peak [ CRC32 ] [W/O NULL] [ LOG ]
– 98,8 [8FA67D70] [3C02DD56] CRC32
01 98,8 [3802D967] [F8E46B05]
02 98,8 [7FA81578] [34AA5F8F]
03 98,8 [B1493A93] [743E9CB6]
04 98,8 [6EE48AE3] [09162B63]
05 98,8 [26C97160] [D1151304]
06 98,8 [BC91CC36] [335AFCF1]
07 98,8 [7164E185] [1325A629]

foobar2000 1.1.1 / Dynamic Range Meter 1.1.1

log date: 2012-08-23 10:15:13



––––––––––––––––––––––––––––––––––––––––

Analyzed: Soft Machine / Fourth (CD2: The Original Album)

––––––––––––––––––––––––––––––––––––––––



DR Peak RMS Duration Track

––––––––––––––––––––––––––––––––––––––––

DR10 -0.10 dB -12.79 dB 9:16 01-Teeth

DR14 -0.10 dB -14.59 dB 5:01 02-Kings And Queens

DR8 -0.10 dB -12.08 dB 4:38 03-Fletcher's Blemish

DR11 -0.10 dB -14.46 dB 5:16 04-Virtually Part 1

DR10 -0.10 dB -11.15 dB 7:06 05-Virtually Part 2

DR10 -0.10 dB -13.90 dB 4:33 06-Virtually Part 3

DR11 -0.10 dB -16.24 dB 3:23 07-Virtually Part 4

––––––––––––––––––––––––––––––––––––––––



Number of tracks: 7

Official DR value: DR11



Samplerate: 44100 Hz

Channels: 2

Bits per sample: 16

Bitrate: 760 kbps

Codec: FLAC

================================================================================




Soft Machine - Original Album Classics (2010) 5CD Box Set [Re-Up]

Soft Machine - Original Album Classics (2010) 5CD Box Set [Re-Up]

CD3: Fifth (1973)
EAC | FLAC | Image (Cue&Log) ~ 252 Mb | Mp3 (CBR320) ~ 100 Mb | Time: 00:43:45

As the Soft Machine moved further away from rock on Third and Fourth, drummer/vocalist Robert Wyatt's dissatisfaction with the band's direction grew and, by the time sessions started for Fifth in late 1971, he had left permanently to form Matching Mole. While the instrumental Fourth had forayed deep into jazz-rock territory, Fifth found the Soft Machine working almost completely in the jazz idiom. At the time of Wyatt's departure, keyboardist Mike Ratledge commented that the band's co-founder had "never enjoyed or accepted working in complex time signatures." However, Wyatt's replacement – Phil Howard – didn't prove to be the kind of timekeeper Ratledge and bassist Hugh Hopper had in mind and his free jazz orientation led to his dismissal during the recording of the album. Howard's propulsive rhythms nevertheless make a vital contribution to memorable Ratledge compositions like "All White" and "Drop" as they gather momentum and coalesce into driving grooves. "All White" is focused largely on Elton Dean's sax performance while "Drop" ultimately showcases the intense busy fuzz of Ratledge's organ. In places on Fifth, there does seem to be an element of tension between the more structured approach of Ratledge and Hopper and the free-form inclinations of Dean. The looser style of Dean's squalling sax playing is foregrounded particularly on "As If" – another Ratledge piece. A certain constituency among Soft Machine fans tends to concentrate on the band's earlier releases and to consider everything from Fourth onward less compelling. That attitude has something to do with not being especially interested in jazz, so it's not entirely fair to dismiss this album without qualifying such a judgment. Anyone expecting to hear a rock album or a jazz-rock album will probably be disappointed with Fifth. This is essentially a jazz record, more concerned with texture and interplay than with song-based structures.

Review by Wilson Neate, Allmusic.com

Tracklist:

01. All White (6:01)
02. Drop (7:50)
03. M C (4:57)
04. As If (8:02)
05. L B O (1:53)
06. Pigling Bland (4:22)
07. Bone (3:35)
08. All White (Take Two) [Bonus Track] (7:13)


Exact Audio Copy V1.0 beta 3 from 29. August 2011

EAC extraction logfile from 30. July 2012, 2:02

Soft Machine / Fifth (CD3 - The Original Album)

Used drive : PIONEER DVD-RW DVR-218L Adapter: 1 ID: 0

Read mode : Secure
Utilize accurate stream : Yes
Defeat audio cache : Yes
Make use of C2 pointers : No

Read offset correction : 6
Overread into Lead-In and Lead-Out : No
Fill up missing offset samples with silence : Yes
Delete leading and trailing silent blocks : No
Null samples used in CRC calculations : Yes
Used interface : Native Win32 interface for Win NT & 2000

Used output format : User Defined Encoder
Selected bitrate : 896 kBit/s
Quality : High
Add ID3 tag : No
Command line compressor : C:\Program Files\Exact Audio Copy\wavpack\wavpack.exe
Additional command line options : -hlmx2 %source% %dest%


TOC of the extracted CD

Track | Start | Length | Start sector | End sector
––––––––––––––––––––––––––––-
1 | 0:00.00 | 6:00.58 | 0 | 27057
2 | 6:00.58 | 7:49.47 | 27058 | 62279
3 | 13:50.30 | 4:56.57 | 62280 | 84536
4 | 18:47.12 | 8:02.04 | 84537 | 120690
5 | 26:49.16 | 1:53.31 | 120691 | 129196
6 | 28:42.47 | 4:21.44 | 129197 | 148815
7 | 33:04.16 | 3:34.59 | 148816 | 164924
8 | 36:39.00 | 7:12.64 | 164925 | 197388


Range status and errors

Selected range

Filename C:\Documents and Settings\empireisky\Мои документы\Моя музыка\Soft Machine - The Original Album (5CD)\CD3 - Fifth\Soft Machine - Fifth (CD3 - The Original Album).wav

Peak level 98.8 %
Extraction speed 1.2 X
Range quality 100.0 %
Test CRC 84CFBED9
Copy CRC 84CFBED9
Copy OK

No errors occurred


AccurateRip summary

Track 1 accurately ripped (confidence 5) [474DB270] (AR v2)
Track 2 accurately ripped (confidence 5) [7F5AD5B5] (AR v2)
Track 3 accurately ripped (confidence 5) [945F2505] (AR v2)
Track 4 accurately ripped (confidence 5) [54E6D87F] (AR v2)
Track 5 accurately ripped (confidence 5) [0AAA5900] (AR v2)
Track 6 accurately ripped (confidence 5) [DB0FFB3D] (AR v2)
Track 7 accurately ripped (confidence 5) [39349AA7] (AR v2)
Track 8 accurately ripped (confidence 5) [12EF2B28] (AR v2)

All tracks accurately ripped

End of status report

–– CUETools DB Plugin V2.1.3

[CTDB TOCID: LQVic9GffJgcWHEaJ37.o7OJ0KQ-] found, Submit result: LQVic9GffJgcWHEaJ37.o7OJ0KQ- has been confirmed
[46ccfb06] (6/6) Accurately ripped


==== Log checksum 72BFE6D973339A7D67AE40D6134A9A5CF9980653947D07D8D62C8D045FADE912 ====

[CUETools log; Date: 23.08.2012 11:09:38; Version: 2.1.4]
[CTDB TOCID: LQVic9GffJgcWHEaJ37.o7OJ0KQ-] found.
Track | CTDB Status
1 | (8/8) Accurately ripped
2 | (8/8) Accurately ripped
3 | (8/8) Accurately ripped
4 | (8/8) Accurately ripped
5 | (8/8) Accurately ripped
6 | (8/8) Accurately ripped
7 | (8/8) Accurately ripped
8 | (8/8) Accurately ripped
[AccurateRip ID: 000e43ed-005d01fb-5b0a4708] found.
Track [ CRC | V2 ] Status
01 [bbfcb29e|474db270] (08+06/32) Accurately ripped
02 [6878f08c|7f5ad5b5] (08+06/32) Accurately ripped
03 [7ae8b17e|945f2505] (08+06/32) Accurately ripped
04 [05873908|54e6d87f] (08+06/32) Accurately ripped
05 [60fa3c3e|0aaa5900] (08+06/32) Accurately ripped
06 [36e93071|db0ffb3d] (08+06/32) Accurately ripped
07 [24e27c21|39349aa7] (08+06/32) Accurately ripped
08 [5d95af08|12ef2b28] (08+06/31) Accurately ripped
Offsetted by -12:
01 [1f6ed0c7] (15/32) Accurately ripped
02 [4a5f8b1e] (15/32) Accurately ripped
03 [3b42920f] (15/32) Accurately ripped
04 [1124b252] (15/32) Accurately ripped
05 [2f7158e6] (15/32) Accurately ripped
06 [f08db81f] (15/32) Accurately ripped
07 [1462b637] (15/32) Accurately ripped
08 [39a90d1e] (14/31) Accurately ripped

Track Peak [ CRC32 ] [W/O NULL] [ LOG ]
– 98,8 [84CFBED9] [46042B2D] CRC32
01 98,8 [577F9982] [84F1B95F]
02 98,8 [D5473771] [96842D12]
03 98,8 [2252CD53] [6F409E76]
04 98,8 [30CB436B] [5C0519FB]
05 98,8 [F1F202BD] [FE5BFE9E]
06 98,8 [C344C939] [289F7406]
07 98,8 [1915CC00] [55C4AA1F]
08 98,8 [767A29F5] [7BF53A3C]

foobar2000 1.1.1 / Dynamic Range Meter 1.1.1

log date: 2012-08-23 10:15:27



––––––––––––––––––––––––––––––––––––––––

Analyzed: Soft Machine / Fifth (CD3: The Original Album)

––––––––––––––––––––––––––––––––––––––––



DR Peak RMS Duration Track

––––––––––––––––––––––––––––––––––––––––

DR13 -0.10 dB -16.02 dB 6:01 01-All White

DR13 -0.10 dB -16.09 dB 7:50 02-Drop

DR13 -0.10 dB -17.71 dB 4:57 03-M C

DR14 -0.10 dB -18.27 dB 8:02 04-As If

DR11 -0.10 dB -13.20 dB 1:53 05-L B O

DR13 -0.10 dB -15.31 dB 4:22 06-Pigling Bland

DR13 -0.10 dB -17.84 dB 3:35 07-Bone

DR12 -0.10 dB -15.25 dB 7:13 08-All White (Take Two) [Bonus Track]

––––––––––––––––––––––––––––––––––––––––



Number of tracks: 8

Official DR value: DR13



Samplerate: 44100 Hz

Channels: 2

Bits per sample: 16

Bitrate: 805 kbps

Codec: FLAC

================================================================================




Soft Machine - Original Album Classics (2010) 5CD Box Set [Re-Up]

Soft Machine - Original Album Classics (2010) 5CD Box Set [Re-Up]

CD4: Six (1973)
EAC | FLAC | Image (Cue&Log) ~ 403 Mb | Mp3 (CBR320) ~ 175 Mb | Time: 01:16:30

The Soft Machine were many things to many people, but to most, the real Soft Machine ceased to exist when founder Robert Wyatt left to work on his conspicuously titled Matching Mole project. This departure is generally credited to The Soft Machine's creative advance away from prog rock and toward jazz fusion. Three years and three records after Wyatt's departure, this creative motion was in full sail, and the release of Six cemented the band in their distant station beyond the gravity of anything that resembled rock and its spacious, cutting-edge sonics and more symmetrical rhythms. The jazz era that began on Fourth and continued through the '70s mutates slightly on Six, from the free improvisational structures used frequently on prior releases into a somewhat more constrained fusion design. This is due largely to new member Karl Jenkins, who makes a mighty impact on The Soft Machine's sound with his sax playing and songwriting – and who later took creative control over the group, bringing in several guitarists to solidify a fusion sound. Half live and half studio album, Six will never interest classic-era stalwarts, but Jenkins and drummer John Marshall lead old-timers Mike Ratledge and Hugh Hopper through some nifty fusion exercises that fans of the genre (and obscure '70s music if every kind) might find very enjoyable.

Review by Jason Anderson, Allmusic.com

Tracklist:

01. Fanfare (0:43)
02. All White (4:49)
03. Between (2:25)
04. Riff (4:33)
05. 37 1/2 (6:53)
06. Gesolreut (6:16)
07. E.P.V. (2:48)
08. Lefty (5:02)
09. Stumble (1:37)
10. 5 From 13 (For Phil Seamen With Love & Thanks) (5:15)
11. Riff II (1:29)
12. The Soft Weed Factor (11:20)
13. Stanley Stamps Gibbon Album (For B.O.) (6:01)
14. Chloe And The Pirates (9:32)
15. 1983 (7:55)


Exact Audio Copy V1.0 beta 3 from 29. August 2011

EAC extraction logfile from 30. July 2012, 5:30

Soft Machine / Six (CD4 - The Original Album)

Used drive : PIONEER DVD-RW DVR-218L Adapter: 1 ID: 0

Read mode : Secure
Utilize accurate stream : Yes
Defeat audio cache : Yes
Make use of C2 pointers : No

Read offset correction : 6
Overread into Lead-In and Lead-Out : No
Fill up missing offset samples with silence : Yes
Delete leading and trailing silent blocks : No
Null samples used in CRC calculations : Yes
Used interface : Native Win32 interface for Win NT & 2000

Used output format : User Defined Encoder
Selected bitrate : 896 kBit/s
Quality : High
Add ID3 tag : No
Command line compressor : C:\Program Files\Exact Audio Copy\wavpack\wavpack.exe
Additional command line options : -hlmx2 %source% %dest%


TOC of the extracted CD

Track | Start | Length | Start sector | End sector
––––––––––––––––––––––––––––-
1 | 0:00.00 | 0:42.65 | 0 | 3214
2 | 0:42.65 | 4:48.53 | 3215 | 24867
3 | 5:31.43 | 2:24.67 | 24868 | 35734
4 | 7:56.35 | 4:33.32 | 35735 | 56241
5 | 12:29.67 | 6:53.20 | 56242 | 87236
6 | 19:23.12 | 6:16.33 | 87237 | 115469
7 | 25:39.45 | 2:47.50 | 115470 | 128044
8 | 28:27.20 | 5:01.67 | 128045 | 150686
9 | 33:29.12 | 1:36.46 | 150687 | 157932
10 | 35:05.58 | 5:14.54 | 157933 | 181536
11 | 40:20.37 | 1:28.61 | 181537 | 188197
12 | 41:49.23 | 11:19.69 | 188198 | 239191
13 | 53:09.17 | 6:00.58 | 239192 | 266249
14 | 59:10.00 | 9:32.14 | 266250 | 309163
15 | 68:42.14 | 7:55.26 | 309164 | 344814


Range status and errors

Selected range

Filename C:\Documents and Settings\empireisky\Мои документы\Моя музыка\Soft Machine - The Original Album (5CD)\CD4 - Six\Soft Machine - Six (CD4 - The Original Album).wav

Peak level 98.8 %
Extraction speed 1.6 X
Range quality 99.9 %
Test CRC 4ADA6A54
Copy CRC 4ADA6A54
Copy OK

No errors occurred


AccurateRip summary

Track 1 accurately ripped (confidence 5) [8F26BB2B] (AR v2)
Track 2 accurately ripped (confidence 5) [A60C0E9F] (AR v2)
Track 3 accurately ripped (confidence 5) [A3AFDCF8] (AR v2)
Track 4 accurately ripped (confidence 5) [C34891C2] (AR v2)
Track 5 accurately ripped (confidence 5) [4F7AC9D9] (AR v2)
Track 6 accurately ripped (confidence 5) [7BBB47D0] (AR v2)
Track 7 accurately ripped (confidence 5) [ADEFBD34] (AR v2)
Track 8 accurately ripped (confidence 5) [F66B1E39] (AR v2)
Track 9 accurately ripped (confidence 5) [C4CDBDE0] (AR v2)
Track 10 accurately ripped (confidence 5) [F3782863] (AR v2)
Track 11 accurately ripped (confidence 5) [745C03E1] (AR v2)
Track 12 accurately ripped (confidence 5) [BA15713B] (AR v2)
Track 13 accurately ripped (confidence 5) [F3BD8A27] (AR v2)
Track 14 accurately ripped (confidence 5) [44862AB0] (AR v2)
Track 15 accurately ripped (confidence 5) [52C57738] (AR v2)

All tracks accurately ripped

End of status report

–– CUETools DB Plugin V2.1.3

[CTDB TOCID: LIVk6S._zON0gxezB3_biwQVs1A-] found, Submit result: LIVk6S._zON0gxezB3_biwQVs1A- has been confirmed
[bea6877a] (7/7) Accurately ripped


==== Log checksum F007363A981B6118036C64760F8519F9CB4B5E674649B30AC877AFE066317F4C ====

[CUETools log; Date: 23.08.2012 11:10:24; Version: 2.1.4]
[CTDB TOCID: wWZdE6F1Go5jsN0S389rZzXgQsw-] found.
Track | CTDB Status
1 | (9/9) Accurately ripped
2 | (9/9) Accurately ripped
3 | (9/9) Accurately ripped
4 | (9/9) Accurately ripped
5 | (9/9) Accurately ripped
6 | (9/9) Accurately ripped
7 | (9/9) Accurately ripped
8 | (9/9) Accurately ripped
9 | (9/9) Accurately ripped
10 | (9/9) Accurately ripped
11 | (9/9) Accurately ripped
12 | (9/9) Accurately ripped
[AccurateRip ID: 00145775-00bc9d72-970a230c] found.
Track [ CRC | V2 ] Status
01 [a1dbe8ee|0aceaa56] (07+06/31) Accurately ripped
02 [78125374|5a6a63c4] (07+06/32) Accurately ripped
03 [5d4b06d4|9040cb0b] (07+06/32) Accurately ripped
04 [82ae628a|07e63ea9] (07+06/32) Accurately ripped
05 [938396d6|7716f33a] (07+06/32) Accurately ripped
06 [2f851f7a|c086b891] (07+06/32) Accurately ripped
07 [253b8db3|3ee9ee57] (07+06/32) Accurately ripped
08 [61d0b20a|34df089e] (07+06/32) Accurately ripped
09 [196cd94e|87fd02e4] (07+06/32) Accurately ripped
10 [1254eb42|b9ccb0cd] (07+06/32) Accurately ripped
11 [2675cd5b|8d4812b8] (07+06/32) Accurately ripped
12 [13a0bb24|4ec1c0bf] (07+06/31) Accurately ripped
Offsetted by -12:
01 [86b635a2] (16/31) Accurately ripped
02 [1106b0ab] (16/32) Accurately ripped
03 [9845a8ab] (16/32) Accurately ripped
04 [3cc5e83c] (16/32) Accurately ripped
05 [d9ac1fd4] (16/32) Accurately ripped
06 [3af0a300] (16/32) Accurately ripped
07 [090e1fac] (16/32) Accurately ripped
08 [2980d3e3] (16/32) Accurately ripped
09 [7a00ac7c] (16/32) Accurately ripped
10 [3f01e59f] (16/32) Accurately ripped
11 [f3552b7e] (16/32) Accurately ripped
12 [8252dbc8] (15/31) Accurately ripped

Track Peak [ CRC32 ] [W/O NULL] [ LOG ]
– 98,8 [7A1D8575] [ABD104FF] CRC32
01 98,8 [D27C7DF7] [B6F35DD4]
02 72,8 [0F1336CC] [1839DF6C]
03 98,8 [D109F300] [F6594ED7]
04 98,8 [5953B193] [EDEBC235]
05 98,8 [10724194] [6843EA18]
06 98,8 [5E89CEA2] [DEC75F62]
07 16,4 [63A49A61] [AD1A95CB]
08 98,8 [BEFA9851] [37565D00]
09 98,8 [742C8163] [51A6F9A4]
10 98,8 [1287361B] [B1BAF7CD]
11 93,6 [6C82E18A] [5E95000E]
12 51,9 [5C4A55E1] [5908F2C9]

foobar2000 1.1.1 / Dynamic Range Meter 1.1.1

log date: 2012-08-23 10:15:54



––––––––––––––––––––––––––––––––––––––––

Analyzed: Soft Machine / Six (CD4: The Original Album)

––––––––––––––––––––––––––––––––––––––––



DR Peak RMS Duration Track

––––––––––––––––––––––––––––––––––––––––

DR13 -0.10 dB -15.02 dB 0:43 01-Fanfare

DR11 -0.10 dB -13.32 dB 4:49 02-All White

DR12 -2.81 dB -22.65 dB 2:25 03-Between

DR13 -0.10 dB -14.69 dB 4:33 04-Riff

DR12 -0.10 dB -14.18 dB 6:53 05-37 1/2

DR13 -0.10 dB -15.11 dB 6:16 06-Gesolreut

DR12 -0.34 dB -18.58 dB 2:48 07-E.P.V.

DR12 -0.27 dB -16.32 dB 5:02 08-Lefty

DR13 -0.10 dB -14.79 dB 1:37 09-Stumble

DR16 -0.10 dB -19.33 dB 5:15 10-5 From 13 (For Phil Seamen With Love & Thanks)

DR11 -0.10 dB -14.45 dB 1:29 11-Riff II

DR13 -0.10 dB -16.13 dB 11:20 12-The Soft Weed Factor

DR12 -0.10 dB -14.87 dB 6:01 13-Stanley Stamps Gibbon Album (For B.O.)

DR13 -0.22 dB -18.03 dB 9:32 14-Chloe And The Pirates

DR12 -0.83 dB -17.47 dB 7:55 15-1983

––––––––––––––––––––––––––––––––––––––––



Number of tracks: 15

Official DR value: DR13



Samplerate: 44100 Hz

Channels: 2

Bits per sample: 16

Bitrate: 736 kbps

Codec: FLAC

================================================================================




Soft Machine - Original Album Classics (2010) 5CD Box Set [Re-Up]

Soft Machine - Original Album Classics (2010) 5CD Box Set [Re-Up]

CD5: Seven (1973)
EAC | FLAC | Image (Cue&Log) ~ 234 Mb | Mp3 (CBR320) ~ 99 Mb | Time: 00:43:11

This was the first album after the departure of bassist Hugh Hopper, who was replaced by Roy Babbington. For anyone who's counting, it was the last of their seven sequentially numbered releases. Reed player Karl Jenkins, who had joined the band on SIX, was by this time writing the bulk of the material. His pieces range from the fanfare of "Nettle Bed" to the dreamy "Carol Ann," which evokes French composer Erik Satie. Founding member (and next to depart) Mike Ratledge contributes four numbers, including the hypnotic "Tarabos," which recalls the circular melodicism of the band's first two albums. Warmly and crisply recorded, SEVEN finds drummer John Marshall on especially good form, with his cymbal work cleanly articulated throughout.

Review by Allmusic.com

Tracklist:

01. Nettle Bed (4:51)
02. Carol Ann (3:45)
03. Day's Eye (5:03)
04. Bone Fire (0:36)
05. Tarabos (4:28)
06. D.I.S. (3:04)
07. Snodland (1:52)
08. Penny Hitch (6:39)
09. Block (4:19)
10. Down The Road (5:44)
11. The German Lesson (1:52)
12. The French Lesson (1:04)


Exact Audio Copy V1.0 beta 3 from 29. August 2011

EAC extraction logfile from 30. July 2012, 10:12

Soft Machine / Seven (CD5 - The Original Album)

Used drive : PIONEER DVD-RW DVR-218L Adapter: 1 ID: 0

Read mode : Secure
Utilize accurate stream : Yes
Defeat audio cache : Yes
Make use of C2 pointers : No

Read offset correction : 6
Overread into Lead-In and Lead-Out : No
Fill up missing offset samples with silence : Yes
Delete leading and trailing silent blocks : No
Null samples used in CRC calculations : Yes
Used interface : Native Win32 interface for Win NT & 2000

Used output format : User Defined Encoder
Selected bitrate : 896 kBit/s
Quality : High
Add ID3 tag : No
Command line compressor : C:\Program Files\Exact Audio Copy\wavpack\wavpack.exe
Additional command line options : -hlmx2 %source% %dest%


TOC of the extracted CD

Track | Start | Length | Start sector | End sector
––––––––––––––––––––––––––––-
1 | 0:00.00 | 4:51.16 | 0 | 21840
2 | 4:51.16 | 3:45.03 | 21841 | 38718
3 | 8:36.19 | 5:03.23 | 38719 | 61466
4 | 13:39.42 | 0:35.47 | 61467 | 64138
5 | 14:15.14 | 4:27.71 | 64139 | 84234
6 | 18:43.10 | 3:04.13 | 84235 | 98047
7 | 21:47.23 | 1:51.58 | 98048 | 106430
8 | 23:39.06 | 6:38.44 | 106431 | 136324
9 | 30:17.50 | 4:18.48 | 136325 | 155722
10 | 34:36.23 | 5:44.25 | 155723 | 181547
11 | 40:20.48 | 1:51.62 | 181548 | 189934
12 | 42:12.35 | 1:03.38 | 189935 | 194697


Range status and errors

Selected range

Filename C:\Documents and Settings\empireisky\Мои документы\Моя музыка\Soft Machine - The Original Album (5CD)\CD5 - Seven\Soft Machine - Seven (CD5 - The Original Album).wav

Peak level 98.8 %
Extraction speed 1.2 X
Range quality 100.0 %
Test CRC 7A1D8575
Copy CRC 7A1D8575
Copy OK

No errors occurred


AccurateRip summary

Track 1 accurately ripped (confidence 5) [0ACEAA56] (AR v2)
Track 2 accurately ripped (confidence 5) [5A6A63C4] (AR v2)
Track 3 accurately ripped (confidence 5) [9040CB0B] (AR v2)
Track 4 accurately ripped (confidence 5) [07E63EA9] (AR v2)
Track 5 accurately ripped (confidence 5) [7716F33A] (AR v2)
Track 6 accurately ripped (confidence 5) [C086B891] (AR v2)
Track 7 accurately ripped (confidence 5) [3EE9EE57] (AR v2)
Track 8 accurately ripped (confidence 5) [34DF089E] (AR v2)
Track 9 accurately ripped (confidence 5) [87FD02E4] (AR v2)
Track 10 accurately ripped (confidence 5) [B9CCB0CD] (AR v2)
Track 11 accurately ripped (confidence 5) [8D4812B8] (AR v2)
Track 12 accurately ripped (confidence 5) [4EC1C0BF] (AR v2)

All tracks accurately ripped

End of status report

–– CUETools DB Plugin V2.1.3

[CTDB TOCID: wWZdE6F1Go5jsN0S389rZzXgQsw-] found, Submit result: wWZdE6F1Go5jsN0S389rZzXgQsw- has been confirmed
[f9416caa] (27/27) Accurately ripped


==== Log checksum 33C8BA0B95F53D1C0535A7C075C8C9BE608B57B1174AA24E20878E818B5A6B9B ====

[CUETools log; Date: 23.08.2012 11:10:05; Version: 2.1.4]
[CTDB TOCID: LIVk6S._zON0gxezB3_biwQVs1A-] found.
Track | CTDB Status
1 | (8/8) Accurately ripped
2 | (8/8) Accurately ripped
3 | (8/8) Accurately ripped
4 | (8/8) Accurately ripped
5 | (8/8) Accurately ripped
6 | (8/8) Accurately ripped
7 | (8/8) Accurately ripped
8 | (8/8) Accurately ripped
9 | (8/8) Accurately ripped
10 | (8/8) Accurately ripped
11 | (8/8) Accurately ripped
12 | (8/8) Accurately ripped
13 | (8/8) Accurately ripped
14 | (8/8) Accurately ripped
15 | (8/8) Accurately ripped
[AccurateRip ID: 0022ebcc-019ca6dd-a511f50f] found.
Track [ CRC | V2 ] Status
01 [a15c8ea9|8f26bb2b] (07+06/25) Accurately ripped
02 [d8ae0a8c|a60c0e9f] (07+06/25) Accurately ripped
03 [f2f77e8e|a3afdcf8] (07+06/25) Accurately ripped
04 [dcabb0da|c34891c2] (07+06/25) Accurately ripped
05 [030ae588|4f7ac9d9] (07+06/25) Accurately ripped
06 [72de7f12|7bbb47d0] (07+06/25) Accurately ripped
07 [e9705a11|adefbd34] (07+06/25) Accurately ripped
08 [6dc4feb4|f66b1e39] (07+06/25) Accurately ripped
09 [ece437de|c4cdbde0] (07+06/25) Accurately ripped
10 [18783461|f3782863] (07+06/25) Accurately ripped
11 [3a72088a|745c03e1] (07+06/25) Accurately ripped
12 [0c5fb031|ba15713b] (07+06/25) Accurately ripped
13 [abb8fdab|f3bd8a27] (07+06/25) Accurately ripped
14 [bb8faaf1|44862ab0] (07+06/25) Accurately ripped
15 [979bb00d|52c57738] (08+06/25) Accurately ripped
Offsetted by -12:
01 [b6e6668f] (12/25) Accurately ripped
02 [4d0c5361] (12/25) Accurately ripped
03 [10373b4e] (12/25) Accurately ripped
04 [da849b10] (12/25) Accurately ripped
05 [2a13f23b] (12/25) Accurately ripped
06 [66e7ce9a] (12/25) Accurately ripped
07 [6a1f45cc] (12/25) Accurately ripped
08 [03b68b7d] (12/25) Accurately ripped
09 [9f2d4ff0] (12/25) Accurately ripped
10 [d423befd] (12/25) Accurately ripped
11 [afbe1a8c] (12/25) Accurately ripped
12 [76d5ef31] (12/25) Accurately ripped
13 [bfb67a55] (12/25) Accurately ripped
14 [53ac8ae1] (12/25) Accurately ripped
15 [4839b465] (11/25) Accurately ripped

Track Peak [ CRC32 ] [W/O NULL] [ LOG ]
– 98,8 [4ADA6A54] [E338F82E] CRC32
01 98,8 [CB5A64F4] [DCB3AE97]
02 98,8 [5587B27B] [D909EB43]
03 72,3 [8C5DA710] [4C9AA8B2]
04 98,8 [21181018] [65C779CF]
05 98,8 [6F51CC03] [A82F500A]
06 98,8 [771BD939] [AA2B28F5]
07 96,2 [1484BE8B] [DED197DB]
08 96,9 [580915F2] [3AAD375F]
09 98,8 [CAB1C4D3] [798FCE77]
10 98,8 [73332734] [9EF2C7FD]
11 98,8 [6C6AA41F] [5EF1DCA3]
12 98,8 [5535A1E9] [377D6891]
13 98,8 [DACDD39F] [3D041B3D]
14 97,5 [66746430] [6DCEF650]
15 90,9 [8218A2BE] [5BF58FE9]

foobar2000 1.1.1 / Dynamic Range Meter 1.1.1

log date: 2012-08-23 10:16:08



––––––––––––––––––––––––––––––––––––––––

Analyzed: Soft Machine / Seven (CD5: The Original Album)

––––––––––––––––––––––––––––––––––––––––



DR Peak RMS Duration Track

––––––––––––––––––––––––––––––––––––––––

DR11 -0.10 dB -12.67 dB 4:51 01-Nettle Bed

DR10 -2.75 dB -17.31 dB 3:45 02-Carol Ann

DR14 -0.10 dB -16.27 dB 5:03 03-Day's Eye

DR13 -0.10 dB -13.60 dB 0:36 04-Bone Fire

DR12 -0.10 dB -12.75 dB 4:28 05-Tarabos

DR18 -0.10 dB -23.52 dB 3:04 06-D.I.S.

DR10 -15.65 dB -27.31 dB 1:52 07-Snodland

DR13 -0.10 dB -15.63 dB 6:39 08-Penny Hitch

DR14 -0.10 dB -15.51 dB 4:19 09-Block

DR14 -0.10 dB -16.26 dB 5:44 10-Down The Road

DR13 -0.57 dB -15.99 dB 1:52 11-The German Lesson

DR9 -5.69 dB -19.84 dB 1:04 12-The French Lesson

––––––––––––––––––––––––––––––––––––––––



Number of tracks: 12

Official DR value: DR12



Samplerate: 44100 Hz

Channels: 2

Bits per sample: 16

Bitrate: 759 kbps

Codec: FLAC

================================================================================




Soft Machine - Original Album Classics (2010) 5CD Box Set [Re-Up]