Subcategories

The Allman Brothers Band - At Fillmore East Promo Box: 9 Albums 1969-1979 (1998) Japanese 9 CD Box Set [Re-Up]

Posted By: Designol
The Allman Brothers Band - At Fillmore East Promo Box: 9 Albums 1969-1979 (1998) Japanese 9 CD Box Set [Re-Up]

The Allman Brothers Band - At Fillmore East Promo Box: 9 Albums 1969-1979 (1998)
9 CD Box Set, Japanese Cardboard Sleeve, Remastered

EAC | FLAC | Tracks (Cue&Log) ~ 2.95 Gb | Mp3 (CBR320) ~ 1.16 Gb | Scans included
Label: PolyGram/Capricorn | # PHCR-94001-94009 | Time: 07:44:40
Classic Rock, Southern Rock, Blues Rock, Slide Guitar Blues, Hard Rock, Jam Band

Blending rock, blues, country, and jazz, the godfathers of Southern rock in all its wild, woolly glory. 1998 9CDs Japanese Box contains studio and live albums and a compilation from 1969 to 1979.

The Allman Brothers Band - At Fillmore East Promo Box: 9 Albums 1969-1979 (1998) Japanese 9 CD Box Set [Re-Up]

The Allman Brothers Band - At Fillmore East Promo Box: 9 Albums 1969-1979 (1998) Japanese 9 CD Box Set [Re-Up]

The Allman Brothers Band - At Fillmore East Promo Box: 9 Albums 1969-1979 (1998) Japanese 9 CD Box Set [Re-Up]



The Allman Brothers Band - At Fillmore East Promo Box: 9 Albums 1969-1979 (1998) Japanese 9 CD Box Set [Re-Up]

The Allman Brothers Band - The Allman Brothers Band (1969)
EAC | FLAC | Tracks (Cue&Log) ~ 217 Mb | Mp3 (CBR320) ~ 89 Mb | Scans included
Label: PolyGram/Capricorn | # PHCR-94001 | Time: 00:33:21

This might be the best debut album ever delivered by an American blues band, a bold, powerful, hard-edged, soulful essay in electric blues with a native Southern ambience. Some lingering elements of the psychedelic era then drawing to a close can be found in "Dreams," along with the template for the group's on-stage workouts with "Whipping Post," and a solid cover of Muddy Waters' "Trouble No More." There isn't a bad song here, and only the fact that the group did even better the next time out keeps this from getting the highest possible rating.

Review by Bruce Eder, Allmusic.com


Tracklist:

01. Don't Want You No More (02:24)
02. It's Not My Cross To Bear (05:03)
03. Black Hearted Woman (05:10)
04. Trouble No More (03:48)
05. Every Hungry Woman (04:15)
06. Dreams (07:20)
07. Whipping Post (05:17)


Exact Audio Copy V0.99 prebeta 4 from 23. January 2008

EAC extraction logfile from 31. December 2008, 17:58

The Allman Brothers Band / The Allman Brothers Band

Used drive : HL-DT-STDVD-ROM GDR8163B Adapter: 1 ID: 1

Read mode : Secure
Utilize accurate stream : Yes
Defeat audio cache : Yes
Make use of C2 pointers : No

Read offset correction : 102
Overread into Lead-In and Lead-Out : No
Fill up missing offset samples with silence : Yes
Delete leading and trailing silent blocks : No
Null samples used in CRC calculations : Yes
Used interface : Native Win32 interface for Win NT & 2000
Gap handling : Appended to previous track

Used output format : User Defined Encoder
Selected bitrate : 128 kBit/s
Quality : High
Add ID3 tag : No
Command line compressor : D:\Programme\Exact Audio Copy\FLAC\FLAC.EXE
Additional command line options : -f -o %d -V -8 -T "artist=%a" -T "title=%t" -T "album=%g" -T "date=%y" -T "tracknumber=%n" -T "genre=%m" %s


TOC of the extracted CD

Track | Start | Length | Start sector | End sector
––––––––––––––––––––––––––––-
1 | 0:00.37 | 2:24.68 | 37 | 10904
2 | 2:25.30 | 5:03.70 | 10905 | 33699
3 | 7:29.25 | 5:10.65 | 33700 | 57014
4 | 12:40.15 | 3:48.05 | 57015 | 74119
5 | 16:28.20 | 4:15.70 | 74120 | 93314
6 | 20:44.15 | 7:20.42 | 93315 | 126356
7 | 28:04.57 | 5:17.05 | 126357 | 150136


Track 1

Filename E:\Own Rips\The Allman Brothers Band - The Allman Brothers Band (1969) [FLAC] (Japan PHCR-94001)\01 - Don't Want You No More.wav

Pre-gap length 0:00:02.49

Peak level 87.1 %
Track quality 100.0 %
Test CRC FB5E3D44
Copy CRC FB5E3D44
Track not present in AccurateRip database
Copy OK

Track 2

Filename E:\Own Rips\The Allman Brothers Band - The Allman Brothers Band (1969) [FLAC] (Japan PHCR-94001)\02 - It's Not My Cross To Bear.wav

Peak level 90.5 %
Track quality 100.0 %
Test CRC 455D5438
Copy CRC 455D5438
Track not present in AccurateRip database
Copy OK

Track 3

Filename E:\Own Rips\The Allman Brothers Band - The Allman Brothers Band (1969) [FLAC] (Japan PHCR-94001)\03 - Black Hearted Woman.wav

Pre-gap length 0:00:02.49

Peak level 91.6 %
Track quality 100.0 %
Test CRC 13CE3102
Copy CRC 13CE3102
Track not present in AccurateRip database
Copy OK

Track 4

Filename E:\Own Rips\The Allman Brothers Band - The Allman Brothers Band (1969) [FLAC] (Japan PHCR-94001)\04 - Trouble No More.wav

Pre-gap length 0:00:03.36

Peak level 90.7 %
Track quality 100.0 %
Test CRC 5FAAA066
Copy CRC 5FAAA066
Track not present in AccurateRip database
Copy OK

Track 5

Filename E:\Own Rips\The Allman Brothers Band - The Allman Brothers Band (1969) [FLAC] (Japan PHCR-94001)\05 - Every Hungry Woman.wav

Pre-gap length 0:00:02.09

Peak level 97.9 %
Track quality 100.0 %
Test CRC F2E1756C
Copy CRC F2E1756C
Track not present in AccurateRip database
Copy OK

Track 6

Filename E:\Own Rips\The Allman Brothers Band - The Allman Brothers Band (1969) [FLAC] (Japan PHCR-94001)\06 - Dreams.wav

Pre-gap length 0:00:02.25

Peak level 99.0 %
Track quality 100.0 %
Test CRC 34FD08DD
Copy CRC 34FD08DD
Track not present in AccurateRip database
Copy OK

Track 7

Filename E:\Own Rips\The Allman Brothers Band - The Allman Brothers Band (1969) [FLAC] (Japan PHCR-94001)\07 - Whipping Post.wav

Pre-gap length 0:00:03.08

Peak level 100.0 %
Track quality 100.0 %
Test CRC E1639E83
Copy CRC E1639E83
Track not present in AccurateRip database
Copy OK


None of the tracks are present in the AccurateRip database

No errors occurred

End of status report

[CUETools log; Date: 27.01.2018 15:55:39; Version: 2.1.4]
Pregap length 00:00:37.
[CTDB TOCID: 4XXQind4BRAXFXERNLkExCv_ccI-] found.
Track | CTDB Status
1 | (9/9) Accurately ripped
2 | (9/9) Accurately ripped
3 | (9/9) Accurately ripped
4 | (8/9) Accurately ripped
5 | (8/9) Accurately ripped
6 | (8/9) Accurately ripped
7 | (8/9) Accurately ripped
[AccurateRip ID: 00085332-003360b4-5b07d107] found.
Track [ CRC | V2 ] Status
01 [077086a7|e8222a7a] (07+06/13) Accurately ripped
02 [76a085b9|08a835e0] (07+06/13) Accurately ripped
03 [882c09b2|46f59fef] (07+06/13) Accurately ripped
04 [4225278f|bd5b748f] (07+06/13) Accurately ripped
05 [5c670e03|a87cd565] (07+06/13) Accurately ripped
06 [46f96240|09b3af91] (07+06/13) Accurately ripped
07 [efdad279|5a4cb81a] (07+06/13) Accurately ripped

Track Peak [ CRC32 ] [W/O NULL] [ LOG ]
– 99,9 [B4BEC8A8] [A2EC6EAA]
01 87,1 [FB5E3D44] [56027892] CRC32
02 90,5 [455D5438] [925ABAC1] CRC32
03 91,6 [13CE3102] [4D477BF9] CRC32
04 90,7 [5FAAA066] [CC84AA00] CRC32
05 97,9 [F2E1756C] [BF3A155F] CRC32
06 99,0 [34FD08DD] [B3CB40E1] CRC32
07 99,9 [E1639E83] [A59CABC8] CRC32

foobar2000 1.2 / Dynamic Range Meter 1.1.1
log date: 2018-01-27 16:34:26

––––––––––––––––––––––––––––––––––––––––
Analyzed: The Allman Brothers Band / The Allman Brothers Band
––––––––––––––––––––––––––––––––––––––––

DR Peak RMS Duration Track
––––––––––––––––––––––––––––––––––––––––
DR10 -1.19 dB -13.74 dB 2:25 01-Don't Want You No More
DR11 -0.86 dB -16.45 dB 5:04 02-It's Not My Cross To Bear
DR11 -0.76 dB -14.54 dB 5:11 03-Black Hearted Woman
DR11 -0.84 dB -14.44 dB 3:48 04-Trouble No More
DR11 -0.18 dB -13.90 dB 4:16 05-Every Hungry Woman
DR10 -0.08 dB -13.82 dB 7:21 06-Dreams
DR10 0.00 dB -13.89 dB 5:17 07-Whipping Post
––––––––––––––––––––––––––––––––––––––––

Number of tracks: 7
Official DR value: DR11

Samplerate: 44100 Hz
Channels: 2
Bits per sample: 16
Bitrate: 871 kbps
Codec: FLAC
================================================================================




The Allman Brothers Band - At Fillmore East Promo Box: 9 Albums 1969-1979 (1998) Japanese 9 CD Box Set [Re-Up]

The Allman Brothers Band - Idlewild South (1970)
EAC | FLAC | Tracks (Cue&Log) ~ 196 Mb | Mp3 (CBR320) ~ 83 Mb | Scans included
Label: PolyGram/Capricorn | # PHCR-94002 | Time: 00:30:54

The best studio album in the group's history, electric blues with an acoustic texture, virtuoso lead, slide, and organ playing, and a killer selection of songs, including "Midnight Rider," "Revival," "Don't Keep Me Wonderin'," and "In Memory of Elizabeth Reed" in its embryonic studio version, which is pretty impressive even at a mere six minutes and change. They also do the best white cover of Willie Dixon's "Hoochie Coochie Man" anyone's ever likely to hear.

Review by Bruce Eder, Allmusic.com


Tracklist:

01. Revival (04:05)
02. Don't Keep Me Wonderin' (03:30)
03. Midnight Rider (02:59)
04. In Memory of Elizabeth Reed (06:58)
05. Hoochie Coochie Man (04:58)
06. Please Call Home (04:03)
07. Leave My Blues at Home (04:17)


Exact Audio Copy V0.99 prebeta 4 from 23. January 2008

EAC extraction logfile from 31. December 2008, 19:12

The Allman Brothers Band / Idlewild South

Used drive : HL-DT-STDVD-ROM GDR8163B Adapter: 1 ID: 1

Read mode : Secure
Utilize accurate stream : Yes
Defeat audio cache : Yes
Make use of C2 pointers : No

Read offset correction : 102
Overread into Lead-In and Lead-Out : No
Fill up missing offset samples with silence : Yes
Delete leading and trailing silent blocks : No
Null samples used in CRC calculations : Yes
Used interface : Native Win32 interface for Win NT & 2000
Gap handling : Appended to previous track

Used output format : User Defined Encoder
Selected bitrate : 128 kBit/s
Quality : High
Add ID3 tag : No
Command line compressor : D:\Programme\Exact Audio Copy\FLAC\FLAC.EXE
Additional command line options : -f -o %d -V -8 -T "artist=%a" -T "title=%t" -T "album=%g" -T "date=%y" -T "tracknumber=%n" -T "genre=%m" %s


TOC of the extracted CD

Track | Start | Length | Start sector | End sector
––––––––––––––––––––––––––––-
1 | 0:00.00 | 4:05.37 | 0 | 18411
2 | 4:05.37 | 3:30.20 | 18412 | 34181
3 | 7:35.57 | 2:59.70 | 34182 | 47676
4 | 10:35.52 | 6:58.28 | 47677 | 79054
5 | 17:34.05 | 4:58.40 | 79055 | 101444
6 | 22:32.45 | 4:03.52 | 101445 | 119721
7 | 26:36.22 | 4:17.60 | 119722 | 139056


Track 1

Filename E:\Own Rips\The Allman Brothers Band - Idlewild South (1970) [FLAC] (Japan PHCR-94002)\01 - Revival.wav

Pre-gap length 0:00:02.00

Peak level 62.8 %
Track quality 100.0 %
Test CRC 8B48FBBD
Copy CRC 8B48FBBD
Cannot be verified as accurate (confidence 2) [D6B5444D], AccurateRip returned [446E29FC]
Copy OK

Track 2

Filename E:\Own Rips\The Allman Brothers Band - Idlewild South (1970) [FLAC] (Japan PHCR-94002)\02 - Don't Keep Me Wonderin'.wav

Pre-gap length 0:00:02.06

Peak level 60.3 %
Track quality 100.0 %
Test CRC 05E4077D
Copy CRC 05E4077D
Cannot be verified as accurate (confidence 2) [EEB84FD7], AccurateRip returned [EAC12CD5]
Copy OK

Track 3

Filename E:\Own Rips\The Allman Brothers Band - Idlewild South (1970) [FLAC] (Japan PHCR-94002)\03 - Midnight Rider.wav

Pre-gap length 0:00:01.49

Peak level 55.9 %
Track quality 100.0 %
Test CRC 07AA5712
Copy CRC 07AA5712
Cannot be verified as accurate (confidence 2) [86747508], AccurateRip returned [6F3D0AE5]
Copy OK

Track 4

Filename E:\Own Rips\The Allman Brothers Band - Idlewild South (1970) [FLAC] (Japan PHCR-94002)\04 - In Memory of Elizabeth Reed.wav

Pre-gap length 0:00:01.82

Peak level 69.5 %
Track quality 100.0 %
Test CRC 2534A75E
Copy CRC 2534A75E
Cannot be verified as accurate (confidence 2) [7531A14A], AccurateRip returned [CAD43876]
Copy OK

Track 5

Filename E:\Own Rips\The Allman Brothers Band - Idlewild South (1970) [FLAC] (Japan PHCR-94002)\05 - Hoochie Coochie Man.wav

Pre-gap length 0:00:03.17

Peak level 73.6 %
Track quality 99.9 %
Test CRC FC9D2CBB
Copy CRC FC9D2CBB
Cannot be verified as accurate (confidence 2) [518A2565], AccurateRip returned [A55A56D8]
Copy OK

Track 6

Filename E:\Own Rips\The Allman Brothers Band - Idlewild South (1970) [FLAC] (Japan PHCR-94002)\06 - Please Call Home.wav

Pre-gap length 0:00:03.73

Peak level 73.9 %
Track quality 100.0 %
Test CRC EB95F878
Copy CRC EB95F878
Cannot be verified as accurate (confidence 2) [A7A08EC1], AccurateRip returned [4F3E45DD]
Copy OK

Track 7

Filename E:\Own Rips\The Allman Brothers Band - Idlewild South (1970) [FLAC] (Japan PHCR-94002)\07 - Leave My Blues at Home.wav

Pre-gap length 0:00:03.76

Peak level 72.0 %
Track quality 100.0 %
Test CRC 1FFE8D4A
Copy CRC 1FFE8D4A
Cannot be verified as accurate (confidence 2) [E407A8FA], AccurateRip returned [1FB851CA]
Copy OK


No tracks could be verified as accurate
You may have a different pressing from the one(s) in the database

No errors occurred

End of status report

[CUETools log; Date: 27.01.2018 15:55:39; Version: 2.1.4]
Pregap length 00:00:37.
[CTDB TOCID: 4XXQind4BRAXFXERNLkExCv_ccI-] found.
Track | CTDB Status
1 | (9/9) Accurately ripped
2 | (9/9) Accurately ripped
3 | (9/9) Accurately ripped
4 | (8/9) Accurately ripped
5 | (8/9) Accurately ripped
6 | (8/9) Accurately ripped
7 | (8/9) Accurately ripped
[AccurateRip ID: 00085332-003360b4-5b07d107] found.
Track [ CRC | V2 ] Status
01 [077086a7|e8222a7a] (07+06/13) Accurately ripped
02 [76a085b9|08a835e0] (07+06/13) Accurately ripped
03 [882c09b2|46f59fef] (07+06/13) Accurately ripped
04 [4225278f|bd5b748f] (07+06/13) Accurately ripped
05 [5c670e03|a87cd565] (07+06/13) Accurately ripped
06 [46f96240|09b3af91] (07+06/13) Accurately ripped
07 [efdad279|5a4cb81a] (07+06/13) Accurately ripped

Track Peak [ CRC32 ] [W/O NULL] [ LOG ]
– 99,9 [B4BEC8A8] [A2EC6EAA]
01 87,1 [FB5E3D44] [56027892] CRC32
02 90,5 [455D5438] [925ABAC1] CRC32
03 91,6 [13CE3102] [4D477BF9] CRC32
04 90,7 [5FAAA066] [CC84AA00] CRC32
05 97,9 [F2E1756C] [BF3A155F] CRC32
06 99,0 [34FD08DD] [B3CB40E1] CRC32
07 99,9 [E1639E83] [A59CABC8] CRC32

foobar2000 1.2 / Dynamic Range Meter 1.1.1
log date: 2018-01-27 16:34:26

––––––––––––––––––––––––––––––––––––––––
Analyzed: The Allman Brothers Band / The Allman Brothers Band
––––––––––––––––––––––––––––––––––––––––

DR Peak RMS Duration Track
––––––––––––––––––––––––––––––––––––––––
DR10 -1.19 dB -13.74 dB 2:25 01-Don't Want You No More
DR11 -0.86 dB -16.45 dB 5:04 02-It's Not My Cross To Bear
DR11 -0.76 dB -14.54 dB 5:11 03-Black Hearted Woman
DR11 -0.84 dB -14.44 dB 3:48 04-Trouble No More
DR11 -0.18 dB -13.90 dB 4:16 05-Every Hungry Woman
DR10 -0.08 dB -13.82 dB 7:21 06-Dreams
DR10 0.00 dB -13.89 dB 5:17 07-Whipping Post
––––––––––––––––––––––––––––––––––––––––

Number of tracks: 7
Official DR value: DR11

Samplerate: 44100 Hz
Channels: 2
Bits per sample: 16
Bitrate: 871 kbps
Codec: FLAC
================================================================================




The Allman Brothers Band - At Fillmore East Promo Box: 9 Albums 1969-1979 (1998) Japanese 9 CD Box Set [Re-Up]

The Allman Brothers Band - At Fillmore East (1971)
EAC | FLAC | Tracks (Cue&Log) ~ 487 Mb | Mp3 (CBR320) ~ 192 Mb | Scans included
Label: PolyGram/Capricorn | # PHCR-94003 | Time: 01:18:36

Whereas most great live rock albums are about energy, At Fillmore East is like a great live jazz session, where the pleasure comes from the musicians' interaction and playing. The great thing about that is, the original album that brought the Allmans so much acclaim is as notable for its clever studio editing as it is for its performances. Producer Tom Dowd skillfully trimmed some of the performances down to relatively concise running time (edits later restored on the double-disc set The Fillmore Concerts), at times condensing several performances into one track. Far from being a sacrilege, this tactic helps present the Allmans in their best light, since even if the music isn't necessarily concise (three tracks run over ten minutes, with two in the 20-minute range), it does showcase the group's terrific instrumental interplay, letting each member (but particularly guitarist Duane and keyboardist/vocalist Gregg) shine. Even after the release of the unedited concerts, this original double album (single CD) remains the pinnacle of the Allmans and Southern rock at its most elastic, bluesy, and jazzy.

Review by Stephen Thomas Erlewine, Allmusic.com


Tracklist:

01. Statesboro Blues (04:19)
02. Done Somebody Wrong (04:35)
03. Stormy Monday (08:48)
04. You Don't Love Me (19:19)
05. Hot 'Lanta (05:21)
06. In Memory of Elizabeth Reed (13:06)
07. Whipping Post (23:04)


Exact Audio Copy V0.99 prebeta 4 from 23. January 2008

EAC extraction logfile from 31. December 2008, 21:28

The Allman Brothers Band / At Fillmore East

Used drive : HL-DT-STDVD-RAM GSA-H55L Adapter: 1 ID: 0

Read mode : Secure
Utilize accurate stream : Yes
Defeat audio cache : Yes
Make use of C2 pointers : No

Read offset correction : 102
Overread into Lead-In and Lead-Out : No
Fill up missing offset samples with silence : Yes
Delete leading and trailing silent blocks : No
Null samples used in CRC calculations : Yes
Used interface : Native Win32 interface for Win NT & 2000
Gap handling : Appended to previous track

Used output format : User Defined Encoder
Selected bitrate : 128 kBit/s
Quality : High
Add ID3 tag : No
Command line compressor : D:\Programme\Exact Audio Copy\FLAC\FLAC.EXE
Additional command line options : -f -o %d -V -8 -T "artist=%a" -T "title=%t" -T "album=%g" -T "date=%y" -T "tracknumber=%n" -T "genre=%m" %s


TOC of the extracted CD

Track | Start | Length | Start sector | End sector
––––––––––––––––––––––––––––-
1 | 0:00.37 | 4:19.65 | 37 | 19526
2 | 4:20.27 | 4:35.73 | 19527 | 40224
3 | 8:56.25 | 8:48.47 | 40225 | 79871
4 | 17:44.72 | 19:19.50 | 79872 | 166846
5 | 37:04.47 | 5:21.73 | 166847 | 190994
6 | 42:26.45 | 13:06.17 | 190995 | 249961
7 | 55:32.62 | 23:04.50 | 249962 | 353811


Track 1

Filename E:\Own Rips\The Allman Brothers Band - At Fillmore East (1971) [FLAC] (Japan PHCR-94003)\01 - Statesboro Blues.wav

Pre-gap length 0:00:02.49

Peak level 100.0 %
Track quality 100.0 %
Test CRC F1A8DDA1
Copy CRC F1A8DDA1
Copy OK

Track 2

Filename E:\Own Rips\The Allman Brothers Band - At Fillmore East (1971) [FLAC] (Japan PHCR-94003)\02 - Done Somebody Wrong.wav

Pre-gap length 0:00:01.34

Peak level 100.0 %
Track quality 100.0 %
Test CRC 5F2107EF
Copy CRC 5F2107EF
Copy OK

Track 3

Filename E:\Own Rips\The Allman Brothers Band - At Fillmore East (1971) [FLAC] (Japan PHCR-94003)\03 - Stormy Monday.wav

Pre-gap length 0:00:02.16

Peak level 100.0 %
Track quality 99.9 %
Test CRC CBF9D825
Copy CRC CBF9D825
Copy OK

Track 4

Filename E:\Own Rips\The Allman Brothers Band - At Fillmore East (1971) [FLAC] (Japan PHCR-94003)\04 - You Don't Love Me.wav

Pre-gap length 0:00:00.28

Peak level 99.7 %
Track quality 100.0 %
Test CRC E1DAE821
Copy CRC E1DAE821
Copy OK

Track 5

Filename E:\Own Rips\The Allman Brothers Band - At Fillmore East (1971) [FLAC] (Japan PHCR-94003)\05 - Hot 'Lanta.wav

Pre-gap length 0:00:02.45

Peak level 87.6 %
Track quality 100.0 %
Test CRC AFD01557
Copy CRC AFD01557
Copy OK

Track 6

Filename E:\Own Rips\The Allman Brothers Band - At Fillmore East (1971) [FLAC] (Japan PHCR-94003)\06 - In Memory of Elizabeth Reed.wav

Pre-gap length 0:00:01.49

Peak level 91.4 %
Track quality 100.0 %
Test CRC 50568AAF
Copy CRC 50568AAF
Copy OK

Track 7

Filename E:\Own Rips\The Allman Brothers Band - At Fillmore East (1971) [FLAC] (Japan PHCR-94003)\07 - Whipping Post.wav

Pre-gap length 0:00:01.25

Peak level 94.4 %
Track quality 100.0 %
Test CRC 1F2000B5
Copy CRC 1F2000B5
Copy OK

No errors occurred

End of status report

[CUETools log; Date: 27.01.2018 15:55:58; Version: 2.1.4]
Pregap length 00:00:37.
[CTDB TOCID: bm7wvEoBhMQZCP3QuPRTAy2sR2U-] found.
Track | CTDB Status
1 | (10/10) Accurately ripped
2 | (10/10) Accurately ripped
3 | (10/10) Accurately ripped
4 | ( 9/10) Accurately ripped
5 | (10/10) Accurately ripped
6 | (10/10) Accurately ripped
7 | (10/10) Accurately ripped
[AccurateRip ID: 0010cddd-006b6ac9-55126d07] found.
Track [ CRC | V2 ] Status
01 [101c4a2a|f631e3d4] (07+09/16) Accurately ripped
02 [6f29dd21|1324c4e9] (07+09/16) Accurately ripped
03 [c7a35e07|7d896452] (07+09/16) Accurately ripped
04 [7aef35af|5395bc1b] (07+09/16) Accurately ripped
05 [7da1f240|9c8f38f0] (07+09/16) Accurately ripped
06 [7b2a2f4b|0ea83a38] (07+09/16) Accurately ripped
07 [a9a4ebaf|58a08f60] (06+09/15) Accurately ripped

Track Peak [ CRC32 ] [W/O NULL] [ LOG ]
– 99,9 [E0845166] [EA3F0BF1]
01 99,9 [F1A8DDA1] [A4BEFF6B] CRC32
02 99,9 [5F2107EF] [FE809998] CRC32
03 99,9 [CBF9D825] [E7707681] CRC32
04 99,7 [E1DAE821] [6B7A841A] CRC32
05 87,6 [AFD01557] [3C15863F] CRC32
06 91,4 [50568AAF] [4924548F] CRC32
07 94,4 [1F2000B5] [656C6B57] CRC32

foobar2000 1.2 / Dynamic Range Meter 1.1.1
log date: 2018-01-27 16:35:19

––––––––––––––––––––––––––––––––––––––––
Analyzed: The Allman Brothers Band / At Fillmore East
––––––––––––––––––––––––––––––––––––––––

DR Peak RMS Duration Track
––––––––––––––––––––––––––––––––––––––––
DR12 0.00 dB -14.82 dB 4:20 01-Statesboro Blues
DR13 0.00 dB -15.30 dB 4:36 02-Done Somebody Wrong
DR14 0.00 dB -18.59 dB 8:49 03-Stormy Monday
DR14 -0.02 dB -17.54 dB 19:20 04-You Don't Love Me
DR13 -1.15 dB -16.37 dB 5:22 05-Hot 'Lanta
DR12 -0.78 dB -15.30 dB 13:06 06-In Memory of Elizabeth Reed
DR12 -0.50 dB -16.70 dB 23:05 07-Whipping Post
––––––––––––––––––––––––––––––––––––––––

Number of tracks: 7
Official DR value: DR13

Samplerate: 44100 Hz
Channels: 2
Bits per sample: 16
Bitrate: 849 kbps
Codec: FLAC
================================================================================




The Allman Brothers Band - At Fillmore East Promo Box: 9 Albums 1969-1979 (1998) Japanese 9 CD Box Set [Re-Up]

The Allman Brothers Band - Eat A Peach (1972)
EAC | FLAC | Tracks (Cue&Log) ~ 439 Mb | Mp3 (CBR320) ~ 174 Mb | Scans included
Label: PolyGram/Capricorn | # PHCR-94004 | Time: 01:09:56

A tribute to the dearly departed Duane, Eat a Peach rambles through two albums, running through a side of new songs, recorded post-Duane, spending a full album on live cuts from the Fillmore East sessions, then offering a round of studio tracks Duane completed before his death. On the first side, they do suggest the mellowness of the Dickey Betts-led Brothers and Sisters, particularly on the lovely "Melissa," and this stands in direct contrast with the monumental live cuts that dominate the album. They're at the best on the punchier covers of "One Way Out" and "Trouble No More," both proof of the group's exceptional talents as a roadhouse blues-rock band, but Duane does get his needed showcase on "Mountain Jam," a sprawling 33-minute jam that may feature a lot of great playing, but is certainly a little hard for anyone outside of diehards to sit through. Apart from that cut, the record showcases the Allmans at their peak, and it's hard not to feel sad as the acoustic guitars of "Little Martha" conclude the record, since this tribute isn't just heartfelt, it offers proof of Duane Allman's immense talents and contribution to the band.

Review by Stephen Thomas Erlewine, Allmusic.com


Tracklist:

01. Ain't Wastin' Time No More (03:42)
02. Les Brers in A Minor (09:07)
03. Melissa (03:56)
04. Mountain Jam (33:41)
05. One Way Out (04:58)
06. Trouble No More (03:45)
07. Stand Back (03:27)
08. Blue Sky (05:10)
09. Little Martha (02:07)


Exact Audio Copy V0.99 prebeta 4 from 23. January 2008

EAC extraction logfile from 31. December 2008, 22:29

Allman Brothers Band / Eat a Peach

Used drive : HL-DT-STDVD-ROM GDR8163B Adapter: 1 ID: 1

Read mode : Secure
Utilize accurate stream : Yes
Defeat audio cache : Yes
Make use of C2 pointers : No

Read offset correction : 102
Overread into Lead-In and Lead-Out : No
Fill up missing offset samples with silence : Yes
Delete leading and trailing silent blocks : No
Null samples used in CRC calculations : Yes
Used interface : Native Win32 interface for Win NT & 2000
Gap handling : Appended to previous track

Used output format : User Defined Encoder
Selected bitrate : 128 kBit/s
Quality : High
Add ID3 tag : No
Command line compressor : D:\Programme\Exact Audio Copy\FLAC\FLAC.EXE
Additional command line options : -f -o %d -V -8 -T "artist=%a" -T "title=%t" -T "album=%g" -T "date=%y" -T "tracknumber=%n" -T "genre=%m" %s


TOC of the extracted CD

Track | Start | Length | Start sector | End sector
––––––––––––––––––––––––––––-
1 | 0:00.00 | 3:42.17 | 0 | 16666
2 | 3:42.17 | 9:07.08 | 16667 | 57699
3 | 12:49.25 | 3:56.02 | 57700 | 75401
4 | 16:45.27 | 33:41.18 | 75402 | 226994
5 | 50:26.45 | 4:58.10 | 226995 | 249354
6 | 55:24.55 | 3:45.02 | 249355 | 266231
7 | 59:09.57 | 3:27.70 | 266232 | 281826
8 | 62:37.52 | 5:10.73 | 281827 | 305149
9 | 67:48.50 | 2:07.37 | 305150 | 314711


Track 1

Filename E:\Own Rips\The Allman Brothers Band - Eat A Peach (1972) [FLAC] (Japan PHCR-94004)\01 - Ain't Wastin' Time No More.wav

Pre-gap length 0:00:02.00

Peak level 99.2 %
Track quality 100.0 %
Test CRC 2FC0055D
Copy CRC 2FC0055D
Cannot be verified as accurate (confidence 31) [CA7C8C4B], AccurateRip returned [2708D7D1]
Copy OK

Track 2

Filename E:\Own Rips\The Allman Brothers Band - Eat A Peach (1972) [FLAC] (Japan PHCR-94004)\02 - Les Brers in A Minor.wav

Pre-gap length 0:00:01.66

Peak level 94.6 %
Track quality 100.0 %
Test CRC C2823031
Copy CRC C2823031
Cannot be verified as accurate (confidence 30) [B63D1713], AccurateRip returned [0C7904C7]
Copy OK

Track 3

Filename E:\Own Rips\The Allman Brothers Band - Eat A Peach (1972) [FLAC] (Japan PHCR-94004)\03 - Melissa.wav

Pre-gap length 0:00:03.66

Peak level 70.9 %
Track quality 100.0 %
Test CRC BCB0286B
Copy CRC BCB0286B
Cannot be verified as accurate (confidence 31) [6753D991], AccurateRip returned [62D4B5A0]
Copy OK

Track 4

Filename E:\Own Rips\The Allman Brothers Band - Eat A Peach (1972) [FLAC] (Japan PHCR-94004)\04 - Mountain Jam.wav

Pre-gap length 0:00:01.76

Peak level 100.0 %
Track quality 100.0 %
Test CRC 42873A9C
Copy CRC 42873A9C
Cannot be verified as accurate (confidence 27) [438FB9FF], AccurateRip returned [E7084799]
Copy OK

Track 5

Filename E:\Own Rips\The Allman Brothers Band - Eat A Peach (1972) [FLAC] (Japan PHCR-94004)\05 - One Way Out.wav

Pre-gap length 0:00:02.77

Peak level 97.2 %
Track quality 100.0 %
Test CRC B9A2F723
Copy CRC B9A2F723
Cannot be verified as accurate (confidence 29) [EDC709EF], AccurateRip returned [10FD8779]
Copy OK

Track 6

Filename E:\Own Rips\The Allman Brothers Band - Eat A Peach (1972) [FLAC] (Japan PHCR-94004)\06 - Trouble No More.wav

Peak level 94.5 %
Track quality 100.0 %
Test CRC D6762F9E
Copy CRC D6762F9E
Cannot be verified as accurate (confidence 29) [998516A6], AccurateRip returned [99ED247F]
Copy OK

Track 7

Filename E:\Own Rips\The Allman Brothers Band - Eat A Peach (1972) [FLAC] (Japan PHCR-94004)\07 - Stand Back.wav

Pre-gap length 0:00:01.80

Peak level 90.3 %
Track quality 100.0 %
Test CRC 93CD4B50
Copy CRC 93CD4B50
Cannot be verified as accurate (confidence 28) [77FD7252], AccurateRip returned [D127B6D0]
Copy OK

Track 8

Filename E:\Own Rips\The Allman Brothers Band - Eat A Peach (1972) [FLAC] (Japan PHCR-94004)\08 - Blue Sky.wav

Pre-gap length 0:00:02.76

Peak level 81.5 %
Track quality 99.9 %
Test CRC FB389820
Copy CRC FB389820
Cannot be verified as accurate (confidence 28) [5C18D475], AccurateRip returned [FF5CD6BC]
Copy OK

Track 9

Filename E:\Own Rips\The Allman Brothers Band - Eat A Peach (1972) [FLAC] (Japan PHCR-94004)\09 - Little Martha.wav

Pre-gap length 0:00:01.77

Peak level 75.9 %
Track quality 99.9 %
Test CRC 741D29AB
Copy CRC 741D29AB
Cannot be verified as accurate (confidence 27) [C0430182], AccurateRip returned [85297353]
Copy OK


No tracks could be verified as accurate
You may have a different pressing from the one(s) in the database

No errors occurred

End of status report

[CUETools log; Date: 27.01.2018 15:56:26; Version: 2.1.4]
[CTDB TOCID: Xf8EnJ1A_DWk5cvHfhcFBM_ZKVg-] found.
Track | CTDB Status
1 | ( 87/288) Accurately ripped
2 | ( 86/288) Accurately ripped
3 | ( 87/288) Accurately ripped
4 | ( 84/288) Accurately ripped
5 | ( 87/288) Accurately ripped
6 | ( 87/288) Accurately ripped
7 | ( 83/288) Accurately ripped
8 | ( 84/288) Accurately ripped
9 | ( 85/288) Accurately ripped
[AccurateRip ID: 001b5ff8-00c8aa8a-6d106409] found.
Track [ CRC | V2 ] Status
01 [ca7c8c4b|3f8c47c9] (003+003/329) Accurately ripped
02 [b63d1713|1769242e] (003+003/327) Accurately ripped
03 [6753d991|605a16fd] (003+003/329) Accurately ripped
04 [438fb9ff|c43b38e5] (003+003/309) Accurately ripped
05 [edc709ef|8218e893] (003+003/324) Accurately ripped
06 [998516a6|218bdaa7] (003+003/322) Accurately ripped
07 [77fd7252|8dda662f] (003+003/322) Accurately ripped
08 [5c18d475|48c39162] (003+003/320) Accurately ripped
09 [c0430182|8a5efd48] (003+003/317) Accurately ripped
Offsetted by -861:
01 [8851eb56] (003/329) Accurately ripped
02 [ea8b9c9b] (003/327) Accurately ripped
03 [c5fedffe] (003/329) Accurately ripped
04 [384ef6c1] (002/309) Accurately ripped
05 [8074b6c9] (003/324) Accurately ripped
06 [7b3755e8] (003/322) Accurately ripped
07 [83b15b86] (003/322) Accurately ripped
08 [c644e36b] (003/320) Accurately ripped
09 [b00f7c34] (003/317) Accurately ripped
Offsetted by 124:
01 [f71cd073] (012/329) Accurately ripped
02 [daab7c87] (012/327) Accurately ripped
03 [610b79d9] (012/329) Accurately ripped
04 [559cde8b] (011/309) Accurately ripped
05 [4ba93a57] (013/324) Accurately ripped
06 [c7d3668a] (013/322) Accurately ripped
07 [5af34b62] (013/322) Accurately ripped
08 [9767c645] (013/320) Accurately ripped
09 [d40146a7] (011/317) Accurately ripped
Offsetted by 943:
01 [ae1be206] (012/329) Accurately ripped
02 [5a2a3b2f] (012/327) Accurately ripped
03 [a7e6b266] (012/329) Accurately ripped
04 [f93bd795] (012/309) Accurately ripped
05 [c3265b0c] (011/324) Accurately ripped
06 [574b8fe9] (011/322) Accurately ripped
07 [ccb24e56] (012/322) Accurately ripped
08 [57ef644b] (012/320) Accurately ripped
09 [37002613] (012/317) Accurately ripped
Offsetted by 1029:
01 [8b87ad3a] (017/329) Accurately ripped
02 [5f171e93] (017/327) Accurately ripped
03 [a109b230] (017/329) Accurately ripped
04 [1b5c98c3] (016/309) Accurately ripped
05 [50fcfad2] (016/324) Accurately ripped
06 [30ebbcf1] (018/322) Accurately ripped
07 [767dd87e] (018/322) Accurately ripped
08 [59549673] (016/320) Accurately ripped
09 [1fe8ae3c] (017/317) Accurately ripped
Offsetted by -202:
01 [682ed0db] (000/329) No match (V2 was not tested)
02 [9567e52c] (000/327) No match (V2 was not tested)
03 [ff259ab6] (000/329) No match (V2 was not tested)
04 [19f49a21] (000/309) No match (V2 was not tested)
05 [0a7a15c3] (000/324) No match (V2 was not tested)
06 [5a2022ec] (000/322) No match (V2 was not tested)
07 [7e0198fa] (000/322) No match (V2 was not tested)
08 [5fda2555] (000/320) No match (V2 was not tested)
09 [3492b9fe] (000/317) No match (V2 was not tested)

Track Peak [ CRC32 ] [W/O NULL] [ LOG ]
– 99,9 [4E68C4C5] [F160B491]
01 99,2 [2FC0055D] [5926721E] CRC32
02 94,6 [C2823031] [417FD867] CRC32
03 70,9 [BCB0286B] [7F1352BF] CRC32
04 99,9 [42873A9C] [F43A632D] CRC32
05 97,2 [B9A2F723] [375FF2B9] CRC32
06 94,5 [D6762F9E] [354A121E] CRC32
07 90,3 [93CD4B50] [0A98BE35] CRC32
08 81,5 [FB389820] [32379156] CRC32
09 75,9 [741D29AB] [F94B4A06] CRC32

foobar2000 1.2 / Dynamic Range Meter 1.1.1
log date: 2018-01-27 16:35:56

––––––––––––––––––––––––––––––––––––––––
Analyzed: Allman Brothers Band / Eat a Peach
––––––––––––––––––––––––––––––––––––––––

DR Peak RMS Duration Track
––––––––––––––––––––––––––––––––––––––––
DR12 -0.07 dB -14.48 dB 3:42 01-Ain't Wastin' Time No More
DR11 -0.48 dB -15.34 dB 9:07 02-Les Brers in A Minor
DR12 -2.98 dB -17.34 dB 3:56 03-Melissa
DR12 0.00 dB -15.49 dB 33:41 04-Mountain Jam
DR12 -0.24 dB -15.63 dB 4:58 05-One Way Out
DR12 -0.49 dB -14.41 dB 3:45 06-Trouble No More
DR12 -0.88 dB -15.68 dB 3:28 07-Stand Back
DR11 -1.77 dB -14.06 dB 5:11 08-Blue Sky
DR11 -2.39 dB -16.63 dB 2:07 09-Little Martha
––––––––––––––––––––––––––––––––––––––––

Number of tracks: 9
Official DR value: DR12

Samplerate: 44100 Hz
Channels: 2
Bits per sample: 16
Bitrate: 699 kbps
Codec: FLAC
================================================================================




The Allman Brothers Band - At Fillmore East Promo Box: 9 Albums 1969-1979 (1998) Japanese 9 CD Box Set [Re-Up]

The Allman Brothers Band - Biginnings (1973)
EAC | FLAC | Tracks (Cue&Log) ~ 422 Mb | Mp3 (CBR320) ~ 160 Mb | Scans included
Label: PolyGram/Capricorn | # PHCR-94005 | Time: 01:04:23

This is where the group's CD release history gets complicated. Beginnings was originally put together by Atco as a double LP to encourage new fans who'd missed them to buy the group's first two albums, and proved so successful that it was kept in print on CD by Polydor when it acquired the group's catalog. Polydor's single-CD version of this double LP, however, was substandard in audio quality, digitized from an LP production master, and their individual CDs of The Allman Brothers Band and Idlewild South were far superior. But when Capricorn got the library back in 1997, they remastered Beginnings along with the rest of the library.

Review by Bruce Eder, Allmusic.com


Tracklist:

01. Don't Want You No More (02:25)
02. It's Not My Cross To Bear (04:57)
03. Black Hearted Woman (05:18)
04. Trouble No More (03:48)
05. Every Hungry Woman (04:18)
06. Dreams (07:19)
07. Whipping Post (05:21)
08. Revival (04:05)
09. Don't Keep Me Wonderin' (03:30)
10. Midnight Rider (02:59)
11. In Memory Of Elizabeth Reed (06:58)
12. Hoochie Coochie Man (04:58)
13. Please Call Home (04:03)
14. Leave My Blues At Home (04:17)


Exact Audio Copy V0.99 prebeta 4 from 23. January 2008

EAC extraction logfile from 1. January 2009, 15:01

Allman Brothers Band / Beginnings

Used drive : HL-DT-STDVD-ROM GDR8163B Adapter: 1 ID: 1

Read mode : Secure
Utilize accurate stream : Yes
Defeat audio cache : Yes
Make use of C2 pointers : No

Read offset correction : 102
Overread into Lead-In and Lead-Out : No
Fill up missing offset samples with silence : Yes
Delete leading and trailing silent blocks : No
Null samples used in CRC calculations : Yes
Used interface : Native Win32 interface for Win NT & 2000
Gap handling : Appended to previous track

Used output format : User Defined Encoder
Selected bitrate : 128 kBit/s
Quality : High
Add ID3 tag : No
Command line compressor : D:\Programme\Exact Audio Copy\FLAC\FLAC.EXE
Additional command line options : -f -o %d -V -8 -T "artist=%a" -T "title=%t" -T "album=%g" -T "date=%y" -T "tracknumber=%n" -T "genre=%m" %s


TOC of the extracted CD

Track | Start | Length | Start sector | End sector
––––––––––––––––––––––––––––-
1 | 0:00.37 | 2:25.35 | 37 | 10946
2 | 2:25.72 | 4:57.57 | 10947 | 33278
3 | 7:23.54 | 5:18.20 | 33279 | 57148
4 | 12:41.74 | 3:48.40 | 57149 | 74288
5 | 16:30.39 | 4:18.48 | 74289 | 93686
6 | 20:49.12 | 7:19.65 | 93687 | 126676
7 | 28:09.02 | 5:21.27 | 126677 | 150778
8 | 33:30.29 | 4:05.28 | 150779 | 169181
9 | 37:35.57 | 3:30.20 | 169182 | 184951
10 | 41:06.02 | 2:59.70 | 184952 | 198446
11 | 44:05.72 | 6:58.27 | 198447 | 229823
12 | 51:04.24 | 4:58.40 | 229824 | 252213
13 | 56:02.64 | 4:03.53 | 252214 | 270491
14 | 60:06.42 | 4:17.65 | 270492 | 289831


Track 1

Filename E:\Own Rips\The Allman Brothers Band - Beginnings (1973) [FLAC] (Japan PHCR-94005)\01 - Don't Want You No More.wav

Pre-gap length 0:00:02.49

Peak level 91.6 %
Track quality 99.9 %
Test CRC 0D90DE85
Copy CRC 0D90DE85
Track not present in AccurateRip database
Copy OK

Track 2

Filename E:\Own Rips\The Allman Brothers Band - Beginnings (1973) [FLAC] (Japan PHCR-94005)\02 - It's Not My Cross To Bear.wav

Peak level 93.6 %
Track quality 100.0 %
Test CRC 1D745B74
Copy CRC 1D745B74
Track not present in AccurateRip database
Copy OK

Track 3

Filename E:\Own Rips\The Allman Brothers Band - Beginnings (1973) [FLAC] (Japan PHCR-94005)\03 - Black Hearted Woman.wav

Pre-gap length 0:00:02.28

Peak level 91.0 %
Track quality 100.0 %
Test CRC EC2EF0FD
Copy CRC EC2EF0FD
Track not present in AccurateRip database
Copy OK

Track 4

Filename E:\Own Rips\The Allman Brothers Band - Beginnings (1973) [FLAC] (Japan PHCR-94005)\04 - Trouble No More.wav

Pre-gap length 0:00:02.32

Peak level 92.4 %
Track quality 100.0 %
Test CRC 3F4E3EDF
Copy CRC 3F4E3EDF
Track not present in AccurateRip database
Copy OK

Track 5

Filename E:\Own Rips\The Allman Brothers Band - Beginnings (1973) [FLAC] (Japan PHCR-94005)\05 - Every Hungry Woman.wav

Pre-gap length 0:00:02.74

Peak level 94.2 %
Track quality 99.9 %
Test CRC A1254E0E
Copy CRC A1254E0E
Track not present in AccurateRip database
Copy OK

Track 6

Filename E:\Own Rips\The Allman Brothers Band - Beginnings (1973) [FLAC] (Japan PHCR-94005)\06 - Dreams.wav

Pre-gap length 0:00:03.65

Peak level 97.6 %
Track quality 100.0 %
Test CRC 0F8005E5
Copy CRC 0F8005E5
Track not present in AccurateRip database
Copy OK

Track 7

Filename E:\Own Rips\The Allman Brothers Band - Beginnings (1973) [FLAC] (Japan PHCR-94005)\07 - Whipping Post.wav

Pre-gap length 0:00:03.78

Peak level 97.9 %
Track quality 100.0 %
Test CRC E1C03AFC
Copy CRC E1C03AFC
Track not present in AccurateRip database
Copy OK

Track 8

Filename E:\Own Rips\The Allman Brothers Band - Beginnings (1973) [FLAC] (Japan PHCR-94005)\08 - Revival.wav

Pre-gap length 0:00:01.65

Peak level 79.1 %
Track quality 99.9 %
Test CRC F629A1F1
Copy CRC F629A1F1
Track not present in AccurateRip database
Copy OK

Track 9

Filename E:\Own Rips\The Allman Brothers Band - Beginnings (1973) [FLAC] (Japan PHCR-94005)\09 - Don't Keep Me Wonderin'.wav

Pre-gap length 0:00:02.05

Peak level 76.3 %
Track quality 100.0 %
Test CRC 93022A1F
Copy CRC 93022A1F
Track not present in AccurateRip database
Copy OK

Track 10

Filename E:\Own Rips\The Allman Brothers Band - Beginnings (1973) [FLAC] (Japan PHCR-94005)\10 - Midnight Rider.wav

Pre-gap length 0:00:01.52

Peak level 66.4 %
Track quality 100.0 %
Test CRC 147EE2B4
Copy CRC 147EE2B4
Track not present in AccurateRip database
Copy OK

Track 11

Filename E:\Own Rips\The Allman Brothers Band - Beginnings (1973) [FLAC] (Japan PHCR-94005)\11 - In Memory Of Elizabeth Reed.wav

Pre-gap length 0:00:01.92

Peak level 93.1 %
Track quality 100.0 %
Test CRC 9A971755
Copy CRC 9A971755
Track not present in AccurateRip database
Copy OK

Track 12

Filename E:\Own Rips\The Allman Brothers Band - Beginnings (1973) [FLAC] (Japan PHCR-94005)\12 - Hoochie Coochie Man.wav

Pre-gap length 0:00:03.25

Peak level 92.5 %
Track quality 99.9 %
Test CRC 6E5B3D58
Copy CRC 6E5B3D58
Track not present in AccurateRip database
Copy OK

Track 13

Filename E:\Own Rips\The Allman Brothers Band - Beginnings (1973) [FLAC] (Japan PHCR-94005)\13 - Please Call Home.wav

Pre-gap length 0:00:03.74

Peak level 93.0 %
Track quality 100.0 %
Test CRC 8F92B927
Copy CRC 8F92B927
Track not present in AccurateRip database
Copy OK

Track 14

Filename E:\Own Rips\The Allman Brothers Band - Beginnings (1973) [FLAC] (Japan PHCR-94005)\14 - Leave My Blues At Home.wav

Pre-gap length 0:00:03.89

Peak level 90.6 %
Track quality 99.8 %
Test CRC C51BEC4E
Copy CRC C51BEC4E
Track not present in AccurateRip database
Copy OK


None of the tracks are present in the AccurateRip database

No errors occurred

End of status report

[CUETools log; Date: 27.01.2018 15:56:49; Version: 2.1.4]
Pregap length 00:00:37.
[CTDB TOCID: duHmWBCNJLY8cshACSeqNyCXPf0-] found.
Track | CTDB Status
1 | (114/114) Accurately ripped
2 | (114/114) Accurately ripped
3 | (113/114) Accurately ripped
4 | (114/114) Accurately ripped
5 | (113/114) Accurately ripped
6 | (113/114) Accurately ripped
7 | (114/114) Accurately ripped
8 | (114/114) Accurately ripped
9 | (112/114) Accurately ripped
10 | (113/114) Accurately ripped
11 | (113/114) Accurately ripped
12 | (114/114) Accurately ripped
13 | (114/114) Accurately ripped
14 | (114/114) Accurately ripped
[AccurateRip ID: 0020ae5b-01608627-c50f180e] found.
Track [ CRC | V2 ] Status
01 [ae51a6d7|9d14ec02] (04+09/13) Accurately ripped
02 [48a4d966|9dd4cca8] (04+10/14) Accurately ripped
03 [1d564c56|26d740e3] (04+09/13) Accurately ripped
04 [2c9b956b|c18ec552] (04+09/13) Accurately ripped
05 [0568e5ca|a59c13b3] (04+09/13) Accurately ripped
06 [4b70015f|bdd32cd9] (04+09/13) Accurately ripped
07 [0a14cb79|806c501e] (04+09/13) Accurately ripped
08 [ea9cdcf2|f0ee5842] (04+09/13) Accurately ripped
09 [e15449e1|f3482d09] (04+09/13) Accurately ripped
10 [2568882c|ef702ee9] (04+09/13) Accurately ripped
11 [0e8db791|38d2e5b6] (04+09/13) Accurately ripped
12 [1466e997|145e17fe] (04+09/13) Accurately ripped
13 [2a5ea6a9|2e62b180] (04+10/14) Accurately ripped
14 [9e9827b9|38b34c03] (04+09/13) Accurately ripped

Track Peak [ CRC32 ] [W/O NULL] [ LOG ]
– 97,9 [DE2EE0C9] [43B0413F]
01 91,6 [0D90DE85] [ADA25019] CRC32
02 93,6 [1D745B74] [5834F19E] CRC32
03 91,0 [EC2EF0FD] [AF2862CA] CRC32
04 92,4 [3F4E3EDF] [D6234617] CRC32
05 94,2 [A1254E0E] [8BD738C7] CRC32
06 97,6 [0F8005E5] [E1141B14] CRC32
07 97,9 [E1C03AFC] [5CDCAC20] CRC32
08 79,1 [F629A1F1] [3FF9504B] CRC32
09 76,3 [93022A1F] [86B5C0ED] CRC32
10 66,4 [147EE2B4] [6A8349F2] CRC32
11 93,1 [9A971755] [7972EF37] CRC32
12 92,5 [6E5B3D58] [4958236F] CRC32
13 93,0 [8F92B927] [69D9678E] CRC32
14 90,6 [C51BEC4E] [56E5A7B3] CRC32

foobar2000 1.2 / Dynamic Range Meter 1.1.1
log date: 2018-01-27 16:36:24

––––––––––––––––––––––––––––––––––––––––
Analyzed: Allman Brothers Band / Beginnings
––––––––––––––––––––––––––––––––––––––––

DR Peak RMS Duration Track
––––––––––––––––––––––––––––––––––––––––
DR9 -0.76 dB -11.85 dB 2:25 01-Don't Want You No More
DR9 -0.57 dB -13.57 dB 4:58 02-It's Not My Cross To Bear
DR9 -0.82 dB -12.05 dB 5:18 03-Black Hearted Woman
DR9 -0.68 dB -12.01 dB 3:49 04-Trouble No More
DR10 -0.51 dB -12.46 dB 4:19 05-Every Hungry Woman
DR10 -0.21 dB -13.18 dB 7:20 06-Dreams
DR9 -0.18 dB -12.22 dB 5:21 07-Whipping Post
DR13 -2.03 dB -17.39 dB 4:05 08-Revival
DR12 -2.34 dB -17.34 dB 3:30 09-Don't Keep Me Wonderin'
DR12 -3.55 dB -18.50 dB 3:00 10-Midnight Rider
DR13 -0.61 dB -16.67 dB 6:58 11-In Memory Of Elizabeth Reed
DR13 -0.67 dB -15.64 dB 4:59 12-Hoochie Coochie Man
DR13 -0.62 dB -18.72 dB 4:04 13-Please Call Home
DR12 -0.85 dB -15.07 dB 4:18 14-Leave My Blues At Home
––––––––––––––––––––––––––––––––––––––––

Number of tracks: 14
Official DR value: DR11

Samplerate: 44100 Hz
Channels: 2
Bits per sample: 16
Bitrate: 913 kbps
Codec: FLAC
================================================================================




The Allman Brothers Band - At Fillmore East Promo Box: 9 Albums 1969-1979 (1998) Japanese 9 CD Box Set [Re-Up]

The Allman Brothers Band - Brothers and Sisters (1973)
EAC | FLAC | Tracks (Cue&Log) ~ 257 Mb | Mp3 (CBR320) ~ 104 Mb | Scans included
Label: PolyGram/Capricorn | # PHCR-94006 | Time: 00:38:23

Brothers and Sisters, the Allman Brothers Band's first new studio album in two years, shows off a leaner brand of musicianship, which, coupled with a pair of serious crowd-pleasers, "Ramblin' Man" and "Jessica," helped drive it to the top of the charts for a month and a half and to platinum record sales. This was the first album to feature the group's new lineup, with Chuck Leavell on keyboards and Lamar Williams on bass, as well as Dickey Betts' emergence as a singer alongside Gregg Allman. The tracks appear on the album in the order in which they were recorded, and the first three, up through "Ramblin' Man," feature Berry Oakley – their sound is rock-hard and crisp. The subsequent songs with Williams have the bass buried in the mix, and an overall muddier sound. The interplay between Leavell and Betts is beautiful on some songs, and Betts' slide on "Pony Boy" is a dazzling showcase that surprised everybody. Despite its sales, Brothers and Sisters is not quite a classic album (although it was their best for the next 17 years), especially in the wake of the four that had appeared previously, but it served as a template for some killer stage performances, and it proved that the band could survive the deaths of two key members.

Review by Bruce Eder, Allmusic.com


Tracklist:

01. Wasted Words (04:20)
02. Ramblin' Man (04:48)
03. Come And Go Blues (04:55)
04. Jelly Jelly (05:46)
05. Southbound (05:10)
06. Jessica (07:31)
07. Pony Boy (05:51)


Exact Audio Copy V0.99 prebeta 4 from 23. January 2008

EAC extraction logfile from 1. January 2009, 15:23

The Allman Brothers Band / Brothers And Sisters

Used drive : HL-DT-STDVD-ROM GDR8163B Adapter: 1 ID: 1

Read mode : Secure
Utilize accurate stream : Yes
Defeat audio cache : Yes
Make use of C2 pointers : No

Read offset correction : 102
Overread into Lead-In and Lead-Out : No
Fill up missing offset samples with silence : Yes
Delete leading and trailing silent blocks : No
Null samples used in CRC calculations : Yes
Used interface : Native Win32 interface for Win NT & 2000
Gap handling : Appended to previous track

Used output format : User Defined Encoder
Selected bitrate : 128 kBit/s
Quality : High
Add ID3 tag : No
Command line compressor : D:\Programme\Exact Audio Copy\FLAC\FLAC.EXE
Additional command line options : -f -o %d -V -8 -T "artist=%a" -T "title=%t" -T "album=%g" -T "date=%y" -T "tracknumber=%n" -T "genre=%m" %s


TOC of the extracted CD

Track | Start | Length | Start sector | End sector
––––––––––––––––––––––––––––-
1 | 0:00.37 | 4:20.58 | 37 | 19594
2 | 4:21.20 | 4:48.17 | 19595 | 41211
3 | 9:09.37 | 4:55.53 | 41212 | 63389
4 | 14:05.15 | 5:46.30 | 63390 | 89369
5 | 19:51.45 | 5:10.32 | 89370 | 112651
6 | 25:02.02 | 7:31.03 | 112652 | 146479
7 | 32:33.05 | 5:51.32 | 146480 | 172836


Track 1

Filename E:\Own Rips\The Allman Brothers Band - Brothers And Sisters (1973) [FLAC] (Japan PHCR-94006)\01 - Wasted Words.wav

Pre-gap length 0:00:02.49

Peak level 96.8 %
Track quality 100.0 %
Test CRC E7828DE3
Copy CRC E7828DE3
Track not present in AccurateRip database
Copy OK

Track 2

Filename E:\Own Rips\The Allman Brothers Band - Brothers And Sisters (1973) [FLAC] (Japan PHCR-94006)\02 - Ramblin' Man.wav

Pre-gap length 0:00:01.72

Peak level 88.9 %
Track quality 99.9 %
Test CRC 3C4A3CBE
Copy CRC 3C4A3CBE
Track not present in AccurateRip database
Copy OK

Track 3

Filename E:\Own Rips\The Allman Brothers Band - Brothers And Sisters (1973) [FLAC] (Japan PHCR-94006)\03 - Come And Go Blues.wav

Peak level 93.6 %
Track quality 100.0 %
Test CRC 3FD8E3AB
Copy CRC 3FD8E3AB
Track not present in AccurateRip database
Copy OK

Track 4

Filename E:\Own Rips\The Allman Brothers Band - Brothers And Sisters (1973) [FLAC] (Japan PHCR-94006)\04 - Jelly Jelly.wav

Pre-gap length 0:00:01.72

Peak level 83.9 %
Track quality 100.0 %
Test CRC DA633AD4
Copy CRC DA633AD4
Track not present in AccurateRip database
Copy OK

Track 5

Filename E:\Own Rips\The Allman Brothers Band - Brothers And Sisters (1973) [FLAC] (Japan PHCR-94006)\05 - Southbound.wav

Peak level 72.9 %
Track quality 100.0 %
Test CRC 9A2B23BC
Copy CRC 9A2B23BC
Track not present in AccurateRip database
Copy OK

Track 6

Filename E:\Own Rips\The Allman Brothers Band - Brothers And Sisters (1973) [FLAC] (Japan PHCR-94006)\06 - Jessica.wav

Pre-gap length 0:00:01.72

Peak level 81.5 %
Track quality 100.0 %
Test CRC 44687D0C
Copy CRC 44687D0C
Track not present in AccurateRip database
Copy OK

Track 7

Filename E:\Own Rips\The Allman Brothers Band - Brothers And Sisters (1973) [FLAC] (Japan PHCR-94006)\07 - Pony Boy.wav

Pre-gap length 0:00:02.72

Peak level 84.9 %
Track quality 100.0 %
Test CRC 879B7453
Copy CRC 879B7453
Track not present in AccurateRip database
Copy OK


None of the tracks are present in the AccurateRip database

No errors occurred

End of status report

[CUETools log; Date: 27.01.2018 15:57:00; Version: 2.1.4]
Pregap length 00:00:37.
[CTDB TOCID: PycrENhU76.JsNZ4wXMvX0TA0DE-] found.
Track | CTDB Status
1 | (60/61) Accurately ripped
2 | (61/61) Accurately ripped
3 | (61/61) Accurately ripped
4 | (60/61) Accurately ripped
5 | (61/61) Accurately ripped
6 | (61/61) Accurately ripped
7 | (61/61) Accurately ripped
[AccurateRip ID: 0009d9c5-003c3ae9-57090007] found.
Track [ CRC | V2 ] Status
01 [d8da7444|ecf23033] (06+04/10) Accurately ripped
02 [58f8c1e4|0af75787] (06+04/10) Accurately ripped
03 [850fcf00|2fd6a03d] (06+04/10) Accurately ripped
04 [a76ee576|c15d904f] (06+04/10) Accurately ripped
05 [aad0efd6|1a4eb2c6] (06+04/10) Accurately ripped
06 [8777300e|a75d3089] (06+04/10) Accurately ripped
07 [f3c9545e|88458f2a] (06+04/10) Accurately ripped

Track Peak [ CRC32 ] [W/O NULL] [ LOG ]
– 96,8 [2A613914] [9FE1EBD1]
01 96,8 [E7828DE3] [897C8811] CRC32
02 88,9 [3C4A3CBE] [67CB9EA9] CRC32
03 93,6 [3FD8E3AB] [CCDDD498] CRC32
04 83,9 [DA633AD4] [C8FB6B68] CRC32
05 72,9 [9A2B23BC] [0D045355] CRC32
06 81,5 [44687D0C] [DD5956DD] CRC32
07 84,9 [879B7453] [37E4E5CE] CRC32

foobar2000 1.2 / Dynamic Range Meter 1.1.1
log date: 2018-01-27 16:36:47

––––––––––––––––––––––––––––––––––––––––
Analyzed: The Allman Brothers Band / Brothers And Sisters
––––––––––––––––––––––––––––––––––––––––

DR Peak RMS Duration Track
––––––––––––––––––––––––––––––––––––––––
DR14 -0.28 dB -16.77 dB 4:21 01-Wasted Words
DR14 -1.02 dB -17.00 dB 4:48 02-Ramblin' Man
DR13 -0.57 dB -16.74 dB 4:56 03-Come And Go Blues
DR15 -1.52 dB -18.97 dB 5:46 04-Jelly Jelly
DR13 -2.74 dB -16.85 dB 5:10 05-Southbound
DR12 -1.78 dB -15.66 dB 7:31 06-Jessica
DR14 -1.42 dB -18.64 dB 5:51 07-Pony Boy
––––––––––––––––––––––––––––––––––––––––

Number of tracks: 7
Official DR value: DR13

Samplerate: 44100 Hz
Channels: 2
Bits per sample: 16
Bitrate: 713 kbps
Codec: FLAC
================================================================================




The Allman Brothers Band - At Fillmore East Promo Box: 9 Albums 1969-1979 (1998) Japanese 9 CD Box Set [Re-Up]

The Allman Brothers Band - Win, Lose or Draw (1975)
EAC | FLAC | Tracks (Cue&Log) ~ 257 Mb | Mp3 (CBR320) ~ 103 Mb | Scans included
Label: PolyGram/Capricorn | # PHCR-94007 | Time: 00:38:38

An unexpectedly poor showing from the group, considering the two-year lag between albums and what had come before. Despite a good cover of Muddy Waters' "Can't Lose What You Never Had" – highlighted by a great Dickey Betts solo – as an opener, there's not much here that's first-rate. The band sounds lethargic, although they still play decently. The title track and Dickey Betts' instrumental "High Falls" are among the few highlights, decent but unexceptional performances sparked by Betts' playing (which is engaging even on the loser tracks like "Louisiana Lou"). The album's main fault lies not with what it is, but what it could have been, and who it's from – as a debut album from a new band, it would be excusable and acceptable.

Review by Bruce Eder, Allmusic.com


Tracklist:

01. Can't Lose What You Never Had (05:49)
02. Just Another Love Song (02:44)
03. Nevertheless (03:32)
04. Win, Lose or Draw (04:45)
05. Louisiana Lou and Three Card Monty John (03:45)
06. High Falls (14:28)
07. Sweet Mama (03:32)


Exact Audio Copy V0.99 prebeta 4 from 23. January 2008

EAC extraction logfile from 1. January 2009, 19:50

The Allman Brothers Band / Win, Lose or Draw

Used drive : HL-DT-STDVD-ROM GDR8163B Adapter: 1 ID: 1

Read mode : Secure
Utilize accurate stream : Yes
Defeat audio cache : Yes
Make use of C2 pointers : No

Read offset correction : 102
Overread into Lead-In and Lead-Out : No
Fill up missing offset samples with silence : Yes
Delete leading and trailing silent blocks : No
Null samples used in CRC calculations : Yes
Used interface : Native Win32 interface for Win NT & 2000
Gap handling : Appended to previous track

Used output format : User Defined Encoder
Selected bitrate : 128 kBit/s
Quality : High
Add ID3 tag : No
Command line compressor : D:\Programme\Exact Audio Copy\FLAC\FLAC.EXE
Additional command line options : -f -o %d -V -8 -T "artist=%a" -T "title=%t" -T "album=%g" -T "date=%y" -T "tracknumber=%n" -T "genre=%m" %s


TOC of the extracted CD

Track | Start | Length | Start sector | End sector
––––––––––––––––––––––––––––-
1 | 0:00.00 | 5:49.72 | 0 | 26246
2 | 5:49.72 | 2:44.70 | 26247 | 38616
3 | 8:34.67 | 3:32.13 | 38617 | 54529
4 | 12:07.05 | 4:45.07 | 54530 | 75911
5 | 16:52.12 | 3:45.05 | 75912 | 92791
6 | 20:37.17 | 14:28.05 | 92792 | 157896
7 | 35:05.22 | 3:32.73 | 157897 | 173869


Track 1

Filename E:\Own Rips\The Allman Brothers Band - Win, Lose Or Draw (1975) [FLAC] (Japan PHCR-94007)\01 - Can't Lose What You Never Had.wav

Pre-gap length 0:00:02.00

Peak level 99.9 %
Track quality 99.9 %
Test CRC FF82F45F
Copy CRC FF82F45F
Cannot be verified as accurate (confidence 2) [CE5A07F2], AccurateRip returned [4C6E8127]
Copy OK

Track 2

Filename E:\Own Rips\The Allman Brothers Band - Win, Lose Or Draw (1975) [FLAC] (Japan PHCR-94007)\02 - Just Another Love Song.wav

Pre-gap length 0:00:00.80

Peak level 91.6 %
Track quality 100.0 %
Test CRC 833A26C6
Copy CRC 833A26C6
Cannot be verified as accurate (confidence 2) [955FC644], AccurateRip returned [6D7E6B6A]
Copy OK

Track 3

Filename E:\Own Rips\The Allman Brothers Band - Win, Lose Or Draw (1975) [FLAC] (Japan PHCR-94007)\03 - Nevertheless.wav

Pre-gap length 0:00:01.69

Peak level 92.5 %
Track quality 99.9 %
Test CRC 6060D86C
Copy CRC 6060D86C
Cannot be verified as accurate (confidence 2) [C8F4894B], AccurateRip returned [F7EFA845]
Copy OK

Track 4

Filename E:\Own Rips\The Allman Brothers Band - Win, Lose Or Draw (1975) [FLAC] (Japan PHCR-94007)\04 - Win, Lose or Draw.wav

Pre-gap length 0:00:01.33

Peak level 87.0 %
Track quality 100.0 %
Test CRC F29B121B
Copy CRC F29B121B
Cannot be verified as accurate (confidence 2) [90D60EDE], AccurateRip returned [631A64EF]
Copy OK

Track 5

Filename E:\Own Rips\The Allman Brothers Band - Win, Lose Or Draw (1975) [FLAC] (Japan PHCR-94007)\05 - Louisiana Lou and Three Card Monty John.wav

Pre-gap length 0:00:01.02

Peak level 89.4 %
Track quality 100.0 %
Test CRC 596FD8D7
Copy CRC 596FD8D7
Cannot be verified as accurate (confidence 2) [7AE7815D], AccurateRip returned [1B4244B2]
Copy OK

Track 6

Filename E:\Own Rips\The Allman Brothers Band - Win, Lose Or Draw (1975) [FLAC] (Japan PHCR-94007)\06 - High Falls.wav

Pre-gap length 0:00:00.73

Peak level 92.4 %
Track quality 100.0 %
Test CRC 23D1B0EF
Copy CRC 23D1B0EF
Cannot be verified as accurate (confidence 2) [C0BD4787], AccurateRip returned [88AD763A]
Copy OK

Track 7

Filename E:\Own Rips\The Allman Brothers Band - Win, Lose Or Draw (1975) [FLAC] (Japan PHCR-94007)\07 - Sweet Mama.wav

Pre-gap length 0:00:00.86

Peak level 100.0 %
Track quality 100.0 %
Test CRC 56C60220
Copy CRC 56C60220
Cannot be verified as accurate (confidence 2) [C58CB67B], AccurateRip returned [3F77B5BB]
Copy OK


No tracks could be verified as accurate
You may have a different pressing from the one(s) in the database

No errors occurred

End of status report

[CUETools log; Date: 27.01.2018 15:57:10; Version: 2.1.4]
[CTDB TOCID: RXW6P5s1iUSI7UT6IKUUON5HzDE-] found.
Track | CTDB Status
1 | (55/60) Accurately ripped
2 | (55/60) Accurately ripped
3 | (55/60) Accurately ripped
4 | (55/60) Accurately ripped
5 | (54/60) Accurately ripped
6 | (54/60) Accurately ripped
7 | (55/60) Accurately ripped
[AccurateRip ID: 00097559-003a4609-48090e07] found.
Track [ CRC | V2 ] Status
01 [ce5a07f2|83fbbf72] (02+02/58) Accurately ripped
02 [955fc644|1d4453cf] (02+02/55) Accurately ripped
03 [c8f4894b|0280e92d] (02+02/55) Accurately ripped
04 [90d60ede|1c6d918d] (02+02/56) Accurately ripped
05 [7ae7815d|080f07c9] (02+02/56) Accurately ripped
06 [c0bd4787|e31709b5] (02+02/55) Accurately ripped
07 [c58cb67b|8691299a] (02+02/54) Accurately ripped
Offsetted by -1619:
01 [24c3820f] (12/58) Accurately ripped
02 [3fce2a1a] (12/55) Accurately ripped
03 [68375295] (12/55) Accurately ripped
04 [38953bb7] (12/56) Accurately ripped
05 [8ac05e9a] (12/56) Accurately ripped
06 [769b7e92] (12/55) Accurately ripped
07 [1cadffbb] (12/54) Accurately ripped
Offsetted by -955:
01 [4c6e8127] (08/58) Accurately ripped
02 [6d7e6b6a] (07/55) Accurately ripped
03 [f7efa845] (07/55) Accurately ripped
04 [631a64ef] (08/56) Accurately ripped
05 [1b4244b2] (08/56) Accurately ripped
06 [88ad763a] (07/55) Accurately ripped
07 [3f77b5bb] (07/54) Accurately ripped

Track Peak [ CRC32 ] [W/O NULL] [ LOG ]
– 99,9 [2B683AB1] [82F594D2]
01 99,9 [FF82F45F] [A5BE7AC9] CRC32
02 91,5 [833A26C6] [16B755B5] CRC32
03 92,5 [6060D86C] [C1854C1B] CRC32
04 87,0 [F29B121B] [BF5D630F] CRC32
05 89,4 [596FD8D7] [033EA315] CRC32
06 92,4 [23D1B0EF] [C50436B2] CRC32
07 99,9 [56C60220] [8471EB3E] CRC32

foobar2000 1.2 / Dynamic Range Meter 1.1.1
log date: 2018-01-27 16:37:04

––––––––––––––––––––––––––––––––––––––––
Analyzed: The Allman Brothers Band / Win, Lose or Draw
––––––––––––––––––––––––––––––––––––––––

DR Peak RMS Duration Track
––––––––––––––––––––––––––––––––––––––––
DR12 0.00 dB -15.60 dB 5:50 01-Can't Lose What You Never Had
DR13 -0.76 dB -15.22 dB 2:45 02-Just Another Love Song
DR13 -0.67 dB -16.17 dB 3:32 03-Nevertheless
DR11 -1.21 dB -15.93 dB 4:45 04-Win, Lose or Draw
DR13 -0.97 dB -16.12 dB 3:45 05-Louisiana Lou and Three Card Monty John
DR12 -0.68 dB -15.47 dB 14:28 06-High Falls
DR13 0.00 dB -14.98 dB 3:33 07-Sweet Mama
––––––––––––––––––––––––––––––––––––––––

Number of tracks: 7
Official DR value: DR12

Samplerate: 44100 Hz
Channels: 2
Bits per sample: 16
Bitrate: 878 kbps
Codec: FLAC
================================================================================




The Allman Brothers Band - At Fillmore East Promo Box: 9 Albums 1969-1979 (1998) Japanese 9 CD Box Set [Re-Up]

The Allman Brothers Band - Wipe the Windows, Check the Oil, Dollar Gas (1976)
EAC | FLAC | Tracks (Cue&Log) ~ 475 Mb | Mp3 (CBR320) ~ 183 Mb | Scans included
Label: PolyGram/Capricorn | # PHCR-94008 | Time: 01:12:02

This live album was released by Capricorn Records largely as a way of raising money in a hurry, but it fares surprisingly well musically. The 1973-1974 Allman Brothers Band featured here is the one that most fans actually saw, since most listeners didn't discover them or get to their concerts until after the deaths of Duane Allman and Berry Oakley. Wipe the Windows isn't a landmark release like the Fillmore tapes – a collection of rock's greatest guitar albums could be complete without it. But no Allman Brothers Band fan should pass up Wipe the Windows, which is a most solid live album, and, in particular, a better representation of the songs off of Brothers and Sisters and Win, Lose or Draw than the original studio versions. "Southbound," "Ramblin' Man," "Jessica," and, to a lesser degree, "Wasted Words" come off exceptionally well. This second-generation band, with Dickey Betts as the sole lead guitar and Gregg Allman and Chuck Leavell sharing the keyboards, also performs a preconceived version of "In Memory of Elizabeth Reed" – they could never spark more fire than the version from the Fillmore, so they transform it into a moodier piece with more space for the keyboards to open up. Compiled from shows in New Orleans, San Francisco, Bakersfield, Oakland, and Watkins Glen (New York).

Review by Bruce Eder, Allmusic.com


Tracklist:

01. Introduction By Bill Graham (01:06)
02. Wasted Words (05:13)
03. Southbound (06:06)
04. Ramblin' Man (07:09)
05. In Memory Of Elizabeth Reed (17:23)
06. Ain't Wastin' Time No More (05:44)
07. Come And Go Blues (05:07)
08. Can't Lose What You Never Had (06:45)
09. Don't Want You No More (02:48)
10. It's Not MY Cross To Bear (05:24)
11. Jessica (09:12)


Exact Audio Copy V0.99 prebeta 4 from 23. January 2008

EAC extraction logfile from 2. January 2009, 20:41

The Allman Brothers Band / Wipe The Windows, Check The Oil, Dollar Gas

Used drive : HL-DT-STDVD-ROM GDR8163B Adapter: 1 ID: 1

Read mode : Secure
Utilize accurate stream : Yes
Defeat audio cache : Yes
Make use of C2 pointers : No

Read offset correction : 102
Overread into Lead-In and Lead-Out : No
Fill up missing offset samples with silence : Yes
Delete leading and trailing silent blocks : No
Null samples used in CRC calculations : Yes
Used interface : Native Win32 interface for Win NT & 2000
Gap handling : Appended to previous track

Used output format : User Defined Encoder
Selected bitrate : 128 kBit/s
Quality : High
Add ID3 tag : No
Command line compressor : D:\Programme\Exact Audio Copy\FLAC\FLAC.EXE
Additional command line options : -f -o %d -V -8 -T "artist=%a" -T "title=%t" -T "album=%g" -T "date=%y" -T "tracknumber=%n" -T "genre=%m" %s


TOC of the extracted CD

Track | Start | Length | Start sector | End sector
––––––––––––––––––––––––––––-
1 | 0:00.00 | 1:06.05 | 0 | 4954
2 | 1:06.05 | 5:13.72 | 4955 | 28501
3 | 6:20.02 | 6:06.23 | 28502 | 55974
4 | 12:26.25 | 7:09.25 | 55975 | 88174
5 | 19:35.50 | 17:23.20 | 88175 | 166419
6 | 36:58.70 | 5:44.17 | 166420 | 192236
7 | 42:43.12 | 5:07.63 | 192237 | 215324
8 | 47:51.00 | 6:45.65 | 215325 | 245764
9 | 54:36.65 | 2:48.00 | 245765 | 258364
10 | 57:24.65 | 5:24.27 | 258365 | 282691
11 | 62:49.17 | 9:12.65 | 282692 | 324156


Track 1

Filename E:\Own Rips\The Allman Brothers Band - At Fillmore East Disk Union Promo Box-Set (1998) [FLAC]\The Allman Brothers Band - Wipe The Windows, Check The Oil (1976) [FLAC] (Japan PROA-29)\01 - Introduction By Bill Graham.wav

Pre-gap length 0:00:02.00

Peak level 60.7 %
Track quality 99.8 %
Test CRC 1927852E
Copy CRC 1927852E
Cannot be verified as accurate (confidence 5) [31AE6893], AccurateRip returned [AC623768]
Copy OK

Track 2

Filename E:\Own Rips\The Allman Brothers Band - At Fillmore East Disk Union Promo Box-Set (1998) [FLAC]\The Allman Brothers Band - Wipe The Windows, Check The Oil (1976) [FLAC] (Japan PROA-29)\02 - Wasted Words.wav

Peak level 100.0 %
Track quality 100.0 %
Test CRC FB70BC58
Copy CRC FB70BC58
Cannot be verified as accurate (confidence 5) [84A336DF], AccurateRip returned [8AF7A7DC]
Copy OK

Track 3

Filename E:\Own Rips\The Allman Brothers Band - At Fillmore East Disk Union Promo Box-Set (1998) [FLAC]\The Allman Brothers Band - Wipe The Windows, Check The Oil (1976) [FLAC] (Japan PROA-29)\03 - Southbound.wav

Pre-gap length 0:00:01.42

Peak level 94.4 %
Track quality 100.0 %
Test CRC FDCB5769
Copy CRC FDCB5769
Cannot be verified as accurate (confidence 5) [5A3C5389], AccurateRip returned [D2A5ED8C]
Copy OK

Track 4

Filename E:\Own Rips\The Allman Brothers Band - At Fillmore East Disk Union Promo Box-Set (1998) [FLAC]\The Allman Brothers Band - Wipe The Windows, Check The Oil (1976) [FLAC] (Japan PROA-29)\04 - Ramblin' Man.wav

Pre-gap length 0:00:01.77

Peak level 99.3 %
Track quality 99.9 %
Test CRC E4C69C22
Copy CRC E4C69C22
Cannot be verified as accurate (confidence 5) [6DEB48E1], AccurateRip returned [07721419]
Copy OK

Track 5

Filename E:\Own Rips\The Allman Brothers Band - At Fillmore East Disk Union Promo Box-Set (1998) [FLAC]\The Allman Brothers Band - Wipe The Windows, Check The Oil (1976) [FLAC] (Japan PROA-29)\05 - In Memory Of Elizabeth Reed.wav

Peak level 100.0 %
Track quality 100.0 %
Test CRC 30733F9F
Copy CRC 30733F9F
Cannot be verified as accurate (confidence 5) [4CD261BD], AccurateRip returned [C6547690]
Copy OK

Track 6

Filename E:\Own Rips\The Allman Brothers Band - At Fillmore East Disk Union Promo Box-Set (1998) [FLAC]\The Allman Brothers Band - Wipe The Windows, Check The Oil (1976) [FLAC] (Japan PROA-29)\06 - Ain't Wastin' Time No More.wav

Pre-gap length 0:00:02.80

Peak level 94.5 %
Track quality 100.0 %
Test CRC EF2660A4
Copy CRC EF2660A4
Cannot be verified as accurate (confidence 5) [8873F798], AccurateRip returned [655D49ED]
Copy OK

Track 7

Filename E:\Own Rips\The Allman Brothers Band - At Fillmore East Disk Union Promo Box-Set (1998) [FLAC]\The Allman Brothers Band - Wipe The Windows, Check The Oil (1976) [FLAC] (Japan PROA-29)\07 - Come And Go Blues.wav

Pre-gap length 0:00:01.86

Peak level 73.0 %
Track quality 100.0 %
Test CRC 533FD0A2
Copy CRC 533FD0A2
Cannot be verified as accurate (confidence 5) [77B7608C], AccurateRip returned [A6E8D192]
Copy OK

Track 8

Filename E:\Own Rips\The Allman Brothers Band - At Fillmore East Disk Union Promo Box-Set (1998) [FLAC]\The Allman Brothers Band - Wipe The Windows, Check The Oil (1976) [FLAC] (Japan PROA-29)\08 - Can't Lose What You Never Had.wav

Pre-gap length 0:00:01.86

Peak level 96.0 %
Track quality 100.0 %
Test CRC CD3B0987
Copy CRC CD3B0987
Cannot be verified as accurate (confidence 5) [0863A3B0], AccurateRip returned [98244505]
Copy OK

Track 9

Filename E:\Own Rips\The Allman Brothers Band - At Fillmore East Disk Union Promo Box-Set (1998) [FLAC]\The Allman Brothers Band - Wipe The Windows, Check The Oil (1976) [FLAC] (Japan PROA-29)\09 - Don't Want You No More.wav

Pre-gap length 0:00:01.40

Peak level 84.1 %
Track quality 99.9 %
Test CRC A43BE2D5
Copy CRC A43BE2D5
Cannot be verified as accurate (confidence 5) [C19AEBB4], AccurateRip returned [84660E6B]
Copy OK

Track 10

Filename E:\Own Rips\The Allman Brothers Band - At Fillmore East Disk Union Promo Box-Set (1998) [FLAC]\The Allman Brothers Band - Wipe The Windows, Check The Oil (1976) [FLAC] (Japan PROA-29)\10 - It's Not MY Cross To Bear.wav

Peak level 84.1 %
Track quality 100.0 %
Test CRC A9F316A8
Copy CRC A9F316A8
Cannot be verified as accurate (confidence 5) [4E0B67E1], AccurateRip returned [C00B74C3]
Copy OK

Track 11

Filename E:\Own Rips\The Allman Brothers Band - At Fillmore East Disk Union Promo Box-Set (1998) [FLAC]\The Allman Brothers Band - Wipe The Windows, Check The Oil (1976) [FLAC] (Japan PROA-29)\11 - Jessica.wav

Peak level 74.9 %
Track quality 99.9 %
Test CRC 8253075E
Copy CRC 8253075E
Cannot be verified as accurate (confidence 5) [C7A1D417], AccurateRip returned [D0305C25]
Copy OK


No tracks could be verified as accurate
You may have a different pressing from the one(s) in the database

No errors occurred

End of status report

[CUETools log; Date: 27.01.2018 15:57:32; Version: 2.1.4]
[CTDB TOCID: .tsfm2D.80Jj_n4XHO2MrpgLgSo-] found.
Track | CTDB Status
1 | (64/65) Accurately ripped
2 | (64/65) Accurately ripped
3 | (62/65) Accurately ripped
4 | (63/65) Accurately ripped
5 | (63/65) Accurately ripped
6 | (63/65) Accurately ripped
7 | (63/65) Accurately ripped
8 | (63/65) Accurately ripped
9 | (64/65) Accurately ripped
10 | (63/65) Accurately ripped
11 | (63/65) Accurately ripped
[AccurateRip ID: 001c6ba8-00fda1b2-a310e20b] found.
Track [ CRC | V2 ] Status
01 [31ae6893|d6bf987d] (03+06/60) Accurately ripped
02 [84a336df|7f5c2ac3] (03+06/59) Accurately ripped
03 [5a3c5389|625ebd8c] (03+06/60) Accurately ripped
04 [6deb48e1|0f4d9802] (03+06/60) Accurately ripped
05 [4cd261bd|66dcfb92] (03+06/60) Accurately ripped
06 [8873f798|bad5e868] (03+06/59) Accurately ripped
07 [77b7608c|07ec68a7] (03+06/60) Accurately ripped
08 [0863a3b0|9f8be67a] (03+06/60) Accurately ripped
09 [c19aebb4|dc786cdd] (03+06/59) Accurately ripped
10 [4e0b67e1|d4adeeb5] (03+06/58) Accurately ripped
11 [c7a1d417|1747b1a3] (03+06/60) Accurately ripped
Offsetted by -913:
01 [4be49a49] (09/60) Accurately ripped
02 [51b9a94f] (08/59) Accurately ripped
03 [fead173c] (10/60) Accurately ripped
04 [489c9c2f] (10/60) Accurately ripped
05 [f0661f8a] (09/60) Accurately ripped
06 [cb5551bd] (09/59) Accurately ripped
07 [547f05d5] (10/60) Accurately ripped
08 [0fd33072] (09/60) Accurately ripped
09 [1a6ef96d] (09/59) Accurately ripped
10 [27d10df1] (08/58) Accurately ripped
11 [f0a2b3f9] (09/60) Accurately ripped
Offsetted by 671:
01 [1eac65ad] (03/60) Accurately ripped
02 [e797d457] (03/59) Accurately ripped
03 [e47754ac] (03/60) Accurately ripped
04 [3b86a14c] (03/60) Accurately ripped
05 [ae194dfd] (03/60) Accurately ripped
06 [981233cd] (03/59) Accurately ripped
07 [92b3dde6] (03/60) Accurately ripped
08 [ec699891] (03/60) Accurately ripped
09 [5c3b9ec0] (03/59) Accurately ripped
10 [57c3c0ee] (03/58) Accurately ripped
11 [3199bd65] (03/60) Accurately ripped
Offsetted by 1279:
01 [ac623768] (13/60) Accurately ripped
02 [8af7a7dc] (13/59) Accurately ripped
03 [d2a5ed8c] (13/60) Accurately ripped
04 [07721419] (13/60) Accurately ripped
05 [c6547690] (13/60) Accurately ripped
06 [655d49ed] (13/59) Accurately ripped
07 [a6e8d192] (13/60) Accurately ripped
08 [98244505] (13/60) Accurately ripped
09 [84660e6b] (13/59) Accurately ripped
10 [c00b74c3] (13/58) Accurately ripped
11 [d0305c25] (13/60) Accurately ripped

Track Peak [ CRC32 ] [W/O NULL] [ LOG ]
– 100,0 [59E686FB] [6F913538]
01 60,7 [1927852E] [5B9F8A44] CRC32
02 100,0 [FB70BC58] [EAF428FA] CRC32
03 94,4 [FDCB5769] [3650C150] CRC32
04 99,3 [E4C69C22] [48590DA3] CRC32
05 100,0 [30733F9F] [F6EA24A6] CRC32
06 94,5 [EF2660A4] [32767A1C] CRC32
07 73,0 [533FD0A2] [BFFB854D] CRC32
08 96,0 [CD3B0987] [E2212B2B] CRC32
09 84,1 [A43BE2D5] [C4981BA0] CRC32
10 84,1 [A9F316A8] [08A78103] CRC32
11 74,9 [8253075E] [F2046F0D] CRC32

foobar2000 1.2 / Dynamic Range Meter 1.1.1
log date: 2018-01-27 16:37:59

––––––––––––––––––––––––––––––––––––––––
Analyzed: The Allman Brothers Band / Wipe The Windows, Check The Oil, Dollar Gas
––––––––––––––––––––––––––––––––––––––––

DR Peak RMS Duration Track
––––––––––––––––––––––––––––––––––––––––
DR12 -4.34 dB -20.74 dB 1:06 01-Introduction By Bill Graham
DR13 0.00 dB -13.94 dB 5:14 02-Wasted Words
DR12 -0.50 dB -13.90 dB 6:06 03-Southbound
DR12 -0.06 dB -14.78 dB 7:09 04-Ramblin' Man
DR12 0.00 dB -14.83 dB 17:23 05-In Memory Of Elizabeth Reed
DR12 -0.49 dB -14.40 dB 5:44 06-Ain't Wastin' Time No More
DR13 -2.72 dB -17.21 dB 5:08 07-Come And Go Blues
DR13 -0.35 dB -15.73 dB 6:46 08-Can't Lose What You Never Had
DR13 -1.50 dB -16.32 dB 2:48 09-Don't Want You No More
DR13 -1.50 dB -16.72 dB 5:24 10-It's Not MY Cross To Bear
DR12 -2.50 dB -16.72 dB 9:13 11-Jessica
––––––––––––––––––––––––––––––––––––––––

Number of tracks: 11
Official DR value: DR12

Samplerate: 44100 Hz
Channels: 2
Bits per sample: 16
Bitrate: 877 kbps
Codec: FLAC
================================================================================




The Allman Brothers Band - At Fillmore East Promo Box: 9 Albums 1969-1979 (1998) Japanese 9 CD Box Set [Re-Up]

The Allman Brothers Band - Enlightened Rogues (1979)
EAC | FLAC | Tracks (Cue&Log) ~ 268 Mb | Mp3 (CBR320) ~ 101 Mb | Scans included
Label: PolyGram/Capricorn | # PHCR-94009 | Time: 00:38:22

The Allman Brothers Band's best studio album since Brothers and Sisters is a loud, brash, hard-rocking collection of consistently solid if not first-rate songs. The singing is some of the best since Idlewild South, and although they would do better once they brought in Warren Haynes, the dual-guitar lineup of Dickey Betts and Dan Toler is a reminder of what the group had been missing since Duane Allman's death. The music isn't earth-shattering, but it is exciting through and through.

Review by Bruce Eder, Allmusic.com


Tracklist:

01. Crazy Love (03:44)
02. Can't Take It With You (03:34)
03. Pegasus (07:32)
04. Need Your Love So Bad (04:02)
05. Blind Love (04:42)
06. Try it One More Time (05:03)
07. Just Ain't Easy (06:07)
08. Sail Away (03:34)


Exact Audio Copy V0.99 prebeta 4 from 23. January 2008

EAC extraction logfile from 2. January 2009, 12:56

The Allman Brothers Band / Enlightened Rogues

Used drive : HL-DT-STDVD-ROM GDR8163B Adapter: 1 ID: 1

Read mode : Secure
Utilize accurate stream : Yes
Defeat audio cache : Yes
Make use of C2 pointers : No

Read offset correction : 102
Overread into Lead-In and Lead-Out : No
Fill up missing offset samples with silence : Yes
Delete leading and trailing silent blocks : No
Null samples used in CRC calculations : Yes
Used interface : Native Win32 interface for Win NT & 2000
Gap handling : Appended to previous track

Used output format : User Defined Encoder
Selected bitrate : 128 kBit/s
Quality : High
Add ID3 tag : No
Command line compressor : D:\Programme\Exact Audio Copy\FLAC\FLAC.EXE
Additional command line options : -f -o %d -V -8 -T "artist=%a" -T "title=%t" -T "album=%g" -T "date=%y" -T "tracknumber=%n" -T "genre=%m" %s


TOC of the extracted CD

Track | Start | Length | Start sector | End sector
––––––––––––––––––––––––––––-
1 | 0:00.37 | 3:44.50 | 37 | 16886
2 | 3:45.12 | 3:34.40 | 16887 | 32976
3 | 7:19.52 | 7:32.35 | 32977 | 66911
4 | 14:52.12 | 4:02.35 | 66912 | 85096
5 | 18:54.47 | 4:42.63 | 85097 | 106309
6 | 23:37.35 | 5:03.60 | 106310 | 129094
7 | 28:41.20 | 6:07.30 | 129095 | 156649
8 | 34:48.50 | 3:34.55 | 156650 | 172754


Track 1

Filename E:\Own Rips\The Allman Brothers Band - Enlightened Rogues (1979) [FLAC] (Japan PHCR-94009)\01 - Crazy Love.wav

Pre-gap length 0:00:02.49

Peak level 100.0 %
Track quality 100.0 %
Test CRC 3D9EF2A0
Copy CRC 3D9EF2A0
Track not present in AccurateRip database
Copy OK

Track 2

Filename E:\Own Rips\The Allman Brothers Band - Enlightened Rogues (1979) [FLAC] (Japan PHCR-94009)\02 - Can't Take It With You.wav

Pre-gap length 0:00:00.38

Peak level 98.3 %
Track quality 99.9 %
Test CRC A2535617
Copy CRC A2535617
Track not present in AccurateRip database
Copy OK

Track 3

Filename E:\Own Rips\The Allman Brothers Band - Enlightened Rogues (1979) [FLAC] (Japan PHCR-94009)\03 - Pegasus.wav

Pre-gap length 0:00:00.54

Peak level 100.0 %
Track quality 100.0 %
Test CRC DEC2BB5A
Copy CRC DEC2BB5A
Track not present in AccurateRip database
Copy OK

Track 4

Filename E:\Own Rips\The Allman Brothers Band - Enlightened Rogues (1979) [FLAC] (Japan PHCR-94009)\04 - Need Your Love So Bad.wav

Pre-gap length 0:00:00.05

Peak level 100.0 %
Track quality 100.0 %
Test CRC 303425B4
Copy CRC 303425B4
Track not present in AccurateRip database
Copy OK

Track 5

Filename E:\Own Rips\The Allman Brothers Band - Enlightened Rogues (1979) [FLAC] (Japan PHCR-94009)\05 - Blind Love.wav

Pre-gap length 0:00:00.72

Peak level 100.0 %
Track quality 100.0 %
Test CRC 03ABEEBD
Copy CRC 03ABEEBD
Track not present in AccurateRip database
Copy OK

Track 6

Filename E:\Own Rips\The Allman Brothers Band - Enlightened Rogues (1979) [FLAC] (Japan PHCR-94009)\06 - Try it One More Time.wav

Pre-gap length 0:00:01.36

Peak level 100.0 %
Track quality 100.0 %
Test CRC FB2E5DF6
Copy CRC FB2E5DF6
Track not present in AccurateRip database
Copy OK

Track 7

Filename E:\Own Rips\The Allman Brothers Band - Enlightened Rogues (1979) [FLAC] (Japan PHCR-94009)\07 - Just Ain't Easy.wav

Pre-gap length 0:00:00.38

Peak level 100.0 %
Track quality 100.0 %
Test CRC 4C582C43
Copy CRC 4C582C43
Track not present in AccurateRip database
Copy OK

Track 8

Filename E:\Own Rips\The Allman Brothers Band - Enlightened Rogues (1979) [FLAC] (Japan PHCR-94009)\08 - Sail Away.wav

Pre-gap length 0:00:02.09

Peak level 100.0 %
Track quality 100.0 %
Test CRC C37FA587
Copy CRC C37FA587
Track not present in AccurateRip database
Copy OK


None of the tracks are present in the AccurateRip database

No errors occurred

End of status report

[CUETools log; Date: 27.01.2018 15:57:45; Version: 2.1.4]
Pregap length 00:00:37.
[CTDB TOCID: x5uX8Q4Rsbklzh6jCaKcC8p8yEY-] found.
Track | CTDB Status
1 | (4/4) Accurately ripped
2 | (4/4) Accurately ripped
3 | (4/4) Accurately ripped
4 | (4/4) Accurately ripped
5 | (4/4) Accurately ripped
6 | (4/4) Accurately ripped
7 | (4/4) Accurately ripped
8 | (4/4) Accurately ripped
[AccurateRip ID: 000bb300-004ef863-5d08ff08] found.
Track [ CRC | V2 ] Status
01 [1d211b31|5b13753b] (5+3/8) Accurately ripped
02 [45f50dd1|148b4bc7] (5+3/8) Accurately ripped
03 [5d7ca5ec|5a8800ae] (5+3/8) Accurately ripped
04 [91a0d047|6729e0b4] (5+3/8) Accurately ripped
05 [c9e96d2f|9db4e253] (5+3/8) Accurately ripped
06 [a2523876|837425be] (5+3/8) Accurately ripped
07 [67f6a36e|344a5115] (5+3/8) Accurately ripped
08 [17c12915|f231322b] (5+3/8) Accurately ripped

Track Peak [ CRC32 ] [W/O NULL] [ LOG ]
– 99,9 [5A4EA722] [76CF8C8A]
01 99,9 [3D9EF2A0] [F5976DF3] CRC32
02 98,3 [A2535617] [771172EC] CRC32
03 99,9 [DEC2BB5A] [73D4BC0F] CRC32
04 99,9 [303425B4] [42D0E494] CRC32
05 99,9 [03ABEEBD] [A90A8B57] CRC32
06 99,9 [FB2E5DF6] [A6C6F04B] CRC32
07 99,9 [4C582C43] [7B38E005] CRC32
08 99,9 [C37FA587] [0D500045] CRC32

foobar2000 1.2 / Dynamic Range Meter 1.1.1
log date: 2018-01-27 16:38:19

––––––––––––––––––––––––––––––––––––––––
Analyzed: The Allman Brothers Band / Enlightened Rogues
––––––––––––––––––––––––––––––––––––––––

DR Peak RMS Duration Track
––––––––––––––––––––––––––––––––––––––––
DR13 0.00 dB -14.30 dB 3:45 01-Crazy Love
DR14 -0.14 dB -15.44 dB 3:35 02-Can't Take It With You
DR13 0.00 dB -15.18 dB 7:32 03-Pegasus
DR14 0.00 dB -15.70 dB 4:02 04-Need Your Love So Bad
DR13 0.00 dB -14.33 dB 4:43 05-Blind Love
DR15 0.00 dB -16.32 dB 5:04 06-Try it One More Time
DR13 0.00 dB -15.05 dB 6:07 07-Just Ain't Easy
DR12 0.00 dB -14.87 dB 3:35 08-Sail Away
––––––––––––––––––––––––––––––––––––––––

Number of tracks: 8
Official DR value: DR13

Samplerate: 44100 Hz
Channels: 2
Bits per sample: 16
Bitrate: 854 kbps
Codec: FLAC
================================================================================