Subcategories

VA - Cafe del Mar: Dreams - Volume 1-5 (2000-2012) [6CD] Re-Up

Posted By: Designol
VA - Cafe del Mar: Dreams - Volume 1-5 (2000-2012) [6CD] Re-Up

VA - Café del Mar: Dreams - Volume 1-5 (2000-2012) [6CD]
EAC | FLAC | Tracks (Cue&Log) ~ 3 Gb | Mp3 (CBR320) ~ 1.3 Gb | Complete Scans
Lounge, Ambient, Chillout, Acid Jazz | Label: Cafe Del Mar Music | Time: 07:02:38

The Café del Mar is perhaps most known around the world for its chill-out music compilations. The songs are described as balearic ambient, easy listening music. The collections of the music played at the café were first sold on cassette at the end of the 1980s. In 1994, the first official “Café del Mar” CD was released, which included works by world-renowned artists. Following the great success of the first release, a total of 18 volumes of the main compilation series have been published.

VA - Cafe del Mar: Dreams - Volume 1-5 (2000-2012) [6CD] Re-Up






VA - Cafe del Mar: Dreams - Volume 1-5 (2000-2012) [6CD] Re-Up

VA - Café del Mar: Dreams 1 (2000)
EAC | FLAC | Tracks (Cue&Log) ~ 465 Mb | Mp3 (CBR320) ~ 197 Mb
Label: Cafe Del Mar Music | # 01-2000-7 | Time: 01:08:44 | Scans included

Music from the Fabled Isle of Ibiza and It's Legendary Breathtaking Sunsets. These Laid Back Grooves Are Part and Parcel to the Island Experience and Will Take You to a Place You Can Only Dream of in Your Mind…until You Get a Ticket! Artists Include Nightmares on Wax, Underworld, a Man Called Adam, Penguin Cafe Orchestra, Sabres of Paradise, D-note, Famed Ibiza DJ Nocho Sotomayor and More. Cover Art is Taken from a Painting by the Late Salvador Dali.

Tracklist:

01. A Man Called Adam - Estelle (06:49)
02. D' Note - D' Votion (07:01)
03. Sabres Of Paradise - Haunted Dancehall (05:49)
04. Miro - Emotions of Paradise (07:56)
05. Nightmares On Wax - Nights Interlude (Original Version) (03:28)
06. Sabres of Paradise - Smokebelch II (Beatless Mix) (04:18)
07. Afterlife - Blue Bar (06:50)
08. Underworld - Second Hard (09:03)
09. A Man Called Adam with Eddie Parker - Easter Song (08:04)
10. Penguin Cafe Orchestra - Music for A Found Harmonium (02:36)
11. Nacho Sotomayor - Cafe Del Mar (06:44)


Exact Audio Copy V1.0 beta 1 from 15. November 2010

EAC extraction logfile from 6. June 2013, 9:59

Various / Dreams

Used drive : ASUS DRW-24B3ST Adapter: 1 ID: 2

Read mode : Secure
Utilize accurate stream : Yes
Defeat audio cache : Yes
Make use of C2 pointers : No

Read offset correction : 6
Overread into Lead-In and Lead-Out : No
Fill up missing offset samples with silence : Yes
Delete leading and trailing silent blocks : No
Null samples used in CRC calculations : Yes
Used interface : Native Win32 interface for Win NT & 2000
Gap handling : Appended to previous track

Used output format : User Defined Encoder
Selected bitrate : 896 kBit/s
Quality : High
Add ID3 tag : No
Command line compressor : C:\Program Files (x86)\Exact Audio Copy\Flac\flac.exe
Additional command line options : -8 -V -T "ARTIST=%a" -T "TITLE=%t" -T "ALBUM=%g" -T "DATE=%y" -T "TRACKNUMBER=%n" -T "GENRE=%m" -T "COMMENT=ripped by Oleandris" %s


TOC of the extracted CD

Track | Start | Length | Start sector | End sector
––––––––––––––––––––––––––––-
1 | 0:00.00 | 6:49.00 | 0 | 30674
2 | 6:49.00 | 7:01.60 | 30675 | 62309
3 | 13:50.60 | 5:49.38 | 62310 | 88522
4 | 19:40.23 | 7:56.54 | 88523 | 124276
5 | 27:37.02 | 3:28.38 | 124277 | 139914
6 | 31:05.40 | 4:18.67 | 139915 | 159331
7 | 35:24.32 | 6:50.49 | 159332 | 190130
8 | 42:15.06 | 9:03.41 | 190131 | 230896
9 | 51:18.47 | 8:04.67 | 230897 | 267263
10 | 59:23.39 | 2:36.15 | 267264 | 278978
11 | 61:59.54 | 6:44.23 | 278979 | 309301


Track 1

Filename F:\ЗАГРУЗКИ\ Cafe Del Mar - Dreams (2000-2012)\ Cafe Del Mar - Dreams 1 (2000)\01. A Man Called Adam - Estelle.wav

Pre-gap length 0:00:02.00

Peak level 99.9 %
Extraction speed 2.2 X
Track quality 100.0 %
Test CRC F863612F
Copy CRC F863612F
Accurately ripped (confidence 3) [CFE3BC1E]
Copy OK

Track 2

Filename F:\ЗАГРУЗКИ\ Cafe Del Mar - Dreams (2000-2012)\ Cafe Del Mar - Dreams 1 (2000)\02. D' Note - D' Votion.wav

Pre-gap length 0:00:03.00

Peak level 99.9 %
Extraction speed 2.5 X
Track quality 100.0 %
Test CRC 8C3E4A4E
Copy CRC 8C3E4A4E
Accurately ripped (confidence 3) [01E619F8]
Copy OK

Track 3

Filename F:\ЗАГРУЗКИ\ Cafe Del Mar - Dreams (2000-2012)\ Cafe Del Mar - Dreams 1 (2000)\03. Sabres Of Paradise - Haunted Dancehall.wav

Pre-gap length 0:00:03.00

Peak level 99.9 %
Extraction speed 2.7 X
Track quality 100.0 %
Test CRC 489CD3F7
Copy CRC 489CD3F7
Accurately ripped (confidence 3) [9240D75C]
Copy OK

Track 4

Filename F:\ЗАГРУЗКИ\ Cafe Del Mar - Dreams (2000-2012)\ Cafe Del Mar - Dreams 1 (2000)\04. Miro - Emotions of Paradise.wav

Pre-gap length 0:00:03.00

Peak level 99.9 %
Extraction speed 3.1 X
Track quality 100.0 %
Test CRC 007F9F73
Copy CRC 007F9F73
Accurately ripped (confidence 3) [0EC729B6]
Copy OK

Track 5

Filename F:\ЗАГРУЗКИ\ Cafe Del Mar - Dreams (2000-2012)\ Cafe Del Mar - Dreams 1 (2000)\05. Nightmares On Wax - Nights Interlude (Original Version).wav

Pre-gap length 0:00:03.00

Peak level 99.9 %
Extraction speed 3.0 X
Track quality 100.0 %
Test CRC 079054AE
Copy CRC 079054AE
Accurately ripped (confidence 3) [8BB662FB]
Copy OK

Track 6

Filename F:\ЗАГРУЗКИ\ Cafe Del Mar - Dreams (2000-2012)\ Cafe Del Mar - Dreams 1 (2000)\06. Sabres of Paradise - Smokebelch II (Beatless Mix).wav

Pre-gap length 0:00:03.00

Peak level 99.9 %
Extraction speed 3.2 X
Track quality 100.0 %
Test CRC 465DE20C
Copy CRC 465DE20C
Accurately ripped (confidence 3) [3B07CD8E]
Copy OK

Track 7

Filename F:\ЗАГРУЗКИ\ Cafe Del Mar - Dreams (2000-2012)\ Cafe Del Mar - Dreams 1 (2000)\07. Afterlife - Blue Bar.wav

Pre-gap length 0:00:03.00

Peak level 100.0 %
Extraction speed 3.6 X
Track quality 100.0 %
Test CRC 65A46A9A
Copy CRC 65A46A9A
Accurately ripped (confidence 3) [42CA9ED3]
Copy OK

Track 8

Filename F:\ЗАГРУЗКИ\ Cafe Del Mar - Dreams (2000-2012)\ Cafe Del Mar - Dreams 1 (2000)\08. Underworld - Second Hard.wav

Pre-gap length 0:00:03.00

Peak level 100.0 %
Extraction speed 3.9 X
Track quality 100.0 %
Test CRC A753F060
Copy CRC A753F060
Accurately ripped (confidence 3) [A06426DA]
Copy OK

Track 9

Filename F:\ЗАГРУЗКИ\ Cafe Del Mar - Dreams (2000-2012)\ Cafe Del Mar - Dreams 1 (2000)\09. A Man Called Adam with Eddie Parker - Easter Song.wav

Pre-gap length 0:00:03.00

Peak level 100.0 %
Extraction speed 4.1 X
Track quality 100.0 %
Test CRC D759D653
Copy CRC D759D653
Accurately ripped (confidence 3) [25CE33B2]
Copy OK

Track 10

Filename F:\ЗАГРУЗКИ\ Cafe Del Mar - Dreams (2000-2012)\ Cafe Del Mar - Dreams 1 (2000)\10. Penguin Cafe Orchestra - Music for A Found Harmonium.wav

Pre-gap length 0:00:03.00

Peak level 100.0 %
Extraction speed 3.6 X
Track quality 100.0 %
Test CRC 3AA17219
Copy CRC 3AA17219
Accurately ripped (confidence 3) [8F1FA7CD]
Copy OK

Track 11

Filename F:\ЗАГРУЗКИ\ Cafe Del Mar - Dreams (2000-2012)\ Cafe Del Mar - Dreams 1 (2000)\11. Nacho Sotomayor - Cafe Del Mar.wav

Pre-gap length 0:00:03.00

Peak level 100.0 %
Extraction speed 4.3 X
Track quality 100.0 %
Test CRC 63144B13
Copy CRC 63144B13
Accurately ripped (confidence 3) [F230F9B0]
Copy OK


All tracks accurately ripped

No errors occurred

End of status report

==== Log checksum BE45B6FC66881FE3CAAE1BE033CCEDAC6FBBE83BBF4C8F4E909EB0CCD259E30C ====

foobar2000 1.2 / Dynamic Range Meter 1.1.1
log date: 2013-06-20 10:34:41

––––––––––––––––––––––––––––––––––––––––
Analyzed: A Man Called Adam with Eddie Parker / Dreams (1)
A Man Called Adam / Dreams (2)
Afterlife / Dreams (3)
D' Note / Dreams (4)
Miro / Dreams (5)
Nacho Sotomayor / Dreams (6)
Nightmares On Wax / Dreams (7)
Penguin Cafe Orchestra / Dreams (8)
Sabres Of Paradise / Dreams (9)
Sabres of Paradise / Dreams (10)
Underworld / Dreams (11)
––––––––––––––––––––––––––––––––––––––––

DR Peak RMS Duration Track
––––––––––––––––––––––––––––––––––––––––
DR11 0.00 dB -14.45 dB 8:05 09-Easter Song
DR9 0.00 dB -10.40 dB 6:49 01-Estelle
DR8 0.00 dB -9.70 dB 6:51 07-Blue Bar
DR9 0.00 dB -11.69 dB 7:02 02-D' Votion
DR11 0.00 dB -13.27 dB 7:57 04-Emotions of Paradise
DR11 0.00 dB -13.60 dB 6:44 11-Cafe Del Mar
DR9 0.00 dB -11.48 dB 3:29 05-Nights Interlude (Original Version)
DR11 0.00 dB -14.62 dB 2:36 10-Music for A Found Harmonium
DR9 0.00 dB -11.08 dB 5:50 03-Haunted Dancehall
DR8 0.00 dB -10.34 dB 4:19 06-Smokebelch II (Beatless Mix)
DR8 0.00 dB -10.25 dB 9:04 08-Second Hard
––––––––––––––––––––––––––––––––––––––––

Number of tracks: 11
Official DR value: DR9

Samplerate: 44100 Hz
Channels: 2
Bits per sample: 16
Bitrate: 725 kbps
Codec: FLAC
================================================================================




VA - Cafe del Mar: Dreams - Volume 1-5 (2000-2012) [6CD] Re-Up

VA - Café del Mar: Dreams 2 (2001)
EAC | FLAC | Tracks (Cue&Log) ~ 473 Mb | Mp3 (CBR320) ~ 201 Mb
Label: Cafe Del Mar Music | # 01-2001-14 | Time: 01:10:24 | Scans included

Dreams volume 2 is a truly wonderful album, compiled by a true DJ of the del Mar sound. Even better than vol. 1, this compilation combines the perfect blend of tasteful ambience, jazz, and vocals to totally numb the listener. The albums starts with the full-of-motion ambient piano track "Forty Two", then jumps into more upbeat jazzy vocal sounds, finally slowing down to end with Ypey's "Mellow", an absolutely beautiful ambient tune with a quiet backdrop of rolling waves. My favorite song on the compilation is definitely "Mellow", a song so beautifully composed, you can close your eyes and actually feel yourself on the beach of the Cafe del Mar.

Review by Brock Petrie, Amazon

Tracklist:

01. Sonic Adventure Project - Forty-Two (05:24)
02. Vargo - Get Back To Serenity (Beach Mix) (06:05)
03. Deep & Wide - Castillos De Arena (06:11)
04. Cottonbelly vs Trumpet Man - Don't Move (04:42)
05. Ohm-G - Chilli Conkani (04:17)
06. Rue Du Soleil - Dreaming of… (05:57)
07. Plastyc Buddha - Voyeur De Luxe (05:03)
08. Raccon feat. Christine Lucas - Beautiful Smile (05:03)
09. David Hertz - Believe (06:57)
10. Jaffa - Do It Again (04:17)
11. Cool Water feat. Time Passing - The Last Night (06:02)
12. Orange & Tusnelda - Stay Asleep (07:06)
13. Ypey - Mellow (03:13)


Exact Audio Copy V1.0 beta 1 from 15. November 2010

EAC extraction logfile from 6. June 2013, 9:49

Various Artists / Cafe Del Mar - Dreams Vol. 2

Used drive : PLEXTOR DVDR PX-L890SA Adapter: 1 ID: 4

Read mode : Secure
Utilize accurate stream : Yes
Defeat audio cache : Yes
Make use of C2 pointers : No

Read offset correction : 6
Overread into Lead-In and Lead-Out : No
Fill up missing offset samples with silence : Yes
Delete leading and trailing silent blocks : No
Null samples used in CRC calculations : Yes
Used interface : Native Win32 interface for Win NT & 2000
Gap handling : Appended to previous track

Used output format : User Defined Encoder
Selected bitrate : 896 kBit/s
Quality : High
Add ID3 tag : No
Command line compressor : C:\Program Files (x86)\Exact Audio Copy\Flac\flac.exe
Additional command line options : -8 -V -T "ARTIST=%a" -T "TITLE=%t" -T "ALBUM=%g" -T "DATE=%y" -T "TRACKNUMBER=%n" -T "GENRE=%m" -T "COMMENT=ripped by Oleandris" %s


TOC of the extracted CD

Track | Start | Length | Start sector | End sector
––––––––––––––––––––––––––––-
1 | 0:00.00 | 5:23.71 | 0 | 24295
2 | 5:23.71 | 6:05.53 | 24296 | 51723
3 | 11:29.49 | 6:11.18 | 51724 | 79566
4 | 17:40.67 | 4:42.21 | 79567 | 100737
5 | 22:23.13 | 4:17.44 | 100738 | 120056
6 | 26:40.57 | 5:57.48 | 120057 | 146879
7 | 32:38.30 | 5:03.29 | 146880 | 169633
8 | 37:41.59 | 5:03.49 | 169634 | 192407
9 | 42:45.33 | 6:57.13 | 192408 | 223695
10 | 49:42.46 | 4:17.49 | 223696 | 243019
11 | 54:00.20 | 6:02.58 | 243020 | 270227
12 | 60:03.03 | 7:06.43 | 270228 | 302220
13 | 67:09.46 | 3:13.41 | 302221 | 316736
14 | 72:55.12 | 4:18.55 | 328137 | 347541


Track 1

Filename F:\ЗАГРУЗКИ\ Cafe Del Mar - Dreams (2000-2012)\ Cafe Del Mar - Dreams 2 (2001)\01. Sonic Adventure Project - Forty-Two.wav

Pre-gap length 0:00:02.00

Peak level 99.8 %
Extraction speed 4.0 X
Track quality 100.0 %
Test CRC 54259373
Copy CRC 54259373
Accurately ripped (confidence 8) [A81F157C]
Copy OK

Track 2

Filename F:\ЗАГРУЗКИ\ Cafe Del Mar - Dreams (2000-2012)\ Cafe Del Mar - Dreams 2 (2001)\02. Vargo - Get Back To Serenity (Beach Mix).wav

Pre-gap length 0:00:02.00

Peak level 82.0 %
Extraction speed 4.7 X
Track quality 100.0 %
Test CRC 938058F7
Copy CRC 938058F7
Accurately ripped (confidence 8) [9FCC390E]
Copy OK

Track 3

Filename F:\ЗАГРУЗКИ\ Cafe Del Mar - Dreams (2000-2012)\ Cafe Del Mar - Dreams 2 (2001)\03. Deep & Wide - Castillos De Arena.wav

Pre-gap length 0:00:02.00

Peak level 97.6 %
Extraction speed 4.4 X
Track quality 99.9 %
Test CRC 818BAF71
Copy CRC 818BAF71
Accurately ripped (confidence 7) [A3291BA5]
Copy OK

Track 4

Filename F:\ЗАГРУЗКИ\ Cafe Del Mar - Dreams (2000-2012)\ Cafe Del Mar - Dreams 2 (2001)\04. Cottonbelly vs Trumpet Man - Don't Move.wav

Pre-gap length 0:00:02.00

Peak level 99.8 %
Extraction speed 5.4 X
Track quality 100.0 %
Test CRC 73D853DC
Copy CRC 73D853DC
Accurately ripped (confidence 8) [82F1508A]
Copy OK

Track 5

Filename F:\ЗАГРУЗКИ\ Cafe Del Mar - Dreams (2000-2012)\ Cafe Del Mar - Dreams 2 (2001)\05. Ohm-G - Chilli Conkani.wav

Pre-gap length 0:00:02.00

Peak level 95.5 %
Extraction speed 5.7 X
Track quality 100.0 %
Test CRC 2A14EFC9
Copy CRC 2A14EFC9
Accurately ripped (confidence 8) [87BD5B3C]
Copy OK

Track 6

Filename F:\ЗАГРУЗКИ\ Cafe Del Mar - Dreams (2000-2012)\ Cafe Del Mar - Dreams 2 (2001)\06. Rue Du Soleil - Dreaming of….wav

Pre-gap length 0:00:02.00

Peak level 100.0 %
Extraction speed 5.2 X
Track quality 99.9 %
Test CRC 9B1575EC
Copy CRC 9B1575EC
Accurately ripped (confidence 7) [ED65BDA8]
Copy OK

Track 7

Filename F:\ЗАГРУЗКИ\ Cafe Del Mar - Dreams (2000-2012)\ Cafe Del Mar - Dreams 2 (2001)\07. Plastyc Buddha - Voyeur De Luxe.wav

Pre-gap length 0:00:02.00

Peak level 99.8 %
Extraction speed 6.4 X
Track quality 100.0 %
Test CRC BC4DCFCD
Copy CRC BC4DCFCD
Accurately ripped (confidence 8) [F6E570B7]
Copy OK

Track 8

Filename F:\ЗАГРУЗКИ\ Cafe Del Mar - Dreams (2000-2012)\ Cafe Del Mar - Dreams 2 (2001)\08. Raccon feat. Christine Lucas - Beautiful Smile.wav

Pre-gap length 0:00:02.00

Peak level 97.7 %
Extraction speed 6.7 X
Track quality 100.0 %
Test CRC 9A7D9155
Copy CRC 9A7D9155
Accurately ripped (confidence 8) [D5A2318F]
Copy OK

Track 9

Filename F:\ЗАГРУЗКИ\ Cafe Del Mar - Dreams (2000-2012)\ Cafe Del Mar - Dreams 2 (2001)\09. David Hertz - Believe.wav

Pre-gap length 0:00:02.00

Peak level 100.0 %
Extraction speed 7.2 X
Track quality 100.0 %
Test CRC 21B00BC9
Copy CRC 21B00BC9
Accurately ripped (confidence 8) [A80AF61B]
Copy OK

Track 10

Filename F:\ЗАГРУЗКИ\ Cafe Del Mar - Dreams (2000-2012)\ Cafe Del Mar - Dreams 2 (2001)\10. Jaffa - Do It Again.wav

Pre-gap length 0:00:02.00

Peak level 97.1 %
Extraction speed 7.1 X
Track quality 100.0 %
Test CRC 1BED55FD
Copy CRC 1BED55FD
Accurately ripped (confidence 8) [17345A5E]
Copy OK

Track 11

Filename F:\ЗАГРУЗКИ\ Cafe Del Mar - Dreams (2000-2012)\ Cafe Del Mar - Dreams 2 (2001)\11. Cool Water feat. Time Passing - The Last Night.wav

Pre-gap length 0:00:02.00

Peak level 99.8 %
Extraction speed 7.7 X
Track quality 100.0 %
Test CRC 782A1C89
Copy CRC 782A1C89
Accurately ripped (confidence 8) [5231C5EB]
Copy OK

Track 12

Filename F:\ЗАГРУЗКИ\ Cafe Del Mar - Dreams (2000-2012)\ Cafe Del Mar - Dreams 2 (2001)\12. Orange & Tusnelda - Stay Asleep.wav

Pre-gap length 0:00:02.00

Peak level 99.8 %
Extraction speed 8.2 X
Track quality 100.0 %
Test CRC D759DA11
Copy CRC D759DA11
Accurately ripped (confidence 8) [C334400E]
Copy OK

Track 13

Filename F:\ЗАГРУЗКИ\ Cafe Del Mar - Dreams (2000-2012)\ Cafe Del Mar - Dreams 2 (2001)\13. Ypey - Mellow.wav

Pre-gap length 0:00:02.00

Peak level 99.8 %
Extraction speed 7.6 X
Track quality 100.0 %
Test CRC 43B2E473
Copy CRC 43B2E473
Accurately ripped (confidence 8) [7C2AEA6F]
Copy OK


All tracks accurately ripped

No errors occurred

End of status report

==== Log checksum 557B57AA700BF7C4910C5F7EEA55BE3BC21F9957EA9A83CAA7FFFEACB0789633 ====

foobar2000 1.2 / Dynamic Range Meter 1.1.1
log date: 2013-06-20 10:35:01

––––––––––––––––––––––––––––––––––––––––
Analyzed: Cool Water feat. Time Passing / Cafe Del Mar - Dreams Vol. 2 (1)
Cottonbelly vs Trumpet Man / Cafe Del Mar - Dreams Vol. 2 (2)
David Hertz / Cafe Del Mar - Dreams Vol. 2 (3)
Deep & Wide / Cafe Del Mar - Dreams Vol. 2 (4)
Jaffa / Cafe Del Mar - Dreams Vol. 2 (5)
Ohm-G / Cafe Del Mar - Dreams Vol. 2 (6)
Orange & Tusnelda / Cafe Del Mar - Dreams Vol. 2 (7)
Plastyc Buddha / Cafe Del Mar - Dreams Vol. 2 (8)
Raccon feat. Christine Lucas / Cafe Del Mar - Dreams Vol. 2 (9)
Rue Du Soleil / Cafe Del Mar - Dreams Vol. 2 (10)
Sonic Adventure Project / Cafe Del Mar - Dreams Vol. 2 (11)
Vargo / Cafe Del Mar - Dreams Vol. 2 (12)
Ypey / Cafe Del Mar - Dreams Vol. 2 (13)
––––––––––––––––––––––––––––––––––––––––

DR Peak RMS Duration Track
––––––––––––––––––––––––––––––––––––––––
DR8 -0.01 dB -9.53 dB 6:03 11-The Last Night
DR7 -0.01 dB -9.50 dB 4:42 04-Don't Move
DR9 0.00 dB -11.27 dB 6:57 09-Believe
DR6 -0.21 dB -7.98 dB 6:11 03-Castillos De Arena
DR9 -0.25 dB -10.78 dB 4:18 10-Do It Again
DR9 -0.40 dB -11.49 dB 4:18 05-Chilli Conkani
DR7 -0.01 dB -9.76 dB 7:07 12-Stay Asleep
DR7 -0.01 dB -8.81 dB 5:03 07-Voyeur De Luxe
DR6 -0.20 dB -7.81 dB 5:04 08-Beautiful Smile
DR7 0.00 dB -9.63 dB 5:58 06-Dreaming of…
DR7 -0.01 dB -9.46 dB 5:24 01-Forty-Two
DR5 -1.71 dB -8.18 dB 6:06 02-Get Back To Serenity (Beach Mix)
DR8 -0.01 dB -11.54 dB 3:14 13-Mellow
––––––––––––––––––––––––––––––––––––––––

Number of tracks: 13
Official DR value: DR7

Samplerate: 44100 Hz
Channels: 2
Bits per sample: 16
Bitrate: 816 kbps
Codec: FLAC
================================================================================




VA - Cafe del Mar: Dreams - Volume 1-5 (2000-2012) [6CD] Re-Up

VA - Café del Mar: Dreams 3 (2003)
EAC | FLAC | Tracks (Cue&Log) ~ 497 Mb | Mp3 (CBR320) ~ 208 Mb
Label: Cafe Del Mar Music | # 01-2003-31 | Time: 01:12:48 | Scans included

This is easily the best of the 3 Dreams CD's, with the vol. 4 that is just coming out around now tying it for first… I am not a great CDM fan, even though I enjoy treir music in general, but this cd just blew me off since the moment I heard Bliss, Rue de Soleil, Buffalo Sanchez… Long story short, I listen to this CD at least once a week, usually much more often than that.

Review by Kosta Popovic, Amazon

Tracklist:

01. Bliss - Sleep Will Come (06:00)
02. Ohm-G & Bruno - Jungle Light (04:59)
03. Gaia Project - Oasis (04:52)
04. Luminius - Hold On (06:32)
05. Silent Sounds by Deise Mikhail - The Picasso Suite - Theme From Summer Of 42 (04:15)
06. Zino & Tommy - Ain't Feel Nothing (03:44)
07. Gelka - Please Keep Your Ticket Till The End (06:04)
08. Martin Bottcher - Old Shatterhand (Orbient Mix) (04:16)
09. Rue Du Soleil - Manush (05:09)
10. Buffalo Sanchez - By Your Side (04:24)
11. Hibiki Connection - Cha-Ka-Too (Sunset Mix) (07:28)
12. Andre Andreo - Themes From New Earth (03:45)
13. Dab - Have A Smoke (06:52)
14. Jose Luis Zafra - Ritmo Del Mar (04:22)


Exact Audio Copy V1.0 beta 1 from 15. November 2010

EAC extraction logfile from 6. June 2013, 10:16

Various / Cafe Del Mar - Dreams 3

Used drive : PLEXTOR DVDR PX-891SA Adapter: 1 ID: 5

Read mode : Secure
Utilize accurate stream : Yes
Defeat audio cache : Yes
Make use of C2 pointers : No

Read offset correction : 6
Overread into Lead-In and Lead-Out : No
Fill up missing offset samples with silence : Yes
Delete leading and trailing silent blocks : No
Null samples used in CRC calculations : Yes
Used interface : Native Win32 interface for Win NT & 2000
Gap handling : Appended to previous track

Used output format : User Defined Encoder
Selected bitrate : 896 kBit/s
Quality : High
Add ID3 tag : No
Command line compressor : C:\Program Files (x86)\Exact Audio Copy\Flac\flac.exe
Additional command line options : -8 -V -T "ARTIST=%a" -T "TITLE=%t" -T "ALBUM=%g" -T "DATE=%y" -T "TRACKNUMBER=%n" -T "GENRE=%m" -T "COMMENT=ripped by Oleandris" %s


TOC of the extracted CD

Track | Start | Length | Start sector | End sector
––––––––––––––––––––––––––––-
1 | 0:00.00 | 6:00.05 | 0 | 27004
2 | 6:00.05 | 4:59.12 | 27005 | 49441
3 | 10:59.17 | 4:52.02 | 49442 | 71343
4 | 15:51.19 | 6:32.26 | 71344 | 100769
5 | 22:23.45 | 4:15.33 | 100770 | 119927
6 | 26:39.03 | 3:43.74 | 119928 | 136726
7 | 30:23.02 | 6:04.40 | 136727 | 164066
8 | 36:27.42 | 4:16.26 | 164067 | 183292
9 | 40:43.68 | 5:09.68 | 183293 | 206535
10 | 45:53.61 | 4:24.62 | 206536 | 226397
11 | 50:18.48 | 7:28.39 | 226398 | 260036
12 | 57:47.12 | 3:45.39 | 260037 | 276950
13 | 61:32.51 | 6:52.60 | 276951 | 307910
14 | 68:25.36 | 4:21.71 | 307911 | 327556


Track 1

Filename F:\ЗАГРУЗКИ\ Cafe Del Mar - Dreams (2000-2012)\ Cafe Del Mar - Dreams 3 (2003)\01. Bliss - Sleep Will Come.wav

Pre-gap length 0:00:02.00

Peak level 98.3 %
Extraction speed 2.2 X
Track quality 100.0 %
Test CRC 29A85BE7
Copy CRC 29A85BE7
Accurately ripped (confidence 2) [F40CA285]
Copy OK

Track 2

Filename F:\ЗАГРУЗКИ\ Cafe Del Mar - Dreams (2000-2012)\ Cafe Del Mar - Dreams 3 (2003)\02. Ohm-G & Bruno - Jungle Light.wav

Peak level 99.8 %
Extraction speed 2.4 X
Track quality 100.0 %
Test CRC 226161D5
Copy CRC 226161D5
Accurately ripped (confidence 2) [11840261]
Copy OK

Track 3

Filename F:\ЗАГРУЗКИ\ Cafe Del Mar - Dreams (2000-2012)\ Cafe Del Mar - Dreams 3 (2003)\03. Gaia Project - Oasis.wav

Peak level 99.8 %
Extraction speed 2.7 X
Track quality 100.0 %
Test CRC 0582C61D
Copy CRC 0582C61D
Accurately ripped (confidence 2) [E3B86440]
Copy OK

Track 4

Filename F:\ЗАГРУЗКИ\ Cafe Del Mar - Dreams (2000-2012)\ Cafe Del Mar - Dreams 3 (2003)\04. Luminius - Hold On.wav

Peak level 97.4 %
Extraction speed 3.0 X
Track quality 100.0 %
Test CRC 55267333
Copy CRC 55267333
Accurately ripped (confidence 2) [87778760]
Copy OK

Track 5

Filename F:\ЗАГРУЗКИ\ Cafe Del Mar - Dreams (2000-2012)\ Cafe Del Mar - Dreams 3 (2003)\05. Silent Sounds by Deise Mikhail - The Picasso Suite - Theme From Summer Of 42.wav

Peak level 99.3 %
Extraction speed 3.0 X
Track quality 100.0 %
Test CRC FBCBC625
Copy CRC FBCBC625
Accurately ripped (confidence 2) [1B36C71A]
Copy OK

Track 6

Filename F:\ЗАГРУЗКИ\ Cafe Del Mar - Dreams (2000-2012)\ Cafe Del Mar - Dreams 3 (2003)\06. Zino & Tommy - Ain't Feel Nothing.wav

Peak level 97.4 %
Extraction speed 3.1 X
Track quality 100.0 %
Test CRC 78B1106C
Copy CRC 78B1106C
Accurately ripped (confidence 2) [D1E0B6BA]
Copy OK

Track 7

Filename F:\ЗАГРУЗКИ\ Cafe Del Mar - Dreams (2000-2012)\ Cafe Del Mar - Dreams 3 (2003)\07. Gelka - Please Keep Your Ticket Till The End.wav

Peak level 97.6 %
Extraction speed 3.5 X
Track quality 100.0 %
Test CRC 3DE1F7D3
Copy CRC 3DE1F7D3
Accurately ripped (confidence 2) [EDF013F2]
Copy OK

Track 8

Filename F:\ЗАГРУЗКИ\ Cafe Del Mar - Dreams (2000-2012)\ Cafe Del Mar - Dreams 3 (2003)\08. Martin Bottcher - Old Shatterhand (Orbient Mix).wav

Peak level 99.8 %
Extraction speed 2.6 X
Track quality 99.9 %
Test CRC FD5E1D57
Copy CRC FD5E1D57
Accurately ripped (confidence 2) [CA329AB1]
Copy OK

Track 9

Filename F:\ЗАГРУЗКИ\ Cafe Del Mar - Dreams (2000-2012)\ Cafe Del Mar - Dreams 3 (2003)\09. Rue Du Soleil - Manush.wav

Peak level 100.0 %
Extraction speed 3.7 X
Track quality 100.0 %
Test CRC E750C9B8
Copy CRC E750C9B8
Accurately ripped (confidence 2) [328E2B9C]
Copy OK

Track 10

Filename F:\ЗАГРУЗКИ\ Cafe Del Mar - Dreams (2000-2012)\ Cafe Del Mar - Dreams 3 (2003)\10. Buffalo Sanchez - By Your Side.wav

Peak level 99.8 %
Extraction speed 3.8 X
Track quality 100.0 %
Test CRC 3C1E40D1
Copy CRC 3C1E40D1
Accurately ripped (confidence 2) [E5E7D07D]
Copy OK

Track 11

Filename F:\ЗАГРУЗКИ\ Cafe Del Mar - Dreams (2000-2012)\ Cafe Del Mar - Dreams 3 (2003)\11. Hibiki Connection - Cha-Ka-Too (Sunset Mix).wav

Pre-gap length 0:00:00.09

Peak level 99.8 %
Extraction speed 4.2 X
Track quality 100.0 %
Test CRC 3B3610C8
Copy CRC 3B3610C8
Accurately ripped (confidence 2) [DCCC2DF6]
Copy OK

Track 12

Filename F:\ЗАГРУЗКИ\ Cafe Del Mar - Dreams (2000-2012)\ Cafe Del Mar - Dreams 3 (2003)\12. Andre Andreo - Themes From New Earth.wav

Peak level 97.7 %
Extraction speed 4.0 X
Track quality 100.0 %
Test CRC 704F0DE7
Copy CRC 704F0DE7
Accurately ripped (confidence 2) [4CB7683F]
Copy OK

Track 13

Filename F:\ЗАГРУЗКИ\ Cafe Del Mar - Dreams (2000-2012)\ Cafe Del Mar - Dreams 3 (2003)\13. Dab - Have A Smoke.wav

Peak level 99.8 %
Extraction speed 4.4 X
Track quality 100.0 %
Test CRC 99EE7E31
Copy CRC 99EE7E31
Accurately ripped (confidence 2) [25123D6F]
Copy OK

Track 14

Filename F:\ЗАГРУЗКИ\ Cafe Del Mar - Dreams (2000-2012)\ Cafe Del Mar - Dreams 3 (2003)\14. Jose Luis Zafra - Ritmo Del Mar.wav

Peak level 99.8 %
Extraction speed 4.4 X
Track quality 100.0 %
Test CRC 0074F3A0
Copy CRC 0074F3A0
Accurately ripped (confidence 2) [0432475E]
Copy OK


All tracks accurately ripped

No errors occurred

End of status report

==== Log checksum 8880DE239DA48D7DD20AA1798266B2660A3B00A98C26B6CABBA0B0C4551B852F ====

foobar2000 1.2 / Dynamic Range Meter 1.1.1
log date: 2013-06-20 10:35:21

––––––––––––––––––––––––––––––––––––––––
Analyzed: Andre Andreo / Cafe Del Mar - Dreams 3 (1)
Bliss / Cafe Del Mar - Dreams 3 (2)
Buffalo Sanchez / Cafe Del Mar - Dreams 3 (3)
Dab / Cafe Del Mar - Dreams 3 (4)
Gaia Project / Cafe Del Mar - Dreams 3 (5)
Gelka / Cafe Del Mar - Dreams 3 (6)
Hibiki Connection / Cafe Del Mar - Dreams 3 (7)
Jose Luis Zafra / Cafe Del Mar - Dreams 3 (8)
Luminius / Cafe Del Mar - Dreams 3 (9)
Martin Bottcher / Cafe Del Mar - Dreams 3 (10)
Ohm-G & Bruno / Cafe Del Mar - Dreams 3 (11)
Rue Du Soleil / Cafe Del Mar - Dreams 3 (12)
Silent Sounds by Deise Mikhail / Cafe Del Mar - Dreams 3 (13)
Zino & Tommy / Cafe Del Mar - Dreams 3 (14)
––––––––––––––––––––––––––––––––––––––––

DR Peak RMS Duration Track
––––––––––––––––––––––––––––––––––––––––
DR8 -0.20 dB -10.14 dB 3:46 12-Themes From New Earth
DR10 -0.15 dB -14.07 dB 6:00 01-Sleep Will Come
DR9 -0.01 dB -11.28 dB 4:25 10-By Your Side
DR8 -0.01 dB -10.69 dB 6:53 13-Have A Smoke
DR8 -0.01 dB -10.60 dB 4:52 03-Oasis
DR8 -0.21 dB -9.75 dB 6:05 07-Please Keep Your Ticket Till The End
DR13 -0.01 dB -14.91 dB 7:29 11-Cha-Ka-Too (Sunset Mix)
DR8 -0.01 dB -12.55 dB 4:22 14-Ritmo Del Mar
DR8 -0.22 dB -10.45 dB 6:32 04-Hold On
DR8 -0.01 dB -9.32 dB 4:16 08-Old Shatterhand (Orbient Mix)
DR10 -0.01 dB -14.43 dB 4:59 02-Jungle Light
DR8 0.00 dB -10.76 dB 5:10 09-Manush
DR7 -0.06 dB -8.57 dB 4:15 05-The Picasso Suite - Theme From Summer Of 42
DR8 -0.22 dB -10.03 dB 3:44 06-Ain't Feel Nothing
––––––––––––––––––––––––––––––––––––––––

Number of tracks: 14
Official DR value: DR9

Samplerate: 44100 Hz
Channels: 2
Bits per sample: 16
Bitrate: 837 kbps
Codec: FLAC
================================================================================




VA - Cafe del Mar: Dreams - Volume 1-5 (2000-2012) [6CD] Re-Up

VA - Café del Mar: Dreams 4 (2006) 2CD
EAC | FLAC | Tracks (Cue&Log) ~ 957 Mb | Mp3 (CBR320) ~ 345 Mb
Label: Cafe Del Mar Music | # 01-2006-49 | Time: 02:23:27 | Scans ~ 65 Mb

The Fourth Edition of the Cafe Del Mar Dreams Series is the First to Be Expanded to a Double CD Set. The Majority of the 27 Tracks were Created Exclusively for the Cafe Del Mar Label by Musicians who have Participated with the Label in the Past and Other Artists Join the Fold as Well. Their Aural Tapestries Make it Possible that You Can Close Your Eyes and Visualize Ibiza's Magical Soul While You Enjoy the Best of Cafe Del Mar’s Sunset Deep Best Sounds.

Tracklist:

CD1:

01. Gary B - It's Alright (05:04)
02. DJ Ino - Linda (04:33)
03. Luminous - Feel Safe (04:20)
04. Mads Arp - Alive (05:33)
05. Gelka - Rising (05:02)
06. Pshycodelic Farm - El Sonho (07:27)
07. Sonic Adventure Project - Inner Journey (04:11)
08. Ludvig & Stelar - Sunset (04:33)
09. Alejandro De Pinedo - Cancer (05:14)
10. Melibea - Fusion (05:22)
11. Florian Sagner's - Deep Breath (07:30)
12. Nouvelle Vedette - Dreaming (05:21)
13. Koru - Submariner (05:08)
14. Camino Del Sol - L'etoile d'or (03:42)

CD2:

01. Teri Richardson - Eyes Wide Open (04:40)
02. Aisen - Another Day (05:06)
03. Blank & Jones - Twilight (03:59)
04. Aaron Taylor - Let You Go (06:05)
05. Groove Lovers - Mediterranean Star (04:47)
06. Allesandro Boschi - Cuevas Del Drach (04:16)
07. Dab - The Call (05:23)
08. Alexander Vogele - Ibizarre (04:53)
09. Rue Du Soleil - In My Heart (05:12)
10. Cardinal Zen - Far From Home (04:58)
11. Vargo - Precious (Part 1) (04:30)
12. Ohm-G & M Bussian - By Chance (05:04)
13. Aware - Esperando La Lluvia (05:51)
14. La Caina - Bailando Va (05:30)


Exact Audio Copy V1.0 beta 1 from 15. November 2010

EAC extraction logfile from 6. June 2013, 10:47

Various / Cafe Del Mar - Dreams 4 CD1

Used drive : ASUS DRW-24B3ST Adapter: 1 ID: 2

Read mode : Secure
Utilize accurate stream : Yes
Defeat audio cache : Yes
Make use of C2 pointers : No

Read offset correction : 6
Overread into Lead-In and Lead-Out : No
Fill up missing offset samples with silence : Yes
Delete leading and trailing silent blocks : No
Null samples used in CRC calculations : Yes
Used interface : Native Win32 interface for Win NT & 2000
Gap handling : Appended to previous track

Used output format : User Defined Encoder
Selected bitrate : 896 kBit/s
Quality : High
Add ID3 tag : No
Command line compressor : C:\Program Files (x86)\Exact Audio Copy\Flac\flac.exe
Additional command line options : -8 -V -T "ARTIST=%a" -T "TITLE=%t" -T "ALBUM=%g" -T "DATE=%y" -T "TRACKNUMBER=%n" -T "GENRE=%m" -T "COMMENT=ripped by Oleandris" %s


TOC of the extracted CD

Track | Start | Length | Start sector | End sector
––––––––––––––––––––––––––––-
1 | 0:00.00 | 5:04.39 | 0 | 22838
2 | 5:04.39 | 4:33.44 | 22839 | 43357
3 | 9:38.08 | 4:20.35 | 43358 | 62892
4 | 13:58.43 | 5:33.34 | 62893 | 87901
5 | 19:32.02 | 5:01.69 | 87902 | 110545
6 | 24:33.71 | 7:27.69 | 110546 | 144139
7 | 32:01.65 | 4:11.18 | 144140 | 162982
8 | 36:13.08 | 4:32.73 | 162983 | 183455
9 | 40:46.06 | 5:14.21 | 183456 | 207026
10 | 46:00.27 | 5:22.55 | 207027 | 231231
11 | 51:23.07 | 7:30.25 | 231232 | 265006
12 | 58:53.32 | 5:20.72 | 265007 | 289078
13 | 64:14.29 | 5:08.55 | 289079 | 312233
14 | 69:23.09 | 3:42.30 | 312234 | 328913


Track 1

Filename F:\ЗАГРУЗКИ\ Cafe Del Mar - Dreams (2000-2012)\ Cafe Del Mar - Dreams 4 2CD (2006)\ Cafe Del Mar - Dreams 4 CD1\01. Gary B - It's Alright.wav

Pre-gap length 0:00:02.00

Peak level 98.8 %
Extraction speed 3.3 X
Track quality 99.9 %
Test CRC D2A79AD8
Copy CRC D2A79AD8
Accurately ripped (confidence 7) [C03A9DE8]
Copy OK

Track 2

Filename F:\ЗАГРУЗКИ\ Cafe Del Mar - Dreams (2000-2012)\ Cafe Del Mar - Dreams 4 2CD (2006)\ Cafe Del Mar - Dreams 4 CD1\02. DJ Ino - Linda.wav

Pre-gap length 0:00:02.00

Peak level 98.8 %
Extraction speed 3.5 X
Track quality 99.9 %
Test CRC EA68544B
Copy CRC EA68544B
Accurately ripped (confidence 7) [D197917A]
Copy OK

Track 3

Filename F:\ЗАГРУЗКИ\ Cafe Del Mar - Dreams (2000-2012)\ Cafe Del Mar - Dreams 4 2CD (2006)\ Cafe Del Mar - Dreams 4 CD1\03. Luminous - Feel Safe.wav

Pre-gap length 0:00:02.00

Peak level 98.8 %
Extraction speed 4.6 X
Track quality 100.0 %
Test CRC FC262CA4
Copy CRC FC262CA4
Accurately ripped (confidence 7) [9DDA2098]
Copy OK

Track 4

Filename F:\ЗАГРУЗКИ\ Cafe Del Mar - Dreams (2000-2012)\ Cafe Del Mar - Dreams 4 2CD (2006)\ Cafe Del Mar - Dreams 4 CD1\04. Mads Arp - Alive.wav

Pre-gap length 0:00:02.00

Peak level 98.8 %
Extraction speed 5.1 X
Track quality 100.0 %
Test CRC 7D825DCB
Copy CRC 7D825DCB
Accurately ripped (confidence 7) [9C275385]
Copy OK

Track 5

Filename F:\ЗАГРУЗКИ\ Cafe Del Mar - Dreams (2000-2012)\ Cafe Del Mar - Dreams 4 2CD (2006)\ Cafe Del Mar - Dreams 4 CD1\05. Gelka - Rising.wav

Pre-gap length 0:00:02.00

Peak level 98.8 %
Extraction speed 5.4 X
Track quality 100.0 %
Test CRC E69C1F41
Copy CRC E69C1F41
Accurately ripped (confidence 7) [F6E071FC]
Copy OK

Track 6

Filename F:\ЗАГРУЗКИ\ Cafe Del Mar - Dreams (2000-2012)\ Cafe Del Mar - Dreams 4 2CD (2006)\ Cafe Del Mar - Dreams 4 CD1\06. Pshycodelic Farm - El Sonho.wav

Pre-gap length 0:00:02.00

Peak level 98.8 %
Extraction speed 5.2 X
Track quality 99.9 %
Test CRC 21B39335
Copy CRC 21B39335
Accurately ripped (confidence 7) [8BFC4554]
Copy OK

Track 7

Filename F:\ЗАГРУЗКИ\ Cafe Del Mar - Dreams (2000-2012)\ Cafe Del Mar - Dreams 4 2CD (2006)\ Cafe Del Mar - Dreams 4 CD1\07. Sonic Adventure Project - Inner Journey.wav

Pre-gap length 0:00:02.00

Peak level 98.8 %
Extraction speed 6.0 X
Track quality 100.0 %
Test CRC 5C44FD54
Copy CRC 5C44FD54
Accurately ripped (confidence 7) [C8AFCBFE]
Copy OK

Track 8

Filename F:\ЗАГРУЗКИ\ Cafe Del Mar - Dreams (2000-2012)\ Cafe Del Mar - Dreams 4 2CD (2006)\ Cafe Del Mar - Dreams 4 CD1\08. Ludvig & Stelar - Sunset.wav

Pre-gap length 0:00:02.00

Peak level 98.8 %
Extraction speed 6.3 X
Track quality 100.0 %
Test CRC 92E9FCAC
Copy CRC 92E9FCAC
Accurately ripped (confidence 7) [399AA5BD]
Copy OK

Track 9

Filename F:\ЗАГРУЗКИ\ Cafe Del Mar - Dreams (2000-2012)\ Cafe Del Mar - Dreams 4 2CD (2006)\ Cafe Del Mar - Dreams 4 CD1\09. Alejandro De Pinedo - Cancer.wav

Pre-gap length 0:00:02.00

Peak level 98.8 %
Extraction speed 6.7 X
Track quality 100.0 %
Test CRC E6D3D48F
Copy CRC E6D3D48F
Accurately ripped (confidence 7) [AED98181]
Copy OK

Track 10

Filename F:\ЗАГРУЗКИ\ Cafe Del Mar - Dreams (2000-2012)\ Cafe Del Mar - Dreams 4 2CD (2006)\ Cafe Del Mar - Dreams 4 CD1\10. Melibea - Fusion.wav

Pre-gap length 0:00:02.00

Peak level 98.8 %
Extraction speed 5.7 X
Track quality 99.9 %
Test CRC 1D56A829
Copy CRC 1D56A829
Accurately ripped (confidence 7) [00563E27]
Copy OK

Track 11

Filename F:\ЗАГРУЗКИ\ Cafe Del Mar - Dreams (2000-2012)\ Cafe Del Mar - Dreams 4 2CD (2006)\ Cafe Del Mar - Dreams 4 CD1\11. Florian Sagner's - Deep Breath.wav

Pre-gap length 0:00:02.00

Peak level 98.8 %
Extraction speed 7.5 X
Track quality 100.0 %
Test CRC 75863D4C
Copy CRC 75863D4C
Accurately ripped (confidence 7) [9F160849]
Copy OK

Track 12

Filename F:\ЗАГРУЗКИ\ Cafe Del Mar - Dreams (2000-2012)\ Cafe Del Mar - Dreams 4 2CD (2006)\ Cafe Del Mar - Dreams 4 CD1\12. Nouvelle Vedette - Dreaming.wav

Pre-gap length 0:00:02.00

Peak level 98.8 %
Extraction speed 7.6 X
Track quality 100.0 %
Test CRC 2A224633
Copy CRC 2A224633
Accurately ripped (confidence 7) [89C58542]
Copy OK

Track 13

Filename F:\ЗАГРУЗКИ\ Cafe Del Mar - Dreams (2000-2012)\ Cafe Del Mar - Dreams 4 2CD (2006)\ Cafe Del Mar - Dreams 4 CD1\13. Koru - Submariner.wav

Pre-gap length 0:00:02.00

Peak level 98.8 %
Extraction speed 7.8 X
Track quality 100.0 %
Test CRC 82B38EB9
Copy CRC 82B38EB9
Accurately ripped (confidence 7) [783A80A2]
Copy OK

Track 14

Filename F:\ЗАГРУЗКИ\ Cafe Del Mar - Dreams (2000-2012)\ Cafe Del Mar - Dreams 4 2CD (2006)\ Cafe Del Mar - Dreams 4 CD1\14. Camino Del Sol - L'etoile d'or.wav

Pre-gap length 0:00:02.00

Peak level 98.8 %
Extraction speed 7.6 X
Track quality 100.0 %
Test CRC 80FDF184
Copy CRC 80FDF184
Accurately ripped (confidence 7) [492FA77D]
Copy OK


All tracks accurately ripped

No errors occurred

End of status report

==== Log checksum 63320A0B684DE94FC60CA001FAF0E1155085619943ABA7FC0943F68870C77CB5 ====

foobar2000 1.2 / Dynamic Range Meter 1.1.1
log date: 2013-06-20 10:35:44

––––––––––––––––––––––––––––––––––––––––
Analyzed: Alejandro De Pinedo / Cafe Del Mar - Dreams 4 CD1 (1)
Camino Del Sol / Cafe Del Mar - Dreams 4 CD1 (2)
DJ Ino / Cafe Del Mar - Dreams 4 CD1 (3)
Florian Sagner's / Cafe Del Mar - Dreams 4 CD1 (4)
Gary B / Cafe Del Mar - Dreams 4 CD1 (5)
Gelka / Cafe Del Mar - Dreams 4 CD1 (6)
Koru / Cafe Del Mar - Dreams 4 CD1 (7)
Ludvig & Stelar / Cafe Del Mar - Dreams 4 CD1 (8)
Luminous / Cafe Del Mar - Dreams 4 CD1 (9)
Mads Arp / Cafe Del Mar - Dreams 4 CD1 (10)
Melibea / Cafe Del Mar - Dreams 4 CD1 (11)
Nouvelle Vedette / Cafe Del Mar - Dreams 4 CD1 (12)
Pshycodelic Farm / Cafe Del Mar - Dreams 4 CD1 (13)
Sonic Adventure Project / Cafe Del Mar - Dreams 4 CD1 (14)
––––––––––––––––––––––––––––––––––––––––

DR Peak RMS Duration Track
––––––––––––––––––––––––––––––––––––––––
DR7 -0.10 dB -9.61 dB 5:14 09-Cancer
DR7 -0.10 dB -9.09 dB 3:42 14-L'etoile d'or
DR6 -0.10 dB -7.47 dB 4:34 02-Linda
DR7 -0.10 dB -8.27 dB 7:30 11-Deep Breath
DR6 -0.10 dB -9.22 dB 5:05 01-It's Alright
DR7 -0.10 dB -9.12 dB 5:02 05-Rising
DR9 -0.10 dB -11.40 dB 5:09 13-Submariner
DR7 -0.10 dB -8.53 dB 4:33 08-Sunset
DR8 -0.10 dB -10.47 dB 4:20 03-Feel Safe
DR7 -0.10 dB -8.87 dB 5:33 04-Alive
DR7 -0.10 dB -8.98 dB 5:23 10-Fusion
DR7 -0.10 dB -9.95 dB 5:21 12-Dreaming
DR7 -0.10 dB -8.50 dB 7:28 06-El Sonho
DR6 -0.10 dB -9.10 dB 4:11 07-Inner Journey
––––––––––––––––––––––––––––––––––––––––

Number of tracks: 14
Official DR value: DR7

Samplerate: 44100 Hz
Channels: 2
Bits per sample: 16
Bitrate: 897 kbps
Codec: FLAC
================================================================================


Exact Audio Copy V1.0 beta 1 from 15. November 2010

EAC extraction logfile from 6. June 2013, 10:21

Various / Cafe Del Mar - Dreams 4 CD2

Used drive : PLEXTOR DVDR PX-L890SA Adapter: 1 ID: 4

Read mode : Secure
Utilize accurate stream : Yes
Defeat audio cache : Yes
Make use of C2 pointers : No

Read offset correction : 6
Overread into Lead-In and Lead-Out : No
Fill up missing offset samples with silence : Yes
Delete leading and trailing silent blocks : No
Null samples used in CRC calculations : Yes
Used interface : Native Win32 interface for Win NT & 2000
Gap handling : Appended to previous track

Used output format : User Defined Encoder
Selected bitrate : 896 kBit/s
Quality : High
Add ID3 tag : No
Command line compressor : C:\Program Files (x86)\Exact Audio Copy\Flac\flac.exe
Additional command line options : -8 -V -T "ARTIST=%a" -T "TITLE=%t" -T "ALBUM=%g" -T "DATE=%y" -T "TRACKNUMBER=%n" -T "GENRE=%m" -T "COMMENT=ripped by Oleandris" %s


TOC of the extracted CD

Track | Start | Length | Start sector | End sector
––––––––––––––––––––––––––––-
1 | 0:00.00 | 4:40.05 | 0 | 21004
2 | 4:40.05 | 5:06.16 | 21005 | 43970
3 | 9:46.21 | 3:59.34 | 43971 | 61929
4 | 13:45.55 | 6:05.25 | 61930 | 89329
5 | 19:51.05 | 4:47.40 | 89330 | 110894
6 | 24:38.45 | 4:16.68 | 110895 | 130162
7 | 28:55.38 | 5:23.14 | 130163 | 154401
8 | 34:18.52 | 4:53.43 | 154402 | 176419
9 | 39:12.20 | 5:12.27 | 176420 | 199846
10 | 44:24.47 | 4:58.66 | 199847 | 222262
11 | 49:23.38 | 4:30.12 | 222263 | 242524
12 | 53:53.50 | 5:04.16 | 242525 | 265340
13 | 58:57.66 | 5:51.29 | 265341 | 291694
14 | 64:49.20 | 5:30.49 | 291695 | 316493


Track 1

Filename F:\ЗАГРУЗКИ\ Cafe Del Mar - Dreams (2000-2012)\ Cafe Del Mar - Dreams 4 2CD (2006)\ Cafe Del Mar - Dreams 4 CD2\01. Teri Richardson - Eyes Wide Open.wav

Pre-gap length 0:00:02.00

Peak level 98.8 %
Extraction speed 3.8 X
Track quality 100.0 %
Test CRC 72F6FD73
Copy CRC 72F6FD73
Accurately ripped (confidence 7) [3F3DF51E]
Copy OK

Track 2

Filename F:\ЗАГРУЗКИ\ Cafe Del Mar - Dreams (2000-2012)\ Cafe Del Mar - Dreams 4 2CD (2006)\ Cafe Del Mar - Dreams 4 CD2\02. Aisen - Another Day.wav

Pre-gap length 0:00:02.00

Peak level 98.8 %
Extraction speed 4.4 X
Track quality 100.0 %
Test CRC 7330A442
Copy CRC 7330A442
Accurately ripped (confidence 7) [DB10B60C]
Copy OK

Track 3

Filename F:\ЗАГРУЗКИ\ Cafe Del Mar - Dreams (2000-2012)\ Cafe Del Mar - Dreams 4 2CD (2006)\ Cafe Del Mar - Dreams 4 CD2\03. Blank & Jones - Twilight.wav

Pre-gap length 0:00:02.00

Peak level 98.8 %
Extraction speed 4.6 X
Track quality 100.0 %
Test CRC 5DBF34D6
Copy CRC 5DBF34D6
Accurately ripped (confidence 7) [F3B89512]
Copy OK

Track 4

Filename F:\ЗАГРУЗКИ\ Cafe Del Mar - Dreams (2000-2012)\ Cafe Del Mar - Dreams 4 2CD (2006)\ Cafe Del Mar - Dreams 4 CD2\04. Aaron Taylor - Let You Go.wav

Pre-gap length 0:00:02.00

Peak level 98.8 %
Extraction speed 5.2 X
Track quality 100.0 %
Test CRC 4058FD07
Copy CRC 4058FD07
Accurately ripped (confidence 7) [88CC17FC]
Copy OK

Track 5

Filename F:\ЗАГРУЗКИ\ Cafe Del Mar - Dreams (2000-2012)\ Cafe Del Mar - Dreams 4 2CD (2006)\ Cafe Del Mar - Dreams 4 CD2\05. Groove Lovers - Mediterranean Star.wav

Pre-gap length 0:00:02.00

Peak level 98.8 %
Extraction speed 4.4 X
Track quality 99.9 %
Test CRC 8B40F745
Copy CRC 8B40F745
Accurately ripped (confidence 7) [56A1D228]
Copy OK

Track 6

Filename F:\ЗАГРУЗКИ\ Cafe Del Mar - Dreams (2000-2012)\ Cafe Del Mar - Dreams 4 2CD (2006)\ Cafe Del Mar - Dreams 4 CD2\06. Allesandro Boschi - Cuevas Del Drach.wav

Pre-gap length 0:00:02.00

Peak level 98.8 %
Extraction speed 5.7 X
Track quality 100.0 %
Test CRC 83C4BE7F
Copy CRC 83C4BE7F
Accurately ripped (confidence 7) [119EFFDD]
Copy OK

Track 7

Filename F:\ЗАГРУЗКИ\ Cafe Del Mar - Dreams (2000-2012)\ Cafe Del Mar - Dreams 4 2CD (2006)\ Cafe Del Mar - Dreams 4 CD2\07. Dab - The Call.wav

Pre-gap length 0:00:02.00

Peak level 98.8 %
Extraction speed 6.1 X
Track quality 100.0 %
Test CRC 5D69B79C
Copy CRC 5D69B79C
Accurately ripped (confidence 7) [AD8DCE2A]
Copy OK

Track 8

Filename F:\ЗАГРУЗКИ\ Cafe Del Mar - Dreams (2000-2012)\ Cafe Del Mar - Dreams 4 2CD (2006)\ Cafe Del Mar - Dreams 4 CD2\08. Alexander Vogele - Ibizarre.wav

Pre-gap length 0:00:02.00

Peak level 98.8 %
Extraction speed 6.3 X
Track quality 100.0 %
Test CRC 8EB8DCE7
Copy CRC 8EB8DCE7
Accurately ripped (confidence 7) [18222A74]
Copy OK

Track 9

Filename F:\ЗАГРУЗКИ\ Cafe Del Mar - Dreams (2000-2012)\ Cafe Del Mar - Dreams 4 2CD (2006)\ Cafe Del Mar - Dreams 4 CD2\09. Rue Du Soleil - In My Heart.wav

Pre-gap length 0:00:02.00

Peak level 98.8 %
Extraction speed 6.6 X
Track quality 100.0 %
Test CRC 3578EA2C
Copy CRC 3578EA2C
Accurately ripped (confidence 7) [EB5E4E51]
Copy OK

Track 10

Filename F:\ЗАГРУЗКИ\ Cafe Del Mar - Dreams (2000-2012)\ Cafe Del Mar - Dreams 4 2CD (2006)\ Cafe Del Mar - Dreams 4 CD2\10. Cardinal Zen - Far From Home.wav

Pre-gap length 0:00:02.00

Peak level 98.8 %
Extraction speed 5.7 X
Track quality 99.9 %
Test CRC 0FB784C1
Copy CRC 0FB784C1
Accurately ripped (confidence 7) [0F98D183]
Copy OK

Track 11

Filename F:\ЗАГРУЗКИ\ Cafe Del Mar - Dreams (2000-2012)\ Cafe Del Mar - Dreams 4 2CD (2006)\ Cafe Del Mar - Dreams 4 CD2\11. Vargo - Precious (Part 1).wav

Pre-gap length 0:00:02.00

Peak level 98.8 %
Extraction speed 7.1 X
Track quality 100.0 %
Test CRC 81EC240D
Copy CRC 81EC240D
Accurately ripped (confidence 7) [8C31B19B]
Copy OK

Track 12

Filename F:\ЗАГРУЗКИ\ Cafe Del Mar - Dreams (2000-2012)\ Cafe Del Mar - Dreams 4 2CD (2006)\ Cafe Del Mar - Dreams 4 CD2\12. Ohm-G & M Bussian - By Chance.wav

Pre-gap length 0:00:02.00

Peak level 98.8 %
Extraction speed 7.3 X
Track quality 100.0 %
Test CRC AD4F09BF
Copy CRC AD4F09BF
Accurately ripped (confidence 7) [F78566E3]
Copy OK

Track 13

Filename F:\ЗАГРУЗКИ\ Cafe Del Mar - Dreams (2000-2012)\ Cafe Del Mar - Dreams 4 2CD (2006)\ Cafe Del Mar - Dreams 4 CD2\13. Aware - Esperando La Lluvia.wav

Pre-gap length 0:00:02.00

Peak level 98.8 %
Extraction speed 7.7 X
Track quality 100.0 %
Test CRC D9BDEAED
Copy CRC D9BDEAED
Accurately ripped (confidence 7) [247EB03C]
Copy OK

Track 14

Filename F:\ЗАГРУЗКИ\ Cafe Del Mar - Dreams (2000-2012)\ Cafe Del Mar - Dreams 4 2CD (2006)\ Cafe Del Mar - Dreams 4 CD2\14. La Caina - Bailando Va.wav

Pre-gap length 0:00:02.00

Peak level 98.8 %
Extraction speed 7.9 X
Track quality 100.0 %
Test CRC 6BFB4D54
Copy CRC 6BFB4D54
Accurately ripped (confidence 6) [54280626]
Copy OK


All tracks accurately ripped

No errors occurred

End of status report

==== Log checksum 6495C00F6543D19AFF9EECE539F3B2CC895785D03A21347C29C2415CE706C819 ====

foobar2000 1.2 / Dynamic Range Meter 1.1.1
log date: 2013-06-20 10:36:04

––––––––––––––––––––––––––––––––––––––––
Analyzed: Aaron Taylor / Cafe Del Mar - Dreams 4 CD2 (1)
Aisen / Cafe Del Mar - Dreams 4 CD2 (2)
Alexander Vogele / Cafe Del Mar - Dreams 4 CD2 (3)
Allesandro Boschi / Cafe Del Mar - Dreams 4 CD2 (4)
Aware / Cafe Del Mar - Dreams 4 CD2 (5)
Blank & Jones / Cafe Del Mar - Dreams 4 CD2 (6)
Cardinal Zen / Cafe Del Mar - Dreams 4 CD2 (7)
Dab / Cafe Del Mar - Dreams 4 CD2 (8)
Groove Lovers / Cafe Del Mar - Dreams 4 CD2 (9)
La Caina / Cafe Del Mar - Dreams 4 CD2 (10)
Ohm-G & M Bussian / Cafe Del Mar - Dreams 4 CD2 (11)
Rue Du Soleil / Cafe Del Mar - Dreams 4 CD2 (12)
Teri Richardson / Cafe Del Mar - Dreams 4 CD2 (13)
Vargo / Cafe Del Mar - Dreams 4 CD2 (14)
––––––––––––––––––––––––––––––––––––––––

DR Peak RMS Duration Track
––––––––––––––––––––––––––––––––––––––––
DR9 -0.10 dB -11.36 dB 6:05 04-Let You Go
DR7 -0.10 dB -9.31 dB 5:06 02-Another Day
DR6 -0.10 dB -9.02 dB 4:54 08-Ibizarre
DR9 -0.10 dB -10.40 dB 4:17 06-Cuevas Del Drach
DR9 -0.10 dB -11.47 dB 5:51 13-Esperando La Lluvia
DR6 -0.10 dB -7.87 dB 3:59 03-Twilight
DR10 -0.10 dB -11.99 dB 4:59 10-Far From Home
DR7 -0.10 dB -9.11 dB 5:23 07-The Call
DR9 -0.10 dB -11.31 dB 4:48 05-Mediterranean Star
DR8 -0.10 dB -9.70 dB 5:31 14-Bailando Va
DR7 -0.10 dB -8.76 dB 5:04 12-By Chance
DR10 -0.10 dB -10.96 dB 5:12 09-In My Heart
DR7 -0.10 dB -8.27 dB 4:40 01-Eyes Wide Open
DR8 -0.10 dB -9.67 dB 4:30 11-Precious (Part 1)
––––––––––––––––––––––––––––––––––––––––

Number of tracks: 14
Official DR value: DR8

Samplerate: 44100 Hz
Channels: 2
Bits per sample: 16
Bitrate: 909 kbps
Codec: FLAC
================================================================================




VA - Cafe del Mar: Dreams - Volume 1-5 (2000-2012) [6CD] Re-Up

VA - Café del Mar: Dreams 5 (2012)
EAC | FLAC | Tracks (Cue&Log) ~ 422 Mb | Mp3 (CBR320) ~ 182 Mb
Label: Cafe Del Mar Music | # 01-2012-97 | Time: 01:07:13 | Scans included


Tracklist:

01. Steve Miller & Rachel Lloyd - Down (04:58)
02. H.P. Hoeger & M. Birkner - When You Come Home (05:11)
03. Lovely Laura - Saxophone (06:03)
04. Bliss - Lost Soul (06:19)
05. Christophe Goze - Mourir D`aimer (04:11)
06. Trumpet Thing - The Kiss (06:47)
07. Afterlife - Seriously (04:58)
08. Gelka - Underwater Soup (03:13)
09. Bliss - The Suns Of Afterlife (08:02)
10. Jay C & Felix Baumgartner - Souk (04:51)
11. Moby - Sweet Dreams (03:59)
12. Lamb - The Spectacle (03:56)
13. Vargo - Awakening (04:39)


Exact Audio Copy V1.0 beta 1 from 15. November 2010

EAC extraction logfile from 6. June 2013, 8:47

Various / Cafe Del Mar Dreams 5

Used drive : ASUS DRW-24B3ST Adapter: 1 ID: 2

Read mode : Secure
Utilize accurate stream : Yes
Defeat audio cache : Yes
Make use of C2 pointers : No

Read offset correction : 6
Overread into Lead-In and Lead-Out : No
Fill up missing offset samples with silence : Yes
Delete leading and trailing silent blocks : No
Null samples used in CRC calculations : Yes
Used interface : Native Win32 interface for Win NT & 2000
Gap handling : Appended to previous track

Used output format : User Defined Encoder
Selected bitrate : 896 kBit/s
Quality : High
Add ID3 tag : No
Command line compressor : C:\Program Files (x86)\Exact Audio Copy\Flac\flac.exe
Additional command line options : -8 -V -T "ARTIST=%a" -T "TITLE=%t" -T "ALBUM=%g" -T "DATE=%y" -T "TRACKNUMBER=%n" -T "GENRE=%m" -T "COMMENT=ripped by Oleandris" %s


TOC of the extracted CD

Track | Start | Length | Start sector | End sector
––––––––––––––––––––––––––––-
1 | 0:00.00 | 4:58.03 | 0 | 22352
2 | 4:58.03 | 5:11.35 | 22353 | 45712
3 | 10:09.38 | 6:03.37 | 45713 | 72974
4 | 16:13.00 | 6:19.30 | 72975 | 101429
5 | 22:32.30 | 4:11.16 | 101430 | 120270
6 | 26:43.46 | 6:47.07 | 120271 | 150802
7 | 33:30.53 | 4:58.55 | 150803 | 173207
8 | 38:29.33 | 3:13.34 | 173208 | 187716
9 | 41:42.67 | 8:02.67 | 187717 | 223933
10 | 49:45.59 | 4:51.09 | 223934 | 245767
11 | 54:36.68 | 3:59.52 | 245768 | 263744
12 | 58:36.45 | 3:56.44 | 263745 | 281488
13 | 62:33.14 | 4:39.40 | 281489 | 302453


Track 1

Filename F:\ЗАГРУЗКИ\ Cafe Del Mar - Dreams (2000-2012)\ Cafe Del Mar - Dreams 5 (2012)\01. Steve Miller & Rachel Lloyd - Down.wav

Pre-gap length 0:00:02.00

Peak level 93.3 %
Extraction speed 3.9 X
Track quality 100.0 %
Test CRC B7FB2B94
Copy CRC B7FB2B94
Accurately ripped (confidence 1) [1393E938]
Copy OK

Track 2

Filename F:\ЗАГРУЗКИ\ Cafe Del Mar - Dreams (2000-2012)\ Cafe Del Mar - Dreams 5 (2012)\02. H.P. Hoeger & M. Birkner - When You Come Home.wav

Pre-gap length 0:00:02.00

Peak level 93.3 %
Extraction speed 3.7 X
Track quality 99.9 %
Test CRC 48249840
Copy CRC 48249840
Accurately ripped (confidence 1) [4768FFF7]
Copy OK

Track 3

Filename F:\ЗАГРУЗКИ\ Cafe Del Mar - Dreams (2000-2012)\ Cafe Del Mar - Dreams 5 (2012)\03. Lovely Laura - Saxophone.wav

Pre-gap length 0:00:02.00

Peak level 93.3 %
Extraction speed 4.9 X
Track quality 100.0 %
Test CRC F4E1547F
Copy CRC F4E1547F
Accurately ripped (confidence 1) [A9CAC3A7]
Copy OK

Track 4

Filename F:\ЗАГРУЗКИ\ Cafe Del Mar - Dreams (2000-2012)\ Cafe Del Mar - Dreams 5 (2012)\04. Bliss - Lost Soul.wav

Pre-gap length 0:00:02.00

Peak level 93.3 %
Extraction speed 5.4 X
Track quality 100.0 %
Test CRC FD84C296
Copy CRC FD84C296
Accurately ripped (confidence 1) [3840C33D]
Copy OK

Track 5

Filename F:\ЗАГРУЗКИ\ Cafe Del Mar - Dreams (2000-2012)\ Cafe Del Mar - Dreams 5 (2012)\05. Christophe Goze - Mourir D`aimer.wav

Pre-gap length 0:00:02.00

Peak level 93.3 %
Extraction speed 5.5 X
Track quality 100.0 %
Test CRC 6812C199
Copy CRC 6812C199
Accurately ripped (confidence 1) [C021965E]
Copy OK

Track 6

Filename F:\ЗАГРУЗКИ\ Cafe Del Mar - Dreams (2000-2012)\ Cafe Del Mar - Dreams 5 (2012)\06. Trumpet Thing - The Kiss.wav

Pre-gap length 0:00:02.00

Peak level 89.1 %
Extraction speed 5.3 X
Track quality 99.9 %
Test CRC C3DADB73
Copy CRC C3DADB73
Accurately ripped (confidence 1) [2BA3AA1A]
Copy OK

Track 7

Filename F:\ЗАГРУЗКИ\ Cafe Del Mar - Dreams (2000-2012)\ Cafe Del Mar - Dreams 5 (2012)\07. Afterlife - Seriously.wav

Pre-gap length 0:00:02.00

Peak level 87.5 %
Extraction speed 6.2 X
Track quality 100.0 %
Test CRC 85CF6A03
Copy CRC 85CF6A03
Accurately ripped (confidence 1) [256A465B]
Copy OK

Track 8

Filename F:\ЗАГРУЗКИ\ Cafe Del Mar - Dreams (2000-2012)\ Cafe Del Mar - Dreams 5 (2012)\08. Gelka - Underwater Soup.wav

Pre-gap length 0:00:02.00

Peak level 93.3 %
Extraction speed 6.1 X
Track quality 100.0 %
Test CRC E5F59CE7
Copy CRC E5F59CE7
Accurately ripped (confidence 1) [A6830AF3]
Copy OK

Track 9

Filename F:\ЗАГРУЗКИ\ Cafe Del Mar - Dreams (2000-2012)\ Cafe Del Mar - Dreams 5 (2012)\09. Bliss - The Suns Of Afterlife.wav

Pre-gap length 0:00:02.00

Peak level 93.3 %
Extraction speed 7.1 X
Track quality 100.0 %
Test CRC 948B34DD
Copy CRC 948B34DD
Accurately ripped (confidence 1) [93654D77]
Copy OK

Track 10

Filename F:\ЗАГРУЗКИ\ Cafe Del Mar - Dreams (2000-2012)\ Cafe Del Mar - Dreams 5 (2012)\10. Jay C & Felix Baumgartner - Souk.wav

Pre-gap length 0:00:02.00

Peak level 93.3 %
Extraction speed 7.1 X
Track quality 100.0 %
Test CRC 1696B620
Copy CRC 1696B620
Accurately ripped (confidence 1) [6B9278E5]
Copy OK

Track 11

Filename F:\ЗАГРУЗКИ\ Cafe Del Mar - Dreams (2000-2012)\ Cafe Del Mar - Dreams 5 (2012)\11. Moby - Sweet Dreams.wav

Pre-gap length 0:00:02.00

Peak level 93.3 %
Extraction speed 7.1 X
Track quality 100.0 %
Test CRC 89E21AD9
Copy CRC 89E21AD9
Accurately ripped (confidence 1) [43E56C7B]
Copy OK

Track 12

Filename F:\ЗАГРУЗКИ\ Cafe Del Mar - Dreams (2000-2012)\ Cafe Del Mar - Dreams 5 (2012)\12. Lamb - The Spectacle.wav

Pre-gap length 0:00:02.00

Peak level 93.3 %
Extraction speed 7.2 X
Track quality 100.0 %
Test CRC 202C4F5D
Copy CRC 202C4F5D
Accurately ripped (confidence 1) [167AFC8C]
Copy OK

Track 13

Filename F:\ЗАГРУЗКИ\ Cafe Del Mar - Dreams (2000-2012)\ Cafe Del Mar - Dreams 5 (2012)\13. Vargo - Awakening.wav

Pre-gap length 0:00:02.00

Peak level 94.2 %
Extraction speed 7.6 X
Track quality 100.0 %
Test CRC ABB805E1
Copy CRC ABB805E1
Accurately ripped (confidence 1) [B58D7372]
Copy OK


All tracks accurately ripped

No errors occurred

End of status report

==== Log checksum E9E805ACB02572AB87FB01CF008A448BD44B1C6F5CAD5074D9266387EE901F0C ====

foobar2000 1.2 / Dynamic Range Meter 1.1.1
log date: 2013-06-20 10:36:24

––––––––––––––––––––––––––––––––––––––––
Analyzed: Afterlife / Cafe Del Mar Dreams 5 (1)
Bliss / Cafe Del Mar Dreams 5 (2-3)
Christophe Goze / Cafe Del Mar Dreams 5 (4)
Gelka / Cafe Del Mar Dreams 5 (5)
H.P. Hoeger & M. Birkner / Cafe Del Mar Dreams 5 (6)
Jay C & Felix Baumgartner / Cafe Del Mar Dreams 5 (7)
Lamb / Cafe Del Mar Dreams 5 (8)
Lovely Laura / Cafe Del Mar Dreams 5 (9)
Moby / Cafe Del Mar Dreams 5 (10)
Steve Miller & Rachel Lloyd / Cafe Del Mar Dreams 5 (11)
Trumpet Thing / Cafe Del Mar Dreams 5 (12)
Vargo / Cafe Del Mar Dreams 5 (13)
––––––––––––––––––––––––––––––––––––––––

DR Peak RMS Duration Track
––––––––––––––––––––––––––––––––––––––––
DR8 -1.15 dB -13.80 dB 4:59 07-Seriously
DR9 -0.60 dB -13.16 dB 6:19 04-Lost Soul
DR10 -0.60 dB -12.84 dB 8:03 09-The Suns Of Afterlife
DR10 -0.60 dB -12.22 dB 4:11 05-Mourir D`aimer
DR10 -0.60 dB -12.54 dB 3:13 08-Underwater Soup
DR10 -0.60 dB -13.43 dB 5:11 02-When You Come Home
DR9 -0.60 dB -12.67 dB 4:51 10-Souk
DR12 -0.60 dB -16.22 dB 3:57 12-The Spectacle
DR10 -0.60 dB -11.76 dB 6:03 03-Saxophone
DR10 -0.60 dB -12.43 dB 4:00 11-Sweet Dreams
DR10 -0.60 dB -13.32 dB 4:58 01-Down
DR9 -1.00 dB -11.16 dB 6:47 06-The Kiss
DR10 -0.52 dB -13.08 dB 4:40 13-Awakening
––––––––––––––––––––––––––––––––––––––––

Number of tracks: 13
Official DR value: DR10

Samplerate: 44100 Hz
Channels: 2
Bits per sample: 16
Bitrate: 744 kbps
Codec: FLAC
================================================================================




All thanks to original releaser - Oleandris

More interesting music in My Blog


Password: designol